osu file format v11

[General]
AudioFilename: fake.mp3
AudioLeadIn: 0
PreviewTime: 88038
Countdown: 0
SampleSet: Soft
StackLeniency: 0.7
Mode: 0
LetterboxInBreaks: 0

[Editor]
DistanceSpacing: 1
BeatDivisor: 4
GridSize: 4

[Metadata]
Title:fake doll
TitleUnicode:fake doll
Artist:8#Prince
ArtistUnicode:8#Prince
Creator:alacat
Version:Normal
Source:Vocaloid
Tags:hatsune miku wakamura pokie hachiojip
BeatmapID:197217
BeatmapSetID:68036

[Difficulty]
HPDrainRate:3
CircleSize:3
OverallDifficulty:3
ApproachRate:4
SliderMultiplier:0.999999999999999
SliderTickRate:1

[Events]
//Background and Video events
Video,0,"doll.flv"
0,0,"BG.jpg"
//Break Periods
2,118465,124218
//Storyboard Layer 0 (Background)
//Storyboard Layer 1 (Fail)
//Storyboard Layer 2 (Pass)
//Storyboard Layer 3 (Foreground)
//Storyboard Sound Samples
//Background Colour Transformations
3,100,0,0,0

[TimingPoints]
1902,454.545454545455,4,2,1,50,1,0
9174,-100,4,2,1,60,0,0
15992,-100,4,2,1,80,0,0
16447,-100,4,2,1,70,0,0
30992,-100,4,2,1,60,0,0
60083,-100,4,2,1,50,0,0
67356,-100,4,2,1,60,0,0
70992,-100,4,2,1,40,0,0
71447,-100,4,2,1,50,0,0
71902,-100,4,2,1,60,0,0
72356,-100,4,2,1,70,0,0
72811,-100,4,2,1,50,0,0
74629,-100,4,2,1,80,0,1
88947,-100,4,2,1,80,0,0
89174,-100,4,2,1,80,0,1
103720,-100,4,2,1,70,0,0
118265,-100,4,2,1,60,0,0
125538,-100,4,2,1,50,0,0
132811,-100,4,2,2,60,0,0
134174,-100,4,2,1,60,0,0
134629,-100,4,2,2,60,0,0
135992,-100,4,2,1,60,0,0
136447,-100,4,2,2,60,0,0
137811,-100,4,2,1,60,0,0
138265,-100,4,2,2,60,0,0
139629,-100,4,2,1,60,0,0
140083,-100,4,2,1,50,0,0
141902,-100,4,2,1,60,0,0
143720,-100,4,2,1,70,0,0
145538,-100,4,1,1,40,0,0
147356,-100,4,2,1,50,0,0
149174,-100,4,2,1,80,0,1
160083,-100,4,2,1,60,0,1
163265,-100,4,2,1,70,0,1
163492,-100,4,2,1,80,0,0
163720,-100,4,2,1,80,0,1
176220,-100,4,2,1,70,0,0
190538,-100,4,2,1,60,0,0

[Colours]
Combo1 : 166,255,255
Combo2 : 238,130,235

[HitObjects]
312,280,1902,2,0,P|252:316|172:312,1,150,2|2,0:0|0:0,0:0:0
80,80,3720,2,0,P|140:116|220:112,1,150,2|2,0:0|0:0,0:0:0
456,36,5538,6,0,P|496:112|484:172,1,150,2|2,0:0|0:0,0:0:0
416,244,6674,2,0,P|348:224|284:264,2,150,0|2|2,0:0|0:0|0:0,0:0:0
232,72,9174,5,4,0:0:0
188,164,9629,1,8,0:0:0
88,148,10083,1,0,0:0:0
28,228,10538,2,0,P|20:280,2,50,8|0|0,0:0|0:0|0:0,0:0:0
4,132,11447,1,8,0:0:0
60,48,11902,1,0,0:0:0
152,84,12356,6,0,P|204:88|248:72,1,99.9999999999999,8|0,0:0|0:0,0:0:0
344,40,13265,1,8,0:0:0
436,80,13720,1,0,0:0:0
464,176,14174,1,8,0:0:0
420,264,14629,5,4,0:0:0
220,244,15538,2,0,P|208:188|216:144,1,99.9999999999999,0|8,0:0|0:0,0:0:0
296,88,16447,6,0,P|256:56|208:52,1,99.9999999999999,4|8,0:0|0:0,0:0:0
124,108,17356,1,0,0:0:0
24,120,17811,1,8,0:0:0
4,220,18265,2,0,P|0:272|12:324,2,99.9999999999999,0|8|0,0:0|0:0|0:0,0:0:0
24,120,19629,1,8,0:0:0
120,144,20083,5,0,0:0:0
212,104,20538,1,8,0:0:0
296,156,20992,2,0,P|288:260,1,99.9999999999999,0|8,0:0|0:0,0:0:0
328,348,21902,2,0,P|276:348|228:336,2,99.9999999999999,0|8|0,0:0|0:0|0:0,0:0:0
408,292,23265,1,8,0:0:0
480,224,23720,6,0,P|484:168|476:124,1,99.9999999999999,0|8,0:0|0:0,0:0:0
376,140,24629,2,0,P|350:89|321:56,1,99.9999999999999,0|8,0:0|0:0,0:0:0
228,92,25538,2,0,P|192:80|160:100|128:84,2,99.9999999999999,0|8|0,0:0|0:0|0:0,0:0:0
272,180,26902,1,8,0:0:0
212,260,27356,5,4,0:0:0
112,256,27811,1,8,0:0:0
44,184,28265,2,0,P|52:84,1,99.9999999999999,0|8,0:0|0:0,0:0:0
140,36,29174,5,0,0:0:0
224,92,29629,1,0,0:0:0
300,156,30083,2,0,P|352:156,2,50
220,216,30992,6,0,P|168:216|124:236,1,99.9999999999999,4|8,0:0|0:0,0:0:0
24,232,31902,2,0,P|12:176|20:132,2,99.9999999999999,0|8|0,0:0|0:0|0:0,0:0:0
72,320,33265,1,8,0:0:0
172,304,33720,1,0,0:0:0
268,324,34174,2,0,P|308:356,2,50,8|0|0,0:0|0:0|0:0,0:0:0
232,232,35083,5,8,0:0:0
316,176,35538,2,0,P|340:76,1,99.9999999999999,0|8,0:0|0:0,0:0:0
432,44,36447,1,0,0:0:0
488,124,36902,1,8,0:0:0
436,208,37356,2,0,P|408:256,1,50
420,300,37811,2,0,P|372:324,1,50,8|0,0:0|0:0,0:0:0
336,352,38265,6,0,P|284:340|232:344,1,99.9999999999999,0|8,0:0|0:0,0:0:0
140,364,39174,2,0,P|128:312|136:264,1,99.9999999999999,0|8,0:0|0:0,0:0:0
220,212,40083,1,0,0:0:0
260,120,40538,1,8,0:0:0
184,52,40992,2,0,P|84:64,1,99.9999999999999,0|8,0:0|0:0,0:0:0
52,160,41902,5,0,0:0:0
96,248,42356,1,8,0:0:0
192,224,42811,2,0,P|244:220|292:232,1,99.9999999999999,0|8,0:0|0:0,0:0:0
356,304,43720,1,0,0:0:0
452,284,44174,1,8,0:0:0
444,184,44629,2,0,P|416:140,1,50
420,92,45083,2,0,P|376:68,1,50,8|0,0:0|0:0,0:0:0
328,64,45538,6,0,P|272:68|228:56,1,99.9999999999999,4|8,0:0|0:0,0:0:0
132,40,46447,1,0,0:0:0
80,124,46902,1,8,0:0:0
140,204,47356,2,0,P|180:300,2,99.9999999999999,0|8|0,0:0|0:0|0:0,0:0:0
80,124,48720,1,8,0:0:0
156,56,49174,6,0,P|196:48|224:64|256:60,1,99.9999999999999,0|8,0:0|0:0,0:0:0
352,32,50083,1,0,0:0:0
404,116,50538,1,8,0:0:0
484,56,50992,2,0,P|504:112|496:152,1,99.9999999999999,0|8,0:0|0:0,0:0:0
468,192,51674,2,0,P|440:260|464:336,1,150,0|8,0:0|0:0,0:0:0
368,372,52811,6,0,P|328:332|288:316,1,99.9999999999999,0|8,0:0|0:0,0:0:0
212,252,53720,2,0,P|184:152,1,99.9999999999999,0|8,0:0|0:0,0:0:0
220,60,54629,2,0,P|172:48|120:60,1,99.9999999999999,0|8,0:0|0:0,0:0:0
84,92,55311,1,0,0:0:0
44,184,55765,2,0,P|60:236,1,50,0|8,0:0|0:0,0:0:0
128,304,56447,6,0,P|180:288|224:296,1,99.9999999999999,0|8,0:0|0:0,0:0:0
272,320,57129,2,0,P|308:280|324:236,1,99.9999999999999,0|0,0:0|0:0,0:0:0
304,192,57811,1,8,0:0:0
284,96,58265,5,4,0:0:0
188,72,58720,1,8,0:0:0
100,116,59174,1,0,0:0:0
76,212,59629,1,8,0:0:0
132,296,60083,6,0,P|184:296|228:280,1,99.9999999999999,4|8,0:0|0:0,0:0:0
276,292,60765,2,0,P|336:256|360:176,1,150,0|8,0:0|0:0,0:0:0
316,92,61902,2,0,P|268:76,2,50,0|0|8,0:0|0:0|0:0,0:0:0
416,96,62811,5,0,0:0:0
460,184,63265,1,8,0:0:0
376,240,63720,2,0,P|348:336,1,99.9999999999999,0|8,0:0|0:0,0:0:0
320,380,64402,2,0,P|224:344|180:352,1,150,0|8,0:0|0:0,0:0:0
88,308,65538,2,0,P|36:320,2,50,0|0|8,0:0|0:0|0:0,0:0:0
168,248,66447,6,0,P|168:196,1,50
208,168,66902,2,0,P|208:116,1,50,8|0,0:0|0:0,0:0:0
232,76,67356,1,4,0:0:0
420,140,68265,6,0,P|420:192,1,50
380,220,68720,2,0,P|380:272,1,50,8|8,0:0|0:0,0:0:0
356,312,69174,1,4,0:0:0
188,204,70083,5,0,0:0:0
256,132,70538,1,8,0:0:0
256,192,70992,12,0,72811,0:0:0
256,304,74174,1,8,0:0:0
180,240,74629,6,0,P|172:188|184:140,1,99.9999999999999,4|8,0:0|0:0,0:0:0
268,192,75538,2,0,P|324:188|364:172,2,99.9999999999999,2|8|2,0:0|0:0|0:0,0:0:0
264,92,76902,1,8,0:0:0
224,60,77129,2,0,P|148:48|80:72,1,150,2|8,0:0|0:0,0:0:0
28,156,78265,6,0,P|40:256,1,99.9999999999999,2|8,0:0|0:0,0:0:0
136,284,79174,2,0,P|124:184,1,99.9999999999999,2|8,0:0|0:0,0:0:0
148,140,79856,2,0,P|192:100|252:152|292:120,1,150,2|8,0:0|0:0,0:0:0
324,80,80765,2,0,P|372:52|416:48,1,99.9999999999999,2|2,0:0|0:0,0:0:0
460,72,81447,1,8,0:0:0
484,168,81902,6,0,P|456:208|460:260,1,99.9999999999999,2|8,0:0|0:0,0:0:0
388,328,82811,2,0,P|288:348,1,99.9999999999999,2|8,0:0|0:0,0:0:0
196,312,83720,2,0,P|156:284|106:286,2,99.9999999999999,2|8|2,0:0|0:0|0:0,0:0:0
272,244,85083,1,8,0:0:0
192,184,85538,5,2,0:0:0
392,184,86447,1,2,0:0:0
452,104,86902,2,0,P|464:56,2,50,8|0|0,0:0|0:0|0:0,0:0:0
484,200,87811,1,8,0:0:0
420,276,88265,2,0,P|320:284,1,99.9999999999999,2|8,0:0|0:0,0:0:0
236,228,89174,5,4,0:0:0
164,296,89629,1,8,0:0:0
68,328,90083,2,0,P|36:288|36:240,1,99.9999999999999,2|8,0:0|0:0,0:0:0
116,180,90992,1,2,0:0:0
52,104,91447,1,8,0:0:0
84,68,91674,2,0,P|160:48|232:56,1,150,2|8,0:0|0:0,0:0:0
320,104,92811,6,0,P|332:204,1,99.9999999999999,2|8,0:0|0:0,0:0:0
352,248,93492,2,0,P|276:268|224:316,1,150,2|8,0:0|0:0,0:0:0
124,320,94629,1,2,0:0:0
72,236,95083,2,0,P|92:184,1,50,8|2,0:0|0:0,0:0:0
56,96,95765,2,0,P|108:80,1,50,2|8,0:0|0:0,0:0:0
200,104,96447,6,0,P|248:116|296:104,1,99.9999999999999,4|8,0:0|0:0,0:0:0
332,72,97129,2,0,P|404:140,1,99.9999999999999,2|2,0:0|0:0,0:0:0
456,148,97811,1,8,0:0:0
432,248,98265,5,4,0:0:0
340,292,98720,1,8,0:0:0
348,192,99174,1,2,0:0:0
268,132,99629,2,0,P|220:120,2,50,8|8|4,0:0|0:0|0:0,0:0:0
360,96,100538,5,8,0:0:0
444,152,100992,2,0,P|424:200,1,50,8|0,0:0|0:0,0:0:0
452,240,101447,2,0,P|428:288,2,50,8|0|2,0:0|0:0|0:0,0:0:0
256,196,102811,6,0,P|256:300,1,99.9999999999999,0|8,0:0|0:0,0:0:0
256,192,103720,12,2,105538,0:0:0
364,40,107356,6,0,P|356:96|364:140,1,99.9999999999999,0|8,0:0|0:0,0:0:0
424,216,108265,2,0,P|420:268|404:312,1,99.9999999999999,0|8,0:0|0:0,0:0:0
308,336,109174,2,0,P|208:328,2,99.9999999999999,0|8|0,0:0|0:0|0:0,0:0:0
404,312,110538,1,8,0:0:0
476,240,110992,5,0,0:0:0
424,156,111447,1,8,0:0:0
328,184,111902,2,0,P|276:196|228:192,1,99.9999999999999,0|8,0:0|0:0,0:0:0
136,156,112811,2,0,P|112:256,2,99.9999999999999,0|8|0,0:0|0:0|0:0,0:0:0
212,92,114174,1,8,0:0:0
304,132,114629,6,0,P|380:136|448:112,2,150,4|0|8,0:0|0:0|0:0,0:0:0
212,92,116447,1,0,0:0:0
116,68,116902,1,8,0:0:0
44,136,117356,2,0,P|24:188,2,50,0|0|8,0:0|0:0|0:0,0:0:0
140,164,118265,5,4,0:0:0
164,108,125538,6,0,P|216:100|264:108,1,99.9999999999999,4|8,0:0|0:0,0:0:0
300,140,126220,2,0,P|284:292,1,150,0|8,0:0|0:0,0:0:0
184,280,127356,1,0,0:0:0
92,320,127811,1,8,0:0:0
48,296,128038,2,0,P|32:196|48:152,1,150,0|8,0:0|0:0,0:0:0
128,92,129174,6,0,P|228:80,1,99.9999999999999,0|8,0:0|0:0,0:0:0
272,56,129856,2,0,P|344:124|344:172,1,150,0|8,0:0|0:0,0:0:0
308,260,130992,5,4,0:0:0
20,348,132356,1,8,0:0:0
4,248,132811,6,0,P|7:164|44:105,2,150,2|2|8,0:0|0:0|0:0,0:0:0
96,288,134629,2,0,P|151:321|234:325,2,150,2|2|8,0:0|0:0|0:0,0:0:0
132,196,136447,6,0,P|135:112|172:53,2,150,2|2|8,0:0|0:0|0:0,0:0:0
224,236,138265,2,0,P|279:269|362:273,2,150,2|2|8,0:0|0:0|0:0,0:0:0
248,140,140083,6,0,P|296:64|400:52|468:116|480:184,1,300,4|8,0:0|0:0,0:0:0
460,280,141902,2,0,P|412:356|308:368|240:304|228:236,1,300,4|8,0:0|0:0,0:0:0
256,192,143720,12,4,145538,0:0:0
344,324,147356,5,4,0:0:0
232,156,148265,2,0,P|212:256,1,99.9999999999999,0|8,0:0|0:0,0:0:0
160,340,149174,6,0,P|108:348|60:336,1,99.9999999999999,4|8,0:0|0:0,0:0:0
32,240,150083,2,0,P|28:184|12:144,1,99.9999999999999,2|8,0:0|0:0,0:0:0
52,52,150992,1,2,0:0:0
140,104,151447,1,8,0:0:0
180,136,151674,2,0,P|256:148|324:124,1,150,2|8,0:0|0:0,0:0:0
420,144,152810,6,0,P|432:244,1,99.9999999999999,2|8,0:0|0:0,0:0:0
408,340,153720,2,0,P|352:348|308:336,1,99.9999999999999,2|8,0:0|0:0,0:0:0
224,288,154629,2,0,P|168:280|124:292,1,99.9999999999999,2|8,0:0|0:0,0:0:0
92,324,155310,1,2,0:0:0
20,252,155765,2,0,P|40:204,1,50,2|8,0:0|0:0,0:0:0
124,152,156447,6,0,P|176:144|224:156,1,99.9999999999999,2|8,0:0|0:0,0:0:0
248,60,157356,2,0,P|296:79|331:114,1,99.9999999999999,2|8,0:0|0:0,0:0:0
408,48,158265,2,0,P|437:91|448:139,1,99.9999999999999,2|8,0:0|0:0,0:0:0
432,236,159174,1,2,0:0:0
364,308,159629,2,0,P|316:316|264:304,1,99.9999999999999,8|4,0:0|0:0,0:0:0
72,76,161447,6,0,P|120:68|172:80,1,99.9999999999999,2|4,0:0|0:0,0:0:0
148,328,163038,2,0,P|200:332,1,50,0|8,0:0|0:0,0:0:0
284,380,163719,5,4,0:0:0
368,324,164174,1,8,0:0:0
464,356,164628,2,0,P|496:316|496:268,1,99.9999999999999,2|8,0:0|0:0,0:0:0
416,208,165537,1,2,0:0:0
480,132,165992,1,8,0:0:0
448,96,166219,2,0,P|372:76|300:84,1,150,2|8,0:0|0:0,0:0:0
228,152,167356,6,0,P|240:252,1,99.9999999999999,2|8,0:0|0:0,0:0:0
260,296,168037,2,0,P|184:316|132:364,1,150,2|8,0:0|0:0,0:0:0
36,336,169174,1,4,0:0:0
72,244,169628,2,0,P|52:192,1,50,8|2,0:0|0:0,0:0:0
52,96,170310,2,0,P|104:80,1,50,2|8,0:0|0:0,0:0:0
196,104,170992,6,0,P|220:146|222:196,1,99.9999999999999,4|8,0:0|0:0,0:0:0
196,236,171674,1,2,0:0:0
216,332,172128,2,0,P|264:352,1,50,2|8,0:0|0:0,0:0:0
360,344,172810,5,4,0:0:0
404,252,173265,1,8,0:0:0
468,176,173720,2,0,P|452:124,1,50,8|0,0:0|0:0,0:0:0
408,108,174174,2,0,P|376:68,2,50,8|0|4,0:0|0:0|0:0,0:0:0
256,240,175538,6,0,P|256:340,1,99.9999999999999,0|8,0:0|0:0,0:0:0
256,192,176447,12,0,179174,0:0:0
160,256,180083,6,0,P|212:264|260:260,1,99.9999999999999,0|8,0:0|0:0,0:0:0
344,204,180992,1,0,0:0:0
412,276,181447,1,8,0:0:0
488,212,181902,2,0,P|496:112,1,99.9999999999999,0|8,0:0|0:0,0:0:0
416,52,182811,2,0,P|364:68|320:64,1,99.9999999999999,0|8,0:0|0:0,0:0:0
256,192,183720,12,4,187356,0:0:0
348,284,188038,6,0,P|268:300|200:284,1,150,0|8,0:0|0:0,0:0:0
156,196,189174,1,0,0:0:0
228,128,189629,1,0,0:0:0
328,148,190083,2,0,P|380:148,1,50,0|8,0:0|0:0,0:0:0
412,184,190538,2,0,P|464:184,1,50,4|4,0:0|0:0,0:0:0
