osu file format v11

[General]
AudioFilename: fake.mp3
AudioLeadIn: 0
PreviewTime: 88038
Countdown: 0
SampleSet: Soft
StackLeniency: 0.7
Mode: 0
LetterboxInBreaks: 0

[Editor]
DistanceSpacing: 1
BeatDivisor: 4
GridSize: 4

[Metadata]
Title:fake doll
TitleUnicode:fake doll
Artist:8#Prince
ArtistUnicode:8#Prince
Creator:alacat
Version:Fake
Source:Vocaloid
Tags:hatsune miku wakamura pokie hachiojip
BeatmapID:197189
BeatmapSetID:68036

[Difficulty]
HPDrainRate:7
CircleSize:4
OverallDifficulty:7
ApproachRate:8
SliderMultiplier:1.8
SliderTickRate:2

[Events]
//Background and Video events
Video,0,"doll.flv"
0,0,"BG.jpg"
//Break Periods
2,118465,124788
//Storyboard Layer 0 (Background)
//Storyboard Layer 1 (Fail)
//Storyboard Layer 2 (Pass)
//Storyboard Layer 3 (Foreground)
//Storyboard Sound Samples
//Background Colour Transformations
3,100,0,0,0

[TimingPoints]
1902,454.545454545455,4,2,1,50,1,0
1902,-133.333333333333,4,2,1,50,0,0
2015,-133.333333333333,4,2,1,5,0,0
2470,-133.333333333333,4,2,1,20,0,0
2583,-133.333333333333,4,2,1,50,0,0
3833,-133.333333333333,4,2,1,5,0,0
4288,-133.333333333333,4,2,1,20,0,0
4402,-133.333333333333,4,2,1,50,0,0
5652,-133.333333333333,4,2,1,5,0,0
6106,-133.333333333333,4,2,1,20,0,0
6220,-133.333333333333,4,2,1,50,0,0
7470,-133.333333333333,4,2,1,5,0,0
7697,-133.333333333333,4,2,1,50,0,0
7811,-133.333333333333,4,2,1,5,0,0
8038,-133.333333333333,4,2,1,50,0,0
14629,-66.6666666666667,4,2,1,50,0,0
14856,-66.6666666666667,4,2,1,20,0,0
15538,-66.6666666666667,4,2,1,50,0,0
15992,-55.5555555555556,4,2,1,80,0,0
16220,-55.5555555555556,4,2,1,20,0,0
16447,-100,4,2,1,70,0,0
30992,-100,4,2,1,60,0,0
60083,-133.333333333333,4,2,1,50,0,0
67356,-133.333333333333,4,2,2,50,0,0
67697,-133.333333333333,4,2,1,50,0,0
68265,-133.333333333333,4,2,2,50,0,0
68720,-133.333333333333,4,2,1,50,0,0
69174,-133.333333333333,4,2,2,50,0,0
69515,-133.333333333333,4,2,1,50,0,0
70083,-133.333333333333,4,2,2,50,0,0
70197,-133.333333333333,4,2,1,50,0,0
70992,-133.333333333333,4,2,2,40,0,0
71447,-100,4,2,2,50,0,0
71902,-79.9999999999999,4,2,2,60,0,0
72356,-66.6666666666667,4,2,2,70,0,0
72811,-55.5555555555556,4,2,1,50,0,0
73038,-55.5555555555556,4,2,1,20,0,0
73720,-55.5555555555556,4,2,1,50,0,0
74402,-55.5555555555556,4,2,1,20,0,0
74629,-100,4,2,1,80,0,1
88720,-55.5555555555556,4,2,1,80,0,1
88947,-55.5555555555556,4,2,1,20,0,0
89174,-100,4,2,1,80,0,1
102811,-100,4,2,1,50,0,1
103265,-55.5555555555556,4,2,1,80,0,1
103492,-55.5555555555556,4,2,1,20,0,1
103720,-100,4,2,1,70,0,0
118265,-100,4,2,1,50,0,0
125538,-100,4,2,2,50,0,0
125992,-100,4,2,1,50,0,0
126220,-100,4,2,2,50,0,0
126902,-100,4,2,1,50,0,0
127356,-100,4,2,2,50,0,0
127811,-100,4,2,1,50,0,0
128038,-100,4,2,2,50,0,0
128720,-100,4,2,1,50,0,0
129061,-100,4,2,2,50,0,0
129629,-100,4,2,1,50,0,0
129856,-100,4,2,2,50,0,0
130538,-100,4,2,1,50,0,0
130765,-100,4,2,2,50,0,0
131106,-100,4,2,1,49,0,0
131220,-100,4,2,1,52,0,0
131333,-100,4,2,1,55,0,0
131447,-100,4,2,1,58,0,0
131561,-100,4,2,1,61,0,0
131674,-100,4,2,1,64,0,0
131788,-100,4,2,1,67,0,0
131902,-100,4,2,1,70,0,0
132015,-100,4,2,1,73,0,0
132129,-100,4,2,1,76,0,0
132242,-100,4,2,1,79,0,0
132356,-100,4,2,1,82,0,0
132811,-100,4,2,2,40,0,0
133152,-100,4,2,2,45,0,0
133492,-100,4,2,2,50,0,0
133833,-100,4,2,2,55,0,0
134174,-100,4,2,2,60,0,0
134629,-100,4,2,2,40,0,0
134970,-100,4,2,2,45,0,0
135311,-100,4,2,2,50,0,0
135652,-100,4,2,2,55,0,0
135992,-100,4,2,2,60,0,0
136447,-100,4,2,2,40,0,0
136788,-100,4,2,2,45,0,0
137129,-100,4,2,2,50,0,0
137470,-100,4,2,2,55,0,0
137811,-100,4,2,2,60,0,0
138265,-100,4,2,2,40,0,0
138606,-100,4,2,2,45,0,0
138947,-100,4,2,2,50,0,0
139288,-100,4,2,2,55,0,0
139629,-100,4,2,2,60,0,0
140083,-100,4,2,2,50,0,0
141447,-100,4,2,1,50,0,0
141902,-100,4,2,2,60,0,0
143265,-100,4,2,1,60,0,0
143492,-100,4,2,2,70,0,0
146220,-100,4,2,1,60,0,0
146674,-55.5555555555556,4,2,1,50,0,0
146902,-55.5555555555556,4,2,1,20,0,0
147356,-55.5555555555556,4,2,1,50,0,0
148947,-55.5555555555556,4,2,1,20,0,0
149174,-79.9999999999999,4,2,1,80,0,1
159629,-100,4,2,1,80,0,1
160765,-100,4,2,1,50,0,1
161902,-100,4,2,1,50,0,1
163038,-100,4,2,1,60,0,1
163265,-55.5555555555556,4,2,1,80,0,1
163492,-55.5555555555556,4,2,1,20,0,0
163720,-79.9999999999999,4,2,1,80,0,1
175992,-55.5555555555556,4,2,1,80,0,1
176220,-55.5555555555556,4,2,1,20,0,0
179629,-100,4,2,1,30,0,0
180083,-100,4,2,1,70,0,0
187356,-100,4,2,1,60,0,0

[Colours]
Combo1 : 166,255,255
Combo2 : 238,130,235

[HitObjects]
132,220,1902,2,0,P|216:208|236:136,1,168.750006437302,2|0,0:0|0:0,0:0:0
200,76,2583,1,2,0:0:0
56,252,3492,1,0,0:0:0
52,256,3606,1,0,0:0:0
48,260,3720,2,0,P|82:337|160:332,1,168.750006437302,2|0,0:0|0:0,0:0:0
196,276,4402,1,2,0:0:0
272,48,5538,6,0,P|300:152|348:164,1,168.750006437302,2|0,0:0|0:0,0:0:0
412,140,6220,1,2,0:0:0
468,252,6674,1,0,0:0:0
460,264,6788,1,0,0:0:0
452,276,6902,1,0,0:0:0
444,288,7015,1,0,0:0:0
436,300,7129,1,0,0:0:0
428,312,7242,1,0,0:0:0
420,320,7356,2,0,P|348:344|320:344,2,101.250003862381,2|2|2,0:0|0:0|0:0,0:0:0
92,180,9174,5,4,0:0:0
268,112,9629,1,8,0:0:0
160,268,10083,1,0,0:0:0
148,80,10538,1,8,0:0:0
192,172,10765,1,0,0:0:0
192,172,10879,1,0,0:0:0
192,172,10992,1,0,0:0:0
308,320,11447,5,8,0:0:0
448,192,11902,1,0,0:0:0
284,96,12356,1,8,0:0:0
296,120,12470,1,0,0:0:0
308,144,12583,1,0,0:0:0
320,168,12697,1,0,0:0:0
332,192,12811,1,0,0:0:0
308,320,13038,1,0,0:0:0
472,296,13265,1,8,0:0:0
200,272,13492,1,0,0:0:0
125,371,13720,5,0,0:0:0
114,349,13833,1,0,0:0:0
103,326,13947,1,0,0:0:0
91,304,14061,1,0,0:0:0
79,281,14174,1,0,0:0:0
67,258,14288,1,0,0:0:0
56,236,14402,1,0,0:0:0
44,214,14515,1,0,0:0:0
32,192,14629,2,0,P|24:124|48:64,1,135.000005149842
48,64,15538,5,0,0:0:0
188,148,15765,1,0,0:0:0
200,164,15879,1,0,0:0:0
216,180,15992,2,0,P|380:180,1,161.999995056153,8|0,0:0|0:0,0:0:0
456,92,16447,6,0,P|500:172|492:212,1,135,4|0,0:0|0:0,0:0:0
472,256,16902,2,0,P|488:344,1,90,8|0,0:0|0:0,0:0:0
356,276,17356,2,0,P|312:276|264:272,1,90
244,256,17697,1,0,0:0:0
224,236,17811,2,0,P|180:232|132:232,1,90,8|0,0:0|0:0,0:0:0
22,289,18265,6,0,P|40:248,1,45
36,188,18492,2,0,P|24:144,1,45
40,88,18720,2,0,P|84:64,1,45,8|0,0:0|0:0,0:0:0
136,48,18947,2,0,P|180:68,1,45
222,117,19174,2,0,P|290:121|346:89,1,135
366,69,19629,2,0,P|410:57|458:57,1,90,8|0,0:0|0:0,0:0:0
222,117,20083,5,0,0:0:0
164,208,20311,1,0,0:0:0
164,208,20424,1,0,0:0:0
164,208,20538,2,0,P|152:300|152:344,1,135,8|0,0:0|0:0,0:0:0
164,364,20992,1,0,0:0:0
316,312,21220,2,0,P|360:308,1,45,0|8,0:0|0:0,0:0:0
476,176,21561,2,0,P|432:172,1,45,0|8,0:0|0:0,0:0:0
324,208,21902,5,0,0:0:0
232,144,22129,2,0,P|220:100|224:56,2,90,0|8|0,0:0|0:0|0:0,0:0:0
408,84,22811,2,0,P|432:172,1,90
448,192,23152,2,0,P|424:280,1,90,8|0,0:0|0:0,0:0:0
436,304,23492,1,8,0:0:0
436,304,23606,1,0,0:0:0
436,304,23720,1,0,0:0:0
328,352,23947,6,0,P|280:340,1,45
236,356,24174,2,0,P|200:296|204:232,1,135,8|0,0:0|0:0,0:0:0
216,208,24629,2,0,P|232:164|228:120,1,90
212,100,24970,1,0,0:0:0
188,84,25083,2,0,P|96:68,1,90,8|0,0:0|0:0,0:0:0
48,184,25538,5,0,0:0:0
68,200,25652,1,0,0:0:0
92,212,25765,1,0,0:0:0
120,216,25879,1,0,0:0:0
148,212,25992,2,0,P|192:220,1,45,8|0,0:0|0:0,0:0:0
216,208,26220,2,0,P|260:196,1,45
304,144,26447,1,0,0:0:0
432,184,26674,2,0,P|452:224,1,45,0|8,0:0|0:0,0:0:0
356,316,27015,2,0,P|308:308,1,45,0|8,0:0|0:0,0:0:0
180,336,27356,5,4,0:0:0
24,152,27583,1,8,0:0:0
52,288,27811,1,8,0:0:0
152,196,28038,1,0,0:0:0
276,248,28265,2,0,P|312:280,3,45,8|0|0|0,0:0|0:0|0:0|0:0,0:0:0
360,272,28720,2,0,P|372:316,3,45,8|0|0|0,0:0|0:0|0:0|0:0,0:0:0
360,364,29174,5,0,0:0:0
72,144,29629,1,0,0:0:0
412,32,30083,1,0,0:0:0
288,160,30311,1,8,0:0:0
168,128,30538,1,0,0:0:0
148,148,30652,1,0,0:0:0
136,172,30765,1,0,0:0:0
132,200,30879,1,0,0:0:0
136,228,30992,6,0,P|144:276|132:316,1,90,4|0,0:0|0:0,0:0:0
36,268,31447,1,8,0:0:0
220,384,31674,2,0,P|268:384|312:380,1,90
461,295,32129,2,0,P|413:295|371:291,1,90,0|8,0:0|0:0,0:0:0
280,232,32583,2,0,P|284:188|292:140,1,90
480,81,33038,2,0,P|396:112,1,90,0|8,0:0|0:0,0:0:0
204,76,33492,2,0,P|119:106,1,90
52,192,33947,1,0,0:0:0
108,284,34174,6,0,P|148:264,1,45,8|0,0:0|0:0,0:0:0
216,280,34402,2,0,P|196:324,1,45
136,352,34629,5,0,0:0:0
52,192,34856,1,0,0:0:0
232,200,35083,2,0,P|252:156|260:116,1,90,8|0,0:0|0:0,0:0:0
276,96,35424,1,0,0:0:0
296,80,35538,2,0,P|340:72|388:72,1,90
196,40,35992,2,0,P|152:48|104:48,1,90,8|0,0:0|0:0,0:0:0
52,192,36447,6,0,P|48:284|52:328,1,135
76,352,36901,2,0,P|120:348|168:352,1,90,8|0,0:0|0:0,0:0:0
256,296,37356,1,0,0:0:0
168,160,37583,1,0,0:0:0
316,228,37811,6,0,P|360:220,1,45,8|0,0:0|0:0,0:0:0
428,224,38038,2,0,P|472:241,1,45
492,304,38265,5,0,0:0:0
364,356,38492,1,0,0:0:0
316,228,38720,1,8,0:0:0
248,144,38947,1,0,0:0:0
248,144,39061,1,0,0:0:0
248,144,39174,2,0,P|196:140|156:144,1,90
112,240,39629,2,0,P|164:244|204:240,1,90,8|0,0:0|0:0,0:0:0
356,188,40083,6,0,P|360:136|356:96,1,90
144,56,40538,2,0,P|140:108|144:148,1,90,8|0,0:0|0:0,0:0:0
304,268,40992,1,0,0:0:0
228,344,41220,1,0,0:0:0
228,344,41333,1,0,0:0:0
228,344,41447,2,0,P|184:348|136:348,1,90,8|0,0:0|0:0,0:0:0
32,208,41901,6,0,P|120:200|168:204,1,135
200,216,42356,2,0,P|216:176|220:128,1,90,8|0,0:0|0:0,0:0:0
136,60,42811,1,0,0:0:0
32,208,43038,2,0,P|20:252|24:300,1,90,0|8,0:0|0:0,0:0:0
124,332,43492,1,0,0:0:0
124,332,43606,1,0,0:0:0
124,332,43720,1,0,0:0:0
256,272,43947,1,0,0:0:0
136,192,44174,1,8,0:0:0
256,364,44401,5,0,0:0:0
288,373,44515,1,0,0:0:0
324,369,44629,1,0,0:0:0
356,357,44742,1,0,0:0:0
384,337,44856,1,0,0:0:0
336,212,45083,1,0,0:0:0
324,176,45197,1,0,0:0:0
328,140,45311,1,0,0:0:0
344,108,45424,1,0,0:0:0
364,80,45538,6,0,P|404:60|448:52,1,90,4|0,0:0|0:0,0:0:0
232,112,45992,1,8,0:0:0
248,332,46220,1,0,0:0:0
152,280,46447,2,0,P|148:240|156:192,1,90
44,104,46901,2,0,P|40:144|48:192,1,90,8|0,0:0|0:0,0:0:0
68,224,47242,1,0,0:0:0
96,244,47356,6,0,P|144:240|188:240,1,90
276,300,47811,1,8,0:0:0
372,252,48038,2,0,P|380:208|376:164,1,90
468,108,48492,1,0,0:0:0
392,32,48720,6,0,P|348:44,1,45,8|0,0:0|0:0,0:0:0
300,92,48947,2,0,P|304:140,1,45
356,180,49174,5,0,0:0:0
200,76,49401,2,0,P|152:72|108:76,1,90,0|8,0:0|0:0,0:0:0
236,164,49856,1,0,0:0:0
236,164,49970,1,0,0:0:0
236,164,50083,2,0,P|228:256,1,90
160,336,50538,2,0,P|112:332|76:312,1,90,8|0,0:0|0:0,0:0:0
12,224,50992,6,0,P|12:144|44:100,1,135
76,92,51447,2,0,P|120:100|168:100,1,90,8|0,0:0|0:0,0:0:0
256,233,51901,2,0,P|264:144,1,90
340,36,52356,6,0,P|364:76,1,45,8|0,0:0|0:0,0:0:0
396,136,52583,2,0,P|380:180,1,45
336,232,52811,6,0,P|336:284|348:320,1,90
448,356,53265,1,8,0:0:0
492,212,53492,1,0,0:0:0
492,212,53606,1,0,0:0:0
492,212,53720,2,0,P|464:124,1,90
358,177,54174,1,8,0:0:0
277,266,54401,1,0,0:0:0
181,105,54629,5,0,0:0:0
358,177,54856,1,0,0:0:0
171,220,55083,1,8,0:0:0
294,79,55311,1,0,0:0:0
408,260,55538,2,0,P|384:348,1,90
277,266,55992,2,0,P|229:258|189:266,1,90,8|0,0:0|0:0,0:0:0
80,368,56447,6,0,P|52:284|56:236,1,135
68,204,56901,2,0,P|76:159|72:115,1,90,8|0,0:0|0:0,0:0:0
216,232,57356,2,0,P|208:277|216:320,1,90
324,276,57811,1,8,0:0:0
156,148,58038,1,0,0:0:0
156,148,58151,1,0,0:0:0
156,148,58265,1,0,0:0:0
216,320,58492,1,0,0:0:0
312,160,58720,1,8,0:0:0
384,332,58947,5,0,0:0:0
384,332,59061,1,0,0:0:0
384,332,59174,1,0,0:0:0
468,248,59401,1,0,0:0:0
332,248,59629,1,8,0:0:0
452,156,59856,1,0,0:0:0
332,72,60083,6,0,P|264:56|232:60,1,101.250003862381,4|0,0:0|0:0,0:0:0
204,76,60538,2,0,P|192:112|188:144,1,67.5000025749208,8|0,0:0|0:0,0:0:0
132,240,60992,2,0,P|64:252,2,67.5000025749208,2|8|8,0:0|0:0|0:0,0:0:0
316,200,61674,1,0,0:0:0
316,200,61788,1,0,0:0:0
316,200,61901,2,0,P|328:272,1,67.5000025749208,2|0,0:0|0:0,0:0:0
272,368,62356,1,8,0:0:0
160,348,62583,1,0,0:0:0
180,236,62811,2,0,P|160:204|136:188,1,67.5000025749208,2|8,0:0|0:0,0:0:0
60,276,63265,1,8,0:0:0
304,268,63492,5,8,0:0:0
304,268,63606,1,0,0:0:0
304,268,63720,2,0,P|316:196,1,67.5000025749208,2|0,0:0|0:0,0:0:0
252,104,64174,1,8,0:0:0
412,32,64401,2,0,P|384:36|344:36,1,67.5000025749208,0|2,0:0|0:0,0:0:0
412,128,64856,2,0,P|390:145|355:166,1,67.5000025749208,0|8,0:0|0:0,0:0:0
460,212,65311,2,0,P|450:238|431:273,1,67.5000025749208,0|2,0:0|0:0,0:0:0
228,360,65765,1,8,0:0:0
304,268,65992,1,8,0:0:0
304,268,66447,6,0,P|304:200,1,67.5000025749208,2|0,0:0|0:0,0:0:0
188,192,66901,2,0,P|188:124,1,67.5000025749208,2|0,0:0|0:0,0:0:0
188,88,67242,1,0,0:0:0
188,52,67356,1,6,0:0:0
80,212,67697,1,8,0:0:0
272,236,68038,1,8,0:0:0
360,140,68265,6,0,P|364:104,2,33.7500012874604,2|0|0,0:0|0:0|0:0,0:0:0
304,324,68720,1,8,0:0:0
184,280,68947,1,8,0:0:0
144,288,69061,1,0,0:0:0
108,296,69174,1,6,0:0:0
269,172,69515,1,8,0:0:0
336,352,69856,1,8,0:0:0
440,280,70083,6,0,P|424:244,1,33.7500012874604,2|8,0:0|0:0,0:0:0
364,100,70538,1,8,0:0:0
336,72,70651,1,0,0:0:0
300,60,70765,1,0,0:0:0
264,64,70879,1,0,0:0:0
232,80,70992,6,0,P|184:96,2,45.0000017166138,2|2|2,0:0|0:0|0:0,0:0:0
280,152,71447,2,0,P|336:172,2,60,2|0|2,0:0|0:0|0:0,0:0:0
208,212,71902,2,0,P|136:244,2,75,2|2|2,0:0|0:0|0:0,0:0:0
288,264,72356,2,0,P|372:300,2,90.0000034332277,2|2|2,0:0|0:0|0:0,0:0:0
200,304,72811,6,0,P|120:316|56:272,1,161.999995056153
288,264,73720,5,0,0:0:0
332,288,73833,1,0,0:0:0
376,312,73947,1,0,0:0:0
420,340,74061,1,0,0:0:0
464,360,74174,2,0,P|448:196,1,161.999995056153,8|0,0:0|0:0,0:0:0
404,64,74629,6,0,P|332:88|304:136,1,135
312,180,75083,2,0,P|308:224|288:264,1,90,8|0,0:0|0:0,0:0:0
108,256,75538,1,0,0:0:0
168,344,75765,1,0,0:0:0
168,344,75879,1,0,0:0:0
168,344,75992,2,0,P|196:304|204:260,1,90,8|0,0:0|0:0,0:0:0
144,152,76447,5,0,0:0:0
4,264,76674,1,0,0:0:0
168,344,76901,1,8,0:0:0
276,280,77129,2,0,P|368:252|452:264,1,180
336,208,77811,2,0,P|328:160|336:120,1,90,8|0,0:0|0:0,0:0:0
492,204,78265,6,0,P|484:300|492:340,1,135
456,364,78720,2,0,P|408:364|364:372,1,90,8|0,0:0|0:0,0:0:0
260,304,79174,1,0,0:0:0
360,224,79401,1,0,0:0:0
360,224,79515,1,0,0:0:0
360,224,79629,2,0,P|372:176|368:132,1,90,8|0,0:0|0:0,0:0:0
244,184,80083,5,0,0:0:0
160,280,80311,2,0,P|140:320,2,45,0|0|8,0:0|0:0|0:0,0:0:0
40,240,80765,2,0,P|28:148|56:68,1,180
180,88,81447,1,8,0:0:0
164,212,81674,5,0,0:0:0
164,212,81788,1,0,0:0:0
164,212,81901,2,0,P|200:296|236:316,1,135
280,308,82356,2,0,P|328:312|368:324,1,90,8|0,0:0|0:0,0:0:0
284,196,82811,1,0,0:0:0
244,76,83038,2,0,P|200:68|152:72,1,90,0|8,0:0|0:0,0:0:0
52,144,83492,6,0,P|24:192|80:268|48:320,1,180
152,192,84174,1,8,0:0:0
268,144,84401,1,0,0:0:0
268,144,84515,1,0,0:0:0
268,144,84629,2,0,P|316:140|356:128,1,90
460,64,85083,2,0,P|472:156,1,90,8|0,0:0|0:0,0:0:0
416,268,85538,6,0,P|344:240|288:252,1,135
256,284,85992,2,0,P|256:328|272:372,1,90,8|0,0:0|0:0,0:0:0
416,268,86447,1,0,0:0:0
268,144,86674,1,0,0:0:0
412,96,86901,5,8,0:0:0
428,136,87015,1,0,0:0:0
432,180,87129,1,0,0:0:0
428,224,87242,1,0,0:0:0
416,268,87356,2,0,P|452:296|496:312,2,90,4|0|8,0:0|0:0|0:0,0:0:0
308,204,88038,2,0,P|216:188|148:236,1,180
60,328,88720,6,0,P|28:168,1,161.999995056153,8|0,0:0|0:0,0:0:0
100,64,89174,6,0,P|192:76|236:72,1,135,4|0,0:0|0:0,0:0:0
276,56,89629,2,0,P|320:52|368:56,1,90,8|0,0:0|0:0,0:0:0
444,152,90083,1,0,0:0:0
412,312,90311,1,0,0:0:0
292,204,90538,1,8,0:0:0
452,240,90765,5,0,0:0:0
452,240,90879,1,0,0:0:0
452,240,90992,1,0,0:0:0
300,308,91220,1,0,0:0:0
188,188,91447,1,8,0:0:0
112,88,91674,2,0,P|36:136|36:220,1,180
136,296,92356,2,0,P|176:320|220:328,1,90,8|0,0:0|0:0,0:0:0
372,248,92811,6,0,P|392:160|388:112,1,135
432,128,93265,2,0,P|432:72|424:40,1,90,8|0,0:0|0:0,0:0:0
308,92,93720,1,0,0:0:0
220,184,93947,1,0,0:0:0
220,184,94061,1,0,0:0:0
220,184,94174,2,0,P|128:192,1,90,8|0,0:0|0:0,0:0:0
68,280,94629,5,0,0:0:0
220,184,94856,1,0,0:0:0
60,100,95083,1,8,0:0:0
192,292,95311,2,0,P|284:276|352:224,1,180
440,52,95992,2,0,P|452:96|448:140,1,90,8|0,0:0|0:0,0:0:0
328,104,96447,6,0,P|252:84|196:92,1,135,4|0,0:0|0:0,0:0:0
160,64,96902,2,0,P|128:96|124:140,1,90,8|0,0:0|0:0,0:0:0
204,236,97356,1,0,0:0:0
316,180,97583,1,0,0:0:0
316,180,97697,1,0,0:0:0
316,180,97811,2,0,P|348:216|364:256,1,90,8|0,0:0|0:0,0:0:0
272,340,98265,6,0,P|180:352|136:348,1,135,4|0,0:0|0:0,0:0:0
100,320,98720,2,0,P|96:276|100:228,1,90,8|0,0:0|0:0,0:0:0
168,136,99174,2,0,P|216:140|260:136,1,90
420,140,99629,1,8,0:0:0
436,172,99742,1,0,0:0:0
452,204,99856,1,0,0:0:0
468,236,99970,1,0,0:0:0
484,268,100083,5,4,0:0:0
256,40,100538,1,8,0:0:0
28,268,100992,1,0,0:0:0
180,244,101220,1,0,0:0:0
40,180,101447,1,8,0:0:0
112,308,101674,1,0,0:0:0
112,308,101788,1,0,0:0:0
112,308,101902,1,0,0:0:0
428,312,102811,5,0,0:0:0
396,296,102924,1,0,0:0:0
360,292,103038,1,0,0:0:0
328,304,103152,1,0,0:0:0
300,332,103265,6,0,P|220:192,1,161.999995056153,8|0,0:0|0:0,0:0:0
128,128,103720,6,0,P|208:84|248:92,1,135,4|0,0:0|0:0,0:0:0
292,112,104174,2,0,P|380:96,1,90,8|0,0:0|0:0,0:0:0
472,168,104629,1,0,0:0:0
404,264,104856,1,0,0:0:0
388,296,104970,1,0,0:0:0
356,312,105083,2,0,P|312:316|264:316,1,90,8|0,0:0|0:0,0:0:0
152,344,105538,5,0,0:0:0
44,304,105765,2,0,P|32:260|36:216,2,90,0|8|0,0:0|0:0|0:0,0:0:0
148,248,106447,2,0,P|152:180|120:124,1,135
84,96,106902,2,0,P|124:75|172:66,1,90,8|0,0:0|0:0,0:0:0
276,144,107356,5,0,0:0:0
392,148,107583,2,0,P|404:196,1,45
416,236,107811,2,0,P|356:272|292:268,1,135,8|0,0:0|0:0,0:0:0
268,256,108265,2,0,P|224:240|180:244,1,90
156,252,108606,1,0,0:0:0
132,264,108720,2,0,P|116:172,2,90,8|0|0,0:0|0:0|0:0,0:0:0
244,384,109402,5,0,0:0:0
88,336,109629,1,8,0:0:0
116,176,109856,1,0,0:0:0
240,184,110083,2,0,P|276:152|292:112,1,90
292,88,110424,2,0,P|340:84|380:60,1,90,8|0,0:0|0:0,0:0:0
388,40,110765,1,8,0:0:0
388,40,110879,1,0,0:0:0
388,40,110992,1,0,0:0:0
472,120,111220,5,0,0:0:0
472,120,111333,1,0,0:0:0
472,120,111447,2,0,P|460:212,1,90,8|0,0:0|0:0,0:0:0
364,276,111902,2,0,P|272:284|232:264,1,135
204,236,112356,2,0,P|196:144,1,90,8|0,0:0|0:0,0:0:0
92,76,112811,6,0,P|74:117,1,45
78,177,113038,2,0,P|90:221,1,45
68,276,113265,2,0,P|112:300,1,45,8|0,0:0|0:0,0:0:0
152,336,113492,2,0,P|196:316,1,45
252,328,113720,1,0,0:0:0
368,308,113947,2,0,P|388:268,1,45,0|8,0:0|0:0,0:0:0
292,176,114288,2,0,P|244:184,1,45,0|8,0:0|0:0,0:0:0
160,108,114629,5,0,0:0:0
4,292,114856,1,8,0:0:0
32,156,115083,1,8,0:0:0
132,248,115311,1,0,0:0:0
256,196,115538,2,0,P|292:164,3,45,8|0|0|0,0:0|0:0|0:0|0:0,0:0:0
340,172,115992,2,0,P|352:128,3,45,8|0|0|0,0:0|0:0|0:0|0:0,0:0:0
340,80,116447,5,0,0:0:0
36,276,116902,1,0,0:0:0
384,364,117356,1,0,0:0:0
256,236,117583,1,8,0:0:0
144,172,117811,2,0,P|148:124,1,45
100,84,118038,2,0,P|60:108,1,45
76,168,118265,5,4,0:0:0
464,56,125538,6,0,P|460:148|464:192,1,135,6|0,0:0|0:0,0:0:0
476,224,125992,1,8,0:0:0
372,172,126220,2,0,P|280:176|236:172,1,135,2|0,0:0|0:0,0:0:0
208,152,126674,2,0,P|164:152|116:160,1,90,2|8,0:0|0:0,0:0:0
44,362,127356,6,0,P|52:272|48:228,1,135,2|0,0:0|0:0,0:0:0
32,196,127811,1,8,0:0:0
80,88,128038,2,0,P|144:60|208:64,1,135,2|0,0:0|0:0,0:0:0
240,84,128492,2,0,P|260:128|272:168,1,90,2|8,0:0|0:0,0:0:0
324,348,129061,5,0,0:0:0
324,348,129174,2,0,P|376:296|384:236,1,135,2|0,0:0|0:0,0:0:0
372,204,129629,2,0,P|368:160|376:116,1,90,8|2,0:0|0:0,0:0:0
52,360,130311,2,0,P|32:272,1,90,2|8,0:0|0:0,0:0:0
96,192,130765,1,2,0:0:0
96,192,130879,1,0,0:0:0
96,192,130992,1,0,0:0:0
256,192,131106,12,8,132356,0:0:0
88,72,132811,5,2,0:0:0
424,312,133152,1,2,0:0:0
112,156,133492,1,2,0:0:0
404,228,133833,1,2,0:0:0
168,220,134174,1,2,0:0:0
376,24,134629,5,2,0:0:0
136,360,134970,1,2,0:0:0
292,48,135311,1,2,0:0:0
220,340,135652,1,2,0:0:0
228,104,135992,1,2,0:0:0
284,280,136447,5,2,0:0:0
292,48,136788,1,2,0:0:0
220,340,137129,1,2,0:0:0
376,24,137470,1,2,0:0:0
136,360,137811,1,2,0:0:0
344,164,138265,5,2,0:0:0
112,156,138606,1,2,0:0:0
404,228,138947,1,2,0:0:0
88,72,139288,1,2,0:0:0
424,312,139629,1,2,0:0:0
112,240,140083,6,0,P|72:264,2,45,2|0|0,0:0|0:0|0:0,0:0:0
140,136,140424,2,0,P|93:134,2,45,2|0|0,0:0|0:0|0:0,0:0:0
216,60,140765,2,0,P|176:34,2,45,2|0|0,0:0|0:0|0:0,0:0:0
324,72,141106,2,0,P|303:30,2,45,2|0|0,0:0|0:0|0:0,0:0:0
304,180,141447,1,8,0:0:0
72,323,141902,6,0,P|41:364,2,45,2|0|0,0:0|0:0|0:0,0:0:0
56,205,142242,2,0,P|7:223,2,45,2|0|0,0:0|0:0|0:0,0:0:0
100,95,142583,2,0,P|49:86,2,45,2|0|0,0:0|0:0|0:0,0:0:0
215,61,142924,2,0,P|176:27,2,45,2|0|0,0:0|0:0|0:0,0:0:0
304,180,143265,1,8,0:0:0
212,292,143492,1,0,0:0:0
356,320,143720,6,0,P|388:350,2,45,2|0|0,0:0|0:0|0:0,0:0:0
452,248,144061,2,0,P|496:257,2,45,2|0|0,0:0|0:0|0:0,0:0:0
420,132,144402,2,0,P|462:115,2,45,2|0|0,0:0|0:0|0:0,0:0:0
384,120,144742,1,0,0:0:0
348,120,144856,1,0,0:0:0
316,136,144970,1,0,0:0:0
276,164,145083,1,0,0:0:0
236,184,145197,1,0,0:0:0
192,192,145311,1,0,0:0:0
147,184,145424,1,0,0:0:0
108,164,145538,5,0,0:0:0
108,164,146220,1,0,0:0:0
108,164,146674,2,0,P|36:192|48:264,1,161.999995056153
188,352,147356,1,4,0:0:0
276,216,148265,5,0,0:0:0
320,192,148379,1,0,0:0:0
364,168,148492,1,0,0:0:0
408,140,148606,1,0,0:0:0
452,116,148720,2,0,P|436:280,1,161.999995056153,8|0,0:0|0:0,0:0:0
312,340,149174,6,0,P|144:312,1,168.75,4|0,0:0|0:0,0:0:0
84,356,149629,1,8,0:0:0
12,228,149856,2,0,P|72:160|36:60|36:60|80:76,1,225
148,204,150538,2,0,P|196:184|224:132,1,112.5,8|0,0:0|0:0,0:0:0
332,32,150992,6,0,P|420:60|492:44,1,168.75
492,43,151447,2,0,P|500:100|496:156,1,112.5,8|0,0:0|0:0,0:0:0
368,228,151901,1,0,0:0:0
224,260,152129,1,0,0:0:0
328,364,152356,1,8,0:0:0
292,204,152583,5,0,0:0:0
292,204,152697,1,0,0:0:0
292,204,152811,2,0,P|264:128|188:92,1,168.75
128,136,153265,2,0,P|72:136|16:120,1,112.5,8|0,0:0|0:0,0:0:0
56,264,153720,2,0,P|84:372,1,112.5
224,260,154174,1,8,0:0:0
344,136,154401,5,0,0:0:0
344,136,154515,1,0,0:0:0
344,136,154629,2,0,P|460:124|512:208,1,225,0|8,0:0|0:0,0:0:0
176,64,155311,2,0,P|288:52|344:136,1,225
363,281,155992,1,8,0:0:0
223,236,156220,6,0,P|164:229|112:240,2,112.5
302,359,156901,2,0,P|356:375,1,56.25,8|0,0:0|0:0,0:0:0
472,287,157242,2,0,P|443:239,1,56.25
423,59,157583,2,0,P|413:117|378:158,1,112.5,0|8,0:0|0:0,0:0:0
232,160,158038,1,0,0:0:0
172,292,158265,6,0,P|80:224|88:124,1,225,0|8,0:0|0:0,0:0:0
232,160,158947,1,0,0:0:0
256,188,159401,5,0,0:0:0
280,212,159629,6,0,P|312:244,1,45,8|0,0:0|0:0,0:0:0
340,264,159856,2,0,P|388:260,1,45,0|8,0:0|0:0,0:0:0
420,272,160083,2,0,P|440:316|452:356,2,90,0|0|8,0:0|0:0|0:0,0:0:0
364,160,160765,6,0,P|352:72|424:44,1,180,2|0,0:0|0:0,0:0:0
500,128,161447,2,0,P|452:128|412:112,1,90,2|0,0:0|0:0,0:0:0
256,44,161901,1,4,0:0:0
108,96,163038,5,0,0:0:0
36,156,163265,2,0,P|60:320,1,161.999995056153,8|0,0:0|0:0,0:0:0
196,260,163720,6,0,P|276:240|360:256,1,168.75,4|0,0:0|0:0,0:0:0
424,292,164174,2,0,P|448:240|448:184,1,112.5,8|0,0:0|0:0,0:0:0
312,88,164629,1,0,0:0:0
492,28,164856,1,0,0:0:0
348,188,165083,1,8,0:0:0
200,176,165311,5,0,0:0:0
200,176,165424,1,0,0:0:0
200,176,165538,1,0,0:0:0
268,20,165765,1,0,0:0:0
424,132,165992,1,8,0:0:0
448,308,166220,2,0,P|344:356|240:328,1,225
96,344,166901,2,0,P|92:288|112:236,1,112.5,8|0,0:0|0:0,0:0:0
256,220,167356,6,0,P|272:104|260:56,1,168.75
188,32,167811,2,0,P|128:28|76:40,1,112.5,8|0,0:0|0:0,0:0:0
112,236,168265,1,0,0:0:0
256,220,168492,1,0,0:0:0
256,220,168606,1,0,0:0:0
256,220,168720,2,0,P|368:228,1,112.5,8|0,0:0|0:0,0:0:0
432,320,169174,5,4,0:0:0
256,220,169401,1,0,0:0:0
428,112,169629,1,8,0:0:0
336,292,169856,2,0,P|228:332|120:312,1,225
36,70,170538,2,0,P|76:176,1,112.5,8|0,0:0|0:0,0:0:0
220,144,170992,6,0,P|336:116|384:128,1,168.75,4|0,0:0|0:0,0:0:0
456,128,171447,2,0,P|476:240,1,112.5,8|0,0:0|0:0,0:0:0
220,144,171901,1,0,0:0:0
184,288,172129,1,0,0:0:0
184,288,172242,1,0,0:0:0
184,288,172356,2,0,P|128:304,1,56.25,8|0,0:0|0:0,0:0:0
60,324,172583,2,0,P|8:300,1,56.25,0|8,0:0|0:0,0:0:0
20,228,172811,5,4,0:0:0
352,368,173265,1,8,0:0:0
216,36,173720,1,0,0:0:0
264,152,173947,1,0,0:0:0
380,100,174174,1,8,0:0:0
398,130,174288,1,0,0:0:0
417,160,174401,1,0,0:0:0
436,191,174515,1,0,0:0:0
455,221,174629,1,0,0:0:0
79,348,175538,5,0,0:0:0
104,323,175651,1,0,0:0:0
139,312,175765,1,0,0:0:0
177,312,175879,1,0,0:0:0
220,328,175992,6,0,P|256:168,1,161.999995056153,8|0,0:0|0:0,0:0:0
256,192,176447,12,4,179629,0:0:0
200,292,180083,6,0,P|232:220|228:164,1,135,2|0,0:0|0:0,0:0:0
180,108,180538,2,0,P|136:96|92:100,1,90,8|0,0:0|0:0,0:0:0
44,208,180992,1,2,0:0:0
76,312,181220,2,0,P|108:348,1,45,0|8,0:0|0:0,0:0:0
200,292,181561,2,0,P|232:328,1,45,0|8,0:0|0:0,0:0:0
332,360,181901,5,2,0:0:0
284,224,182129,1,0,0:0:0
140,216,182356,1,8,0:0:0
32,312,182583,2,0,P|6:228|26:140,2,180,2|2|2,0:0|0:0|0:0,0:0:0
256,192,183720,12,0,186901,0:0:0
208,48,187356,5,4,0:0:0
292,176,187583,1,8,0:0:0
148,124,187811,1,8,0:0:0
296,84,188038,1,0,0:0:0
196,200,188265,2,0,P|176:240,3,45,8|0|0|0,0:0|0:0|0:0|0:0,0:0:0
168,268,188720,1,8,0:0:0
168,296,188833,1,0,0:0:0
176,324,188947,1,0,0:0:0
192,348,189061,1,0,0:0:0
216,364,189174,5,0,0:0:0
472,192,189629,1,0,0:0:0
40,192,190083,1,0,0:0:0
140,148,190311,1,8,0:0:0
244,184,190538,2,0,P|268:224,1,45,8|0,0:0|0:0,0:0:0
320,232,190765,2,0,P|344:272,1,45,0|0,0:0|0:0,0:0:0
