osu file format v12

[General]
AudioFilename: 84141021.mp3
AudioLeadIn: 0
PreviewTime: 55901
Countdown: 0
SampleSet: Normal
StackLeniency: 0.7
Mode: 0
LetterboxInBreaks: 0

[Editor]
DistanceSpacing: 1.3
BeatDivisor: 4
GridSize: 4

[Metadata]
Title:Mysterious (Short Ver.)
TitleUnicode:Mysterious (Short Ver.)
Artist:8#Prince
ArtistUnicode:8#Prince
Creator:SamiPale
Version:Insane
Source:Vocaloid
Tags:luo tianyi
BeatmapID:218213
BeatmapSetID:77868

[Difficulty]
HPDrainRate:8
CircleSize:5
OverallDifficulty:8
ApproachRate:9
SliderMultiplier:2
SliderTickRate:1

[Events]
//Background and Video events
0,0,"id=3873383.jpg",0,0
Video,0,"84141021.264.avi"
//Break Periods
2,61802,79860
//Storyboard Layer 0 (Background)
//Storyboard Layer 1 (Fail)
//Storyboard Layer 2 (Pass)
//Storyboard Layer 3 (Foreground)
//Storyboard Sound Samples
//Background Colour Transformations
3,100,163,162,255

[TimingPoints]
103,428.571428571429,4,1,0,50,1,0
1817,-200,4,1,0,80,0,0
8674,-100,4,1,0,80,0,0
15531,-100,4,1,0,90,0,0
27531,-200,4,1,0,90,0,0
28388,-100,4,1,0,90,0,0
29460,-100,4,2,0,90,0,0
54960,-100,4,1,0,90,0,0
102531,-100,4,2,0,5,0,0

[Colours]
Combo1 : 219,89,251
Combo2 : 128,128,255
Combo3 : 255,32,143
Combo4 : 0,128,192

[HitObjects]
168,312,1817,2,0,L|316:280,1,150
391,315,2674,1,0,0:0:0:0:
30,301,3317,1,0,0:0:0:0:
212,193,3531,2,0,B|196:180|157:180|143:197|134:247|64:230,1,NaN
259,45,4388,2,0,P|304:55|328:103,1,NaN
481,194,5031,1,0,0:0:0:0:
495,159,5138,1,0,0:0:0:0:
487,122,5245,2,0,P|478:101|451:85,1,NaN,0|0,0:0|2:0,0:0:0:0:
350,193,5674,5,0,0:0:0:0:
237,123,5888,1,0,3:0:0:0:
333,41,6103,2,0,P|379:21|440:48,1,NaN
479,85,6745,1,0,0:0:0:0:
275,149,6960,5,0,0:0:0:0:
444,213,7281,1,0,0:0:0:0:
416,35,7603,1,0,0:0:0:0:
479,85,7817,5,0,0:0:0:0:
291,34,8031,1,0,0:0:0:0:
130,142,8245,1,0,0:0:0:0:
107,165,8352,1,0,0:0:0:0:
96,196,8460,1,0,0:0:0:0:
97,228,8567,1,0,0:0:0:0:
109,255,8674,5,4,0:0:0:0:
26,131,8888,1,0,0:0:0:0:
206,225,9103,1,0,0:0:0:0:
237,198,9210,2,0,P|280:188|322:225,1,NaN
322,333,9531,2,0,P|288:290|303:246,1,NaN
320,222,9853,1,0,0:0:0:0:
354,214,9960,1,0,0:0:0:0:
418,261,10174,1,0,0:0:0:0:
476,124,10388,5,0,0:0:0:0:
372,55,10603,1,0,0:0:0:0:
338,44,10710,1,0,0:0:0:0:
306,58,10817,1,0,0:0:0:0:
211,167,11031,1,0,0:0:0:0:
228,136,11138,1,0,0:0:0:0:
223,101,11245,2,0,P|217:60|161:31,1,NaN
24,177,11567,2,0,P|65:176|106:138,1,NaN
118,105,11888,1,0,0:0:0:0:
260,29,12102,5,0,0:0:0:0:
313,111,12317,1,0,0:0:0:0:
321,144,12424,1,0,0:0:0:0:
312,177,12531,1,0,0:0:0:0:
224,365,12745,1,0,0:0:0:0:
246,337,12853,1,0,0:0:0:0:
254,303,12960,1,0,0:0:0:0:
248,268,13067,1,0,0:0:0:0:
231,237,13174,1,0,0:0:0:0:
207,211,13281,1,0,0:0:0:0:
194,178,13388,1,0,0:0:0:0:
193,143,13495,1,0,0:0:0:0:
202,109,13602,1,0,0:0:0:0:
225,82,13710,1,0,0:0:0:0:
263,70,13817,5,0,0:0:0:0:
301,78,13924,1,0,0:0:0:0:
312,116,14031,1,0,0:0:0:0:
288,148,14138,1,0,0:0:0:0:
248,140,14245,1,0,0:0:0:0:
225,106,14352,1,0,0:0:0:0:
225,65,14460,1,0,0:0:0:0:
245,30,14567,1,0,0:0:0:0:
282,15,14674,5,4,0:0:0:0:
441,75,14995,1,0,0:0:0:0:
282,15,15317,1,0,0:0:0:0:
47,48,15531,5,4,0:0:0:0:
114,158,15745,1,0,0:0:0:0:
212,72,15960,1,0,0:0:0:0:
240,43,16067,2,0,P|279:14|330:18,1,NaN
361,190,16388,2,0,P|324:156|329:101,1,NaN
452,183,16710,1,0,0:0:0:0:
474,215,16817,2,0,P|468:266|430:293,1,NaN
453,58,17245,5,0,0:0:0:0:
334,112,17460,1,0,0:0:0:0:
426,202,17674,1,0,0:0:0:0:
456,227,17781,2,0,L|474:332,1,NaN
326,323,18103,2,0,L|308:218,1,NaN
164,227,18424,2,0,L|182:332,1,NaN
152,353,18745,1,0,0:0:0:0:
89,158,18960,5,0,0:0:0:0:
274,185,19174,2,0,P|303:226|297:273,1,NaN
203,126,19495,2,0,P|236:86|295:82,1,NaN
318,95,19817,1,0,0:0:0:0:
505,42,20031,1,0,0:0:0:0:
466,30,20138,1,0,0:0:0:0:
433,52,20245,2,0,P|404:97|421:151,1,NaN
258,149,20674,5,0,0:0:0:0:
379,257,20888,2,0,P|350:293|356:343,1,NaN
501,360,21210,2,0,P|479:322|419:315,1,NaN
395,336,21531,1,0,0:0:0:0:
459,195,21745,1,0,0:0:0:0:
486,165,21853,1,0,0:0:0:0:
491,31,22067,1,0,0:0:0:0:
451,19,22174,1,0,0:0:0:0:
414,35,22281,1,0,0:0:0:0:
397,73,22388,5,0,0:0:0:0:
273,112,22602,1,0,0:0:0:0:
169,32,22817,1,0,0:0:0:0:
136,55,22924,2,0,P|108:96|114:144,1,NaN
254,330,23245,2,0,P|282:289|276:241,1,NaN
245,134,23567,1,0,0:0:0:0:
235,94,23674,2,0,P|239:48|276:11,1,NaN
12,104,24102,5,0,0:0:0:0:
124,170,24317,1,0,0:0:0:0:
195,61,24531,1,0,0:0:0:0:
229,80,24638,2,0,P|274:83|316:42,1,NaN
461,29,24960,2,0,P|497:63|487:125,1,NaN
400,255,25281,2,0,P|366:220|373:158,1,NaN
338,142,25603,1,0,0:0:0:0:
256,24,25817,5,0,0:0:0:0:
163,95,26031,1,0,0:0:0:0:
131,119,26138,1,0,0:0:0:0:
91,112,26245,1,0,0:0:0:0:
256,24,26460,5,0,0:3:0:0:
279,51,26568,1,0,0:3:0:0:
288,85,26675,1,0,0:3:0:0:
287,120,26782,1,0,0:3:0:0:
274,153,26889,1,0,0:3:0:0:
250,179,26996,1,0,0:3:0:0:
231,208,27103,1,0,0:3:0:0:
216,239,27210,1,0,0:3:0:0:
213,273,27317,1,0,0:3:0:0:
221,307,27425,1,0,0:3:0:0:
241,335,27531,6,0,P|311:380|395:350,1,NaN,0|0,0:0|2:0,0:0:0:0:
434,350,28388,5,0,0:0:0:0:
481,273,28710,1,0,0:0:0:0:
445,190,29031,1,0,0:0:0:0:
492,108,29245,5,0,0:0:0:0:
389,27,29460,1,0,0:0:0:0:
264,62,29674,1,0,0:0:0:0:
244,77,29781,2,0,P|213:116|226:174,1,NaN
238,198,30103,1,0,0:0:0:0:
385,336,30317,1,0,0:0:0:0:
409,332,30424,2,0,P|440:293|426:234,1,NaN
455,212,30745,1,0,0:0:0:0:
493,87,30960,5,0,0:0:0:0:
369,46,31174,1,0,0:0:0:0:
369,46,31281,1,0,0:0:0:0:
369,46,31388,1,0,0:0:0:0:
311,163,31603,1,0,0:0:0:0:
232,59,31817,1,0,0:0:0:0:
163,169,32031,1,0,0:0:0:0:
103,53,32245,1,0,0:0:0:0:
277,119,32460,1,0,0:0:0:0:
277,119,32567,1,0,0:0:0:0:
277,119,32674,2,0,P|336:115|376:129,1,NaN
464,221,33103,2,0,P|407:233|348:222,1,NaN
302,214,33424,2,0,P|205:188|188:202,1,NaN
151,195,33745,2,0,P|76:227|-2:219,1,NaN
3,157,34174,1,0,0:0:0:0:
31,98,34281,1,0,0:0:0:0:
82,58,34388,1,0,0:0:0:0:
195,122,34603,1,0,0:0:0:0:
314,71,34817,1,0,0:0:0:0:
126,168,35031,1,0,0:0:0:0:
180,203,35138,2,0,L|333:188,1,NaN
329,188,35674,1,0,0:0:0:0:
447,242,35888,1,0,0:0:0:0:
506,268,35995,1,0,0:0:0:0:
449,234,36103,1,0,0:0:0:0:
422,106,36317,1,0,0:0:0:0:
297,69,36531,1,0,0:0:0:0:
232,67,36638,2,0,P|166:53|112:79,1,NaN
136,62,36960,1,0,0:0:0:0:
58,166,37174,1,0,0:0:0:0:
110,203,37281,2,0,L|222:213,1,NaN
209,211,37603,1,0,0:0:0:0:
319,143,37817,1,0,0:0:0:0:
324,272,38031,1,0,0:0:0:0:
324,272,38138,1,0,0:0:0:0:
324,272,38245,1,0,0:0:0:0:
469,322,38460,1,0,0:0:0:0:
341,348,38674,1,0,0:0:0:0:
390,227,38888,1,0,0:0:0:0:
390,227,38995,1,0,0:0:0:0:
390,227,39103,1,0,0:0:0:0:
361,168,39317,1,0,0:0:0:0:
347,36,39531,1,0,0:0:0:0:
99,100,39745,1,0,0:0:0:0:
229,100,39960,1,0,0:0:0:0:
358,109,40174,1,0,0:0:0:0:
358,109,40281,2,0,L|460:115,1,NaN
396,138,40603,2,0,L|331:219,1,NaN
495,168,40924,2,0,L|379:191,1,NaN
290,127,41245,5,0,2:0:0:0:
290,127,41353,1,0,2:0:0:0:
290,127,41460,1,0,2:0:0:0:
290,127,41567,1,0,2:0:0:0:
290,127,41674,1,0,2:0:0:0:
290,127,41781,1,0,2:0:0:0:
290,127,41888,1,0,2:0:0:0:
290,127,41995,1,0,2:0:0:0:
290,127,42103,2,0,B|335:139|335:139|341:91|341:91|381:105|381:105|399:71|399:71|430:62,1,NaN,0|0,0:0|0:0,2:0:0:0:
463,276,42745,1,0,0:0:0:0:
121,306,42960,1,0,0:0:0:0:
172,345,43067,2,0,L|79:310,1,NaN
270,281,43388,2,0,L|151:306,1,NaN
43,143,43817,1,0,0:0:0:0:
81,172,43924,2,0,L|177:143,1,NaN
188,103,44245,2,0,L|311:84,1,NaN
441,140,44674,1,0,0:0:0:0:
437,177,44781,2,0,L|326:244,1,NaN
315,222,45103,2,0,L|174:233,1,NaN
100,315,45531,2,0,L|22:215,1,NaN
25,196,45853,1,0,0:0:0:0:
44,159,45960,2,0,L|107:33,1,NaN
170,151,46388,2,0,L|281:118,1,NaN
155,181,46710,1,0,0:0:0:0:
293,144,46817,2,0,L|400:140,1,NaN
445,218,47245,2,0,L|374:333,1,NaN
356,318,47567,1,0,0:0:0:0:
300,307,47674,2,0,L|307:181,1,NaN
11,232,48103,1,0,0:0:0:0:
11,232,48317,1,0,0:0:0:0:
11,232,48531,1,0,0:0:0:0:
11,232,48745,1,0,0:0:0:0:
11,232,48853,1,0,0:0:0:0:
11,232,49067,1,0,0:0:0:0:
11,232,49281,1,0,0:0:0:0:
11,232,49388,1,0,0:0:0:0:
11,232,49603,1,0,0:0:0:0:
100,336,49817,1,0,0:0:0:0:
100,336,50031,1,0,0:0:0:0:
100,336,50245,1,0,0:0:0:0:
100,336,50460,1,0,0:0:0:0:
100,336,50567,1,0,0:0:0:0:
100,336,50888,1,0,0:0:0:0:
100,336,51103,1,0,0:0:0:0:
100,336,51317,1,0,0:0:0:0:
100,336,51424,1,0,0:0:0:0:
100,336,51531,1,0,0:0:0:0:
100,336,51745,1,0,0:0:0:0:
100,336,51960,1,0,0:0:0:0:
100,336,52174,1,0,0:0:0:0:
100,336,52281,1,0,0:0:0:0:
100,336,52603,1,0,0:0:0:0:
100,336,52817,1,0,0:0:0:0:
100,336,52924,1,0,0:0:0:0:
100,336,53031,1,0,0:0:0:0:
100,336,53138,1,0,0:0:0:0:
100,336,53245,1,0,0:0:0:0:
100,336,53460,1,0,0:0:0:0:
100,336,53674,1,0,0:0:0:0:
100,336,53888,1,0,0:0:0:0:
100,336,53995,1,0,0:0:0:0:
100,229,54103,1,0,0:0:0:0:
100,336,54210,1,0,0:0:0:0:
100,336,54317,1,0,0:0:0:0:
100,336,54424,1,0,0:0:0:0:
100,336,54531,1,0,0:0:0:0:
100,336,54638,1,0,0:0:0:0:
100,336,54745,1,0,0:0:0:0:
100,336,54853,1,0,0:0:0:0:
121,91,54960,5,0,0:0:0:0:
51,162,55174,1,0,0:0:0:0:
88,292,55388,1,0,0:0:0:0:
296,288,55603,1,0,0:0:0:0:
463,329,55817,5,0,0:0:0:0:
463,329,55924,1,0,0:0:0:0:
463,329,56031,1,0,0:0:0:0:
429,227,56245,2,0,L|325:203,1,NaN
213,149,56674,1,0,0:0:0:0:
213,149,57103,1,0,0:0:0:0:
213,149,57317,1,0,0:0:0:0:
213,149,57424,1,0,0:0:0:0:
213,149,57531,1,0,0:0:0:0:
213,149,57745,1,0,0:0:0:0:
213,149,57960,1,0,0:0:0:0:
213,149,58174,1,0,0:0:0:0:
213,149,58388,1,0,0:0:0:0:
213,149,58603,1,0,0:0:0:0:
213,149,58817,1,0,0:0:0:0:
213,149,59031,1,0,0:0:0:0:
85,59,60103,2,0,L|115:192,1,NaN
174,215,60531,2,0,L|204:118,1,NaN
259,77,60960,2,0,L|307:188,1,NaN
326,222,61281,1,0,0:0:0:0:
371,233,61388,2,0,L|378:96,1,NaN
304,322,80460,5,0,0:0:0:0:
304,322,80567,1,0,0:0:0:0:
304,322,80674,1,0,0:0:0:0:
304,322,80995,1,0,0:0:0:0:
304,322,81317,1,0,0:0:0:0:
304,322,81745,1,0,0:0:0:0:
304,322,81960,1,0,0:0:0:0:
304,322,82174,1,0,0:0:0:0:
304,322,82388,1,0,0:0:0:0:
304,322,83245,1,0,0:0:0:0:
304,322,83353,1,0,0:0:0:0:
304,322,83460,1,0,0:0:0:0:
304,322,83674,1,0,0:0:0:0:
304,322,83888,1,0,0:0:0:0:
43,46,84103,5,0,0:0:0:0:
43,46,84317,1,0,0:0:0:0:
137,121,84532,1,0,0:0:0:0:
171,71,84639,2,0,P|210:42|261:46,1,NaN
424,117,84960,2,0,P|387:157|339:155,1,NaN
190,343,85282,1,0,0:0:0:0:
231,300,85389,2,0,L|259:199,1,NaN
449,56,85817,5,0,0:0:0:0:
334,92,86032,1,0,0:0:0:0:
406,190,86246,1,0,0:0:0:0:
430,244,86353,2,0,L|457:344,1,NaN
349,354,86675,2,0,L|310:246,1,NaN
190,251,86996,2,0,L|219:352,1,NaN
159,362,87317,1,0,0:0:0:0:
32,142,87532,5,0,0:0:0:0:
120,86,87746,2,0,P|176:58|220:70,1,NaN
295,211,88067,2,0,P|260:218|200:198,1,NaN
304,106,88389,1,0,0:0:0:0:
460,234,88603,1,0,0:0:0:0:
428,258,88710,1,0,0:0:0:0:
388,282,88817,2,0,L|312:354,1,NaN
456,222,89246,5,0,0:0:0:0:
352,242,89460,2,0,P|316:294|340:362,1,NaN
268,358,89782,2,0,P|212:310|152:334,1,NaN
152,318,90103,1,0,0:0:0:0:
60,270,90317,1,0,0:0:0:0:
60,238,90425,5,0,0:0:0:0:
60,166,90639,1,0,0:0:0:0:
60,122,90746,1,0,0:0:0:0:
72,90,90853,1,0,0:0:0:0:
104,64,90960,6,0,P|176:48|200:72,1,NaN
256,104,91282,2,0,P|340:128|380:112,1,NaN
376,140,91603,1,0,0:0:0:0:
400,168,91710,1,0,0:0:0:0:
412,216,91817,1,0,0:0:0:0:
424,128,91925,2,0,P|472:168|480:216,1,NaN
480,202,92247,2,0,P|448:276|396:300,1,NaN
244,340,92675,6,0,P|196:312|208:256,1,NaN
204,236,92996,1,0,0:0:0:0:
208,196,93103,2,0,P|204:144|160:108,1,NaN
54,191,93424,1,0,0:0:0:0:
92,116,93532,1,0,0:0:0:0:
48,148,93639,1,0,0:0:0:0:
124,112,93745,1,0,0:0:0:0:
36,228,93853,1,0,0:0:0:0:
36,228,93960,1,0,0:0:0:0:
80,312,94174,1,0,0:0:0:0:
32,340,94388,5,0,0:0:0:0:
152,336,94603,1,0,0:0:0:0:
152,336,94710,1,0,0:0:0:0:
152,336,94817,1,0,0:0:0:0:
350,349,95031,1,0,0:0:0:0:
382,337,95138,1,0,0:0:0:0:
414,321,95245,1,0,0:0:0:0:
446,301,95353,1,0,0:0:0:0:
474,277,95460,1,0,0:0:0:0:
494,249,95567,1,0,0:0:0:0:
494,213,95674,1,0,0:0:0:0:
494,177,95781,1,0,0:0:0:0:
474,149,95888,1,0,0:0:0:0:
442,133,95995,1,0,0:0:0:0:
406,137,96103,2,0,L|358:153,1,NaN
310,81,96317,2,0,L|250:73,1,NaN
182,45,96531,2,0,L|106:81,1,NaN
39,35,96745,2,0,L|3:83,1,NaN
56,288,96960,1,0,0:0:0:0:
56,288,97281,1,0,0:0:0:0:
56,288,97603,1,0,0:0:0:0:
56,288,97817,1,0,0:0:0:0:
256,192,97924,12,0,102531,0:0:0:0:
