osu file format v12

[General]
AudioFilename: 8 Bit Weapon - GameBoy Rocker.mp3
AudioLeadIn: 1500
PreviewTime: 30475
Countdown: 0
SampleSet: Normal
StackLeniency: 0.7
Mode: 0
LetterboxInBreaks: 1

[Editor]
Bookmarks: 35877,52294,88776,93337,149885,151025
DistanceSpacing: 1
BeatDivisor: 4
GridSize: 8

[Metadata]
Title:GameBoy Rocker
TitleUnicode:GameBoy Rocker
Artist:8 Bit Weapon
ArtistUnicode:8 Bit Weapon
Creator:bomber34
Version:Insane
Source:
Tags:darkdunskin hawkii
BeatmapID:227465
BeatmapSetID:48486

[Difficulty]
HPDrainRate:8
CircleSize:4
OverallDifficulty:8
ApproachRate:9
SliderMultiplier:2.4
SliderTickRate:2

[Events]
//Background and Video events
0,0,"Gameboy Rocker Idee.jpg",0,0
//Break Periods
2,45197,51694
2,88976,90913
2,96273,102769
//Storyboard Layer 0 (Background)
//Storyboard Layer 1 (Fail)
//Storyboard Layer 2 (Pass)
//Storyboard Layer 3 (Foreground)
//Storyboard Sound Samples
//Background Colour Transformations
3,100,163,162,255

[TimingPoints]
1219,456.031010108687,4,2,0,45,1,0
8515,-100,4,1,0,40,0,0
13987,-80,4,1,0,40,0,0
15355,-100,4,1,0,40,0,0
30404,-66.6666666666667,4,1,0,40,0,1
44997,-100,4,1,0,40,0,0
72587,-66.6666666666667,4,1,0,40,0,0
73271,-100,4,1,0,40,0,0
81480,-66.6666666666667,4,1,0,40,0,1
96071,-100,4,1,0,40,0,0
125487,-100,4,1,0,10,0,0
126171,-100,4,1,0,20,0,0
126399,-100,4,1,0,30,0,0
126627,-100,4,1,0,40,0,0
127083,-100,4,1,0,40,0,1
132555,-100,4,1,0,30,0,1
133467,-100,4,1,0,25,0,1
133924,-100,4,1,0,40,0,1
139852,-100,4,1,0,30,0,1
140764,-100,4,1,0,25,0,1
141220,-100,4,1,0,40,0,1
141562,-100,4,1,0,40,0,0
141676,-100,4,1,0,40,0,1
147148,-100,4,1,0,30,0,1
148060,-100,4,1,0,25,0,1
148973,-133.333333333333,4,1,0,40,0,0
154445,-133.333333333333,4,1,0,30,0,0
155357,-133.333333333333,4,1,0,25,0,0
156269,-100,4,2,0,40,0,0
156497,-100,4,2,0,15,0,0
157637,-100,4,2,0,40,0,0
158321,-100,4,2,0,15,0,0
159461,-100,4,2,0,40,0,0
160145,-100,4,2,0,15,0,0
161285,-100,4,2,0,40,0,0
161969,-100,4,2,0,15,0,0
162881,-66.6666666666667,4,2,0,40,0,0
164022,-133.333333333333,4,2,0,35,0,0
164478,-133.333333333333,4,2,0,30,0,0
164934,-133.333333333333,4,2,0,25,0,0
165390,-133.333333333333,4,2,0,20,0,0
165846,-133.333333333333,4,2,0,15,0,0
166302,-133.333333333333,4,2,0,10,0,0
166758,-133.333333333333,4,2,0,5,0,0

[Colours]
Combo1 : 255,255,255
Combo2 : 0,0,255
Combo3 : 127,127,127
Combo4 : 27,134,252

[HitObjects]
128,64,1219,1,0,0:0:0:0:
64,160,1447,1,0,0:0:0:0:
200,128,1675,1,0,0:0:0:0:
152,240,1903,1,0,0:0:0:0:
296,168,2131,1,0,0:0:0:0:
272,288,2359,1,0,0:0:0:0:
328,304,2473,1,0,0:0:0:0:
384,288,2587,1,0,0:0:0:0:
408,232,2701,1,0,0:0:0:0:
400,176,2815,1,0,0:0:0:0:
384,64,3043,5,0,0:0:0:0:
448,160,3271,1,0,0:0:0:0:
312,128,3499,1,0,0:0:0:0:
360,240,3727,1,0,0:0:0:0:
216,168,3955,1,0,0:0:0:0:
240,288,4183,1,0,0:0:0:0:
184,304,4297,1,0,0:0:0:0:
128,288,4411,1,0,0:0:0:0:
104,232,4525,1,0,0:0:0:0:
112,176,4639,1,0,0:0:0:0:
176,72,4867,5,0,0:0:0:0:
256,160,5095,1,0,0:0:0:0:
368,120,5323,1,0,0:0:0:0:
400,232,5551,1,0,0:0:0:0:
504,176,5779,1,0,0:0:0:0:
504,296,6007,1,0,0:0:0:0:
456,328,6121,1,0,0:0:0:0:
400,336,6235,1,0,0:0:0:0:
344,328,6349,1,0,0:0:0:0:
304,288,6463,1,0,0:0:0:0:
256,176,6691,6,0,L|256:112,2,60
256,176,7147,1,0,0:0:0:0:
256,296,7375,1,0,0:0:0:0:
208,336,7489,1,0,0:0:0:0:
152,344,7603,1,0,0:0:0:0:
96,336,7717,1,0,0:0:0:0:
56,296,7831,1,0,0:0:0:0:
32,240,7945,1,0,0:0:0:0:
56,184,8059,1,0,0:0:0:0:
96,144,8173,1,0,0:0:0:0:
152,128,8287,1,0,0:0:0:0:
208,152,8401,1,0,0:0:0:0:
256,184,8515,5,0,0:0:0:0:
344,264,8743,1,0,0:0:0:0:
432,184,8971,1,0,0:0:0:0:
344,104,9199,1,0,0:0:0:0:
256,184,9427,1,0,0:0:0:0:
160,104,9655,1,0,0:0:0:0:
72,184,9883,1,0,0:0:0:0:
72,232,9997,1,0,0:0:0:0:
72,280,10111,1,0,0:0:0:0:
176,336,10339,6,0,P|232:360|288:336,1,120
344,240,10795,2,0,P|392:208|448:248,1,120
448,352,11251,2,0,P|392:384|336:352,1,120
256,280,11707,2,0,L|256:216,2,60
296,64,12163,5,0,0:0:0:0:
296,64,12391,1,0,0:0:0:0:
408,232,12619,1,0,0:0:0:0:
408,232,12847,1,0,0:0:0:0:
256,352,13075,1,0,0:0:0:0:
256,352,13303,1,0,0:0:0:0:
112,264,13531,2,0,P|112:224|168:256,1,120
344,192,13987,6,0,B|264:192|264:192|208:144,1,150
368,56,14443,2,0,B|384:128|384:128|344:200,1,150
210,146,14899,2,0,B|264:192|264:192|344:192,1,150
440,304,15355,1,0,0:0:0:0:
384,304,15469,1,0,0:0:0:0:
328,304,15583,1,0,0:0:0:0:
272,304,15697,1,0,0:0:0:0:
224,304,15811,6,2,L|104:304,1,120,2|2,0:0|0:0,0:0:0:0:
288,80,16268,2,2,L|408:80,1,120,2|2,0:0|0:0,0:0:0:0:
496,192,16724,1,0,0:0:0:0:
376,192,16952,1,0,0:0:0:0:
256,192,17180,1,0,0:0:0:0:
200,192,17294,1,0,0:0:0:0:
144,192,17408,1,0,0:0:0:0:
288,304,17636,6,2,L|408:304,1,120,2|2,0:0|0:0,0:0:0:0:
224,80,18093,2,2,L|104:80,1,120,2|2,0:0|0:0,0:0:0:0:
16,192,18548,1,0,0:0:0:0:
136,192,18776,1,0,0:0:0:0:
256,192,19004,1,0,0:0:0:0:
312,192,19118,1,0,0:0:0:0:
368,192,19232,1,0,0:0:0:0:
408,80,19460,6,2,L|288:80,1,120,2|2,0:0|0:0,0:0:0:0:
104,304,19917,2,2,L|224:304,1,120,2|2,0:0|0:0,0:0:0:0:
368,192,20372,1,0,0:0:0:0:
256,192,20600,1,0,0:0:0:0:
136,192,20828,1,0,0:0:0:0:
80,192,20942,1,0,0:0:0:0:
24,192,21056,1,0,0:0:0:0:
16,80,21284,6,2,L|136:80,1,120,2|2,0:0|0:0,0:0:0:0:
496,304,21740,2,2,L|376:304,1,120,2|2,0:0|0:0,0:0:0:0:
136,192,22196,1,0,0:0:0:0:
376,192,22424,1,0,0:0:0:0:
256,232,22652,1,0,0:0:0:0:
224,176,22766,1,0,0:0:0:0:
256,128,22880,1,0,0:0:0:0:
288,176,22994,1,0,0:0:0:0:
256,232,23108,6,2,L|176:336,1,120
256,128,23564,2,2,L|336:24,1,120
160,192,24020,1,0,0:0:0:0:
352,192,24248,1,0,0:0:0:0:
32,192,24476,1,4,0:0:0:0:
328,256,24932,6,2,L|408:360,1,120
184,128,25388,2,2,L|104:24,1,120
352,192,25844,1,0,0:0:0:0:
160,192,26072,1,0,0:0:0:0:
480,192,26300,1,4,0:0:0:0:
112,128,26756,6,2,L|32:24,1,120
400,256,27212,2,2,L|480:360,1,120
160,192,27668,1,0,0:0:0:0:
256,24,27896,1,0,0:0:0:0:
256,360,28124,1,4,0:0:0:0:
400,128,28580,6,2,L|480:24,1,120
112,256,29036,2,2,L|32:360,1,120
352,192,29492,1,0,0:0:0:0:
256,32,29720,1,0,0:0:0:0:
256,352,29948,1,0,0:0:0:0:
160,192,30176,1,0,0:0:0:0:
144,176,30290,1,0,0:0:0:0:
128,160,30404,5,0,0:0:0:0:
256,32,30633,1,0,0:0:0:0:
416,112,30861,2,0,B|448:152|448:152|456:192|456:192|448:232|448:232|408:280,1,180.000006866455
256,352,31317,1,0,0:0:0:0:
416,272,31545,2,0,B|385:235|385:235|377:195|377:195|385:155|385:155|417:115,1,180.000006866455
472,192,32001,2,2,L|288:192,1,180.000006866455,2|0,0:0|0:0,0:0:0:0:
112,192,32457,1,0,0:0:0:0:
288,192,32685,1,0,0:0:0:0:
112,192,32913,1,0,0:0:0:0:
288,192,33141,2,0,L|480:192,1,180.000006866455
368,40,33597,1,0,0:0:0:0:
80,320,33825,2,2,L|264:320,1,180.000006866455,2|0,0:0|0:0,0:0:0:0:
440,320,34281,1,0,0:0:0:0:
256,120,34509,5,0,0:0:0:0:
88,192,34737,1,0,0:0:0:0:
256,264,34965,1,0,0:0:0:0:
424,192,35193,1,0,0:0:0:0:
256,120,35421,1,0,0:0:0:0:
216,152,35535,1,0,0:0:0:0:
200,200,35649,1,0,0:0:0:0:
224,240,35763,1,0,0:0:0:0:
256,264,35877,1,0,0:0:0:0:
320,192,36105,2,0,L|136:192,2,180.000006866455
256,328,36789,2,0,L|440:328,2,180.000006866455
216,320,37359,1,0,0:0:0:0:
176,296,37473,1,0,0:0:0:0:
152,256,37587,1,0,0:0:0:0:
152,208,37701,5,0,0:0:0:0:
256,64,37929,1,0,0:0:0:0:
352,216,38157,1,0,0:0:0:0:
192,128,38385,1,0,0:0:0:0:
368,128,38613,1,0,0:0:0:0:
288,288,38841,2,0,B|208:328|208:328|112:328,1,180.000006866455
224,96,39297,2,2,B|304:56|304:56|394:56,1,180.000006866455,2|0,0:0|0:0,0:0:0:0:
376,232,39753,1,0,0:0:0:0:
208,288,39981,1,0,0:0:0:0:
80,168,40209,1,0,0:0:0:0:
256,144,40437,5,0,0:0:0:0:
280,224,40551,1,0,0:0:0:0:
216,176,40665,1,0,0:0:0:0:
296,176,40779,1,0,0:0:0:0:
232,224,40893,1,0,0:0:0:0:
256,88,41121,2,2,L|256:272,1,180.000006866455,2|0,0:0|0:0,0:0:0:0:
464,224,41577,6,0,B|464:128|464:128|392:72,1,180.000006866455
216,72,42033,2,0,B|144:128|144:128|144:224,1,180.000006866455
248,72,42489,2,0,B|320:128|320:128|320:224,2,180.000006866455
232,248,43173,2,0,B|312:320|408:256,2,180.000006866455
232,248,43857,1,0,0:0:0:0:
232,248,44085,2,0,B|152:320|56:256,2,180.000006866455
232,240,44655,1,0,0:0:0:0:
232,232,44769,1,0,0:0:0:0:
232,224,44883,1,0,0:0:0:0:
232,216,44997,1,4,0:0:0:0:
256,192,52294,5,0,0:0:0:0:
352,304,52522,1,0,0:0:0:0:
384,160,52750,1,0,0:0:0:0:
288,56,52978,1,0,0:0:0:0:
184,160,53206,1,0,0:0:0:0:
288,256,53434,2,0,B|336:304|336:304|392:304,2,120
384,56,54118,5,0,0:0:0:0:
328,184,54346,1,0,0:0:0:0:
192,240,54574,1,0,0:0:0:0:
80,152,54802,1,0,0:0:0:0:
160,32,55030,1,0,0:0:0:0:
304,56,55258,1,0,0:0:0:0:
416,144,55486,2,0,B|472:184|472:184|472:240,1,120
112,232,55942,5,0,0:0:0:0:
224,320,56170,1,0,0:0:0:0:
368,320,56398,1,0,0:0:0:0:
472,224,56626,1,0,0:0:0:0:
472,80,56854,1,0,0:0:0:0:
472,80,57082,1,0,0:0:0:0:
184,64,57310,5,0,0:0:0:0:
184,64,57538,2,0,L|312:88,1,120
456,184,57994,2,0,L|336:232,1,120
80,304,58450,2,0,L|200:336,1,120
336,344,58906,1,0,0:0:0:0:
464,280,59134,1,0,0:0:0:0:
496,240,59248,1,0,0:0:0:0:
496,192,59362,1,0,0:0:0:0:
72,192,59590,5,0,0:0:0:0:
72,192,59818,1,0,0:0:0:0:
192,112,60047,1,0,0:0:0:0:
192,112,60275,1,0,0:0:0:0:
312,192,60503,1,0,0:0:0:0:
312,192,60731,1,0,0:0:0:0:
432,112,60959,5,0,0:0:0:0:
432,328,61187,1,0,0:0:0:0:
216,328,61415,1,0,0:0:0:0:
160,192,61643,2,0,P|160:128|208:88,1,120
344,104,62099,2,0,P|376:160|352:224,1,120
256,304,62555,1,0,0:0:0:0:
160,192,62783,1,0,0:0:0:0:
160,132,62897,1,0,0:0:0:0:
160,72,63011,1,0,0:0:0:0:
160,312,63239,5,0,0:0:0:0:
304,312,63467,1,0,0:0:0:0:
448,312,63695,1,0,0:0:0:0:
376,192,63923,1,0,0:0:0:0:
304,312,64151,1,0,0:0:0:0:
224,192,64379,1,0,0:0:0:0:
40,352,64607,5,0,0:0:0:0:
144,192,64835,1,0,0:0:0:0:
256,24,65063,1,0,0:0:0:0:
376,192,65291,1,0,0:0:0:0:
376,192,65519,1,0,0:0:0:0:
472,352,65747,1,0,0:0:0:0:
472,352,65975,1,0,0:0:0:0:
472,352,66203,1,0,0:0:0:0:
472,352,66431,1,0,0:0:0:0:
472,352,66545,1,0,0:0:0:0:
472,352,66659,1,0,0:0:0:0:
88,192,66887,6,0,L|208:192,1,120
424,192,67343,2,0,L|304:192,1,120
200,112,67799,2,0,P|256:88|312:112,1,120
256,240,68255,1,0,0:0:0:0:
256,272,68369,1,0,0:0:0:0:
256,304,68483,1,0,0:0:0:0:
448,192,68711,6,0,L|328:192,1,120
64,192,69167,2,0,L|184:192,1,120
312,112,69623,2,0,P|256:88|200:112,1,120
203,252,70079,1,0,0:0:0:0:
256,296,70193,1,0,0:0:0:0:
304,248,70307,1,0,0:0:0:0:
0,192,70535,6,0,L|120:192,1,120
512,192,70991,2,0,L|392:192,1,120
200,112,71447,2,0,P|256:88|312:112,1,120
256,240,71903,1,0,0:0:0:0:
256,312,72017,1,0,0:0:0:0:
256,376,72131,1,0,0:0:0:0:
456,368,72359,1,0,0:0:0:0:
56,368,72587,2,0,B|128:344|152:232|80:176|8:224|8:352|184:304,1,360.000013732911
256,128,73271,1,0,0:0:0:0:
384,224,73499,1,0,0:0:0:0:
448,48,73727,1,0,0:0:0:0:
400,48,73841,1,0,0:0:0:0:
352,48,73955,1,0,0:0:0:0:
304,48,74069,1,0,0:0:0:0:
256,48,74183,5,0,0:0:0:0:
256,48,74411,1,0,0:0:0:0:
256,192,74639,1,0,0:0:0:0:
256,336,74868,5,0,0:0:0:0:
256,336,75096,1,0,0:0:0:0:
224,192,75324,1,0,0:0:0:0:
184,48,75552,5,0,0:0:0:0:
184,48,75780,1,0,0:0:0:0:
256,192,76008,1,0,0:0:0:0:
328,336,76236,5,0,0:0:0:0:
328,336,76464,1,0,0:0:0:0:
224,192,76692,1,0,0:0:0:0:
112,48,76920,5,0,0:0:0:0:
112,48,77148,1,0,0:0:0:0:
256,192,77376,1,0,0:0:0:0:
400,336,77604,5,0,0:0:0:0:
400,336,77832,1,0,0:0:0:0:
224,192,78060,1,0,0:0:0:0:
40,48,78288,5,0,0:0:0:0:
40,48,78516,1,0,0:0:0:0:
256,192,78744,1,0,0:0:0:0:
472,336,78972,5,0,0:0:0:0:
472,336,79200,2,0,L|472:96,1,240
472,96,80112,1,0,0:0:0:0:
64,192,80568,1,0,0:0:0:0:
112,192,80682,1,0,0:0:0:0:
160,192,80796,1,0,0:0:0:0:
208,192,80910,1,0,0:0:0:0:
256,192,81024,1,0,0:0:0:0:
304,192,81138,1,0,0:0:0:0:
352,192,81252,1,0,0:0:0:0:
400,192,81366,1,0,0:0:0:0:
448,192,81480,5,4,0:0:0:0:
256,192,81708,1,0,0:0:0:0:
64,192,81936,2,0,P|80:104|168:72,1,180.000006866455
448,192,82392,2,0,P|432:280|344:312,1,180.000006866455
64,192,82848,1,0,0:0:0:0:
240,192,83076,2,2,L|48:192,1,180.000006866455,2|0,0:0|0:0,0:0:0:0:
240,192,83532,6,0,L|384:304,1,180.000006866455
240,192,83988,2,0,L|376:48,1,180.000006866455
496,192,84444,1,0,0:0:0:0:
240,192,84672,1,0,0:0:0:0:
496,192,84900,2,2,B|408:200|408:200|312:192,1,180.000006866455,2|0,0:0|0:0,0:0:0:0:
104,136,85356,5,0,0:0:0:0:
8,328,85584,1,0,0:0:0:0:
208,256,85812,1,0,0:0:0:0:
400,352,86040,1,0,0:0:0:0:
352,144,86268,1,0,0:0:0:0:
312,104,86382,1,0,0:0:0:0:
264,80,86496,1,0,0:0:0:0:
216,64,86610,1,0,0:0:0:0:
160,72,86724,2,2,B|112:80|112:80|72:112|72:112|48:160|48:160|48:200,1,180.000006866455,2|0,0:0|0:0,0:0:0:0:
136,344,87180,5,0,0:0:0:0:
315,344,87408,1,0,0:0:0:0:
135,344,87636,1,0,0:0:0:0:
315,40,87864,1,0,0:0:0:0:
135,40,88092,1,0,0:0:0:0:
314,40,88320,1,0,0:0:0:0:
384,48,88434,1,0,0:0:0:0:
448,80,88548,1,0,0:0:0:0:
488,144,88662,1,0,0:0:0:0:
496,216,88776,5,0,0:0:0:0:
256,320,91513,5,0,0:0:0:0:
184,264,91627,1,0,0:0:0:0:
136,192,91741,1,0,0:0:0:0:
184,120,91855,1,0,0:0:0:0:
256,64,91969,1,0,0:0:0:0:
440,320,92197,2,2,L|256:320,1,180.000006866455,2|0,0:0|0:0,0:0:0:0:
240,320,93337,5,0,0:0:0:0:
240,320,93565,2,0,B|160:288|160:224|208:200|320:160|336:112|352:56|312:8|232:0|184:8|152:56|112:136|160:176|272:184|360:192|360:288|296:320|272:320,2,720.000027465821
240,320,95503,1,0,0:0:0:0:
240,320,95617,1,0,0:0:0:0:
240,320,95731,1,0,0:0:0:0:
240,320,95845,1,0,0:0:0:0:
240,320,95959,1,0,0:0:0:0:
240,320,96073,1,0,0:0:0:0:
256,64,103369,5,0,0:0:0:0:
