osu file format v10

[General]
AudioFilename: 8 Bit Weapon - GameBoy Rocker.mp3
AudioLeadIn: 1500
PreviewTime: 30475
Countdown: 0
SampleSet: Normal
StackLeniency: 0.7
Mode: 0
LetterboxInBreaks: 1

[Editor]
Bookmarks: 85128
DistanceSpacing: 0.8
BeatDivisor: 2
GridSize: 4

[Metadata]
Title:GameBoy Rocker
TitleUnicode:
Artist:8 Bit Weapon
ArtistUnicode:
Creator:bomber34
Version:Easy
Source:
Tags:darkdunskin hawkii
BeatmapID:153996
BeatmapSetID:48486

[Difficulty]
HPDrainRate:3
CircleSize:3
OverallDifficulty:1
ApproachRate:4
SliderMultiplier:1.4
SliderTickRate:2

[Events]
//Background and Video events
0,0,"Gameboy Rocker Idee.jpg"
//Break Periods
2,45197,50974
2,96273,102049
//Storyboard Layer 0 (Background)
//Storyboard Layer 1 (Fail)
//Storyboard Layer 2 (Pass)
//Storyboard Layer 3 (Foreground)
//Storyboard Sound Samples
//Background Colour Transformations
3,100,163,162,255

[TimingPoints]
1219,456.031010108687,4,2,0,45,1,0
8515,-100,4,1,0,40,0,0
30404,-100,4,1,0,40,0,1
35877,-100,4,1,0,30,0,1
36789,-100,4,1,0,25,0,1
37701,-100,4,1,0,40,0,1
43173,-100,4,1,0,30,0,1
44085,-100,4,1,0,25,0,1
44997,-100,4,1,0,40,0,0
57994,-100,4,1,0,30,0,0
58450,-100,4,1,0,25,0,0
59590,-100,4,1,0,40,0,0
81480,-100,4,1,0,40,0,1
85812,-100,4,1,0,30,0,1
86268,-100,4,1,0,40,0,1
86724,-100,4,1,0,25,0,1
87180,-100,4,1,0,40,0,1
87636,-100,4,1,0,20,0,1
87975,-100,4,1,0,40,0,1
94249,-100,4,1,0,30,0,1
95161,-100,4,1,0,25,0,1
96071,-100,4,1,0,40,0,0
125259,-100,4,1,0,40,0,0
127083,-100,4,1,0,40,0,1
132555,-100,4,1,0,30,0,1
133467,-100,4,1,0,25,0,1
134380,-100,4,1,0,40,0,1
139852,-100,4,1,0,30,0,1
140764,-100,4,1,0,25,0,1
141562,-100,4,1,0,40,0,0
141676,-100,4,1,0,40,0,1
148973,-133.333333333333,4,1,0,40,0,0
154445,-133.333333333333,4,1,0,30,0,0
155357,-133.333333333333,4,1,0,25,0,0
156269,-100,4,2,0,40,0,0
156497,-100,4,2,0,15,0,0
163110,-100,4,2,0,40,0,0
164022,-133.333333333333,4,2,0,35,0,0
164478,-133.333333333333,4,2,0,30,0,0
164934,-133.333333333333,4,2,0,25,0,0
165390,-133.333333333333,4,2,0,20,0,0
165846,-133.333333333333,4,2,0,15,0,0
166302,-133.333333333333,4,2,0,10,0,0
166758,-133.333333333333,4,2,0,5,0,0

[Colours]
Combo1 : 255,255,255
Combo2 : 0,0,255
Combo3 : 127,127,127
Combo4 : 27,134,252

[HitObjects]
64,120,1219,2,0,B|124:72|192:48|256:40|320:48|380:68|456:120,1,420,0|2,0:0|0:0,0:0:0
456,232,3043,2,0,B|380:284|320:304|256:312|192:304|124:280|64:232,1,420,0|2,0:0|0:0,0:0:0
72,120,4867,6,0,B|200:36|208:196|340:112,2,280,0|0|2,0:0|0:0|0:0,0:0:0
144,208,7147,2,0,B|176:272|176:272|144:336,2,140,2|2|2,0:0|0:0|0:0,0:0:0
200,112,8515,5,4,0:0:0
264,200,8971,1,0,0:0:0
280,312,9427,2,0,B|348:284|396:208|364:128|272:88,1,280,0|4,0:0|0:0,0:0:0
176,84,10795,5,0,0:0:0
120,180,11251,1,0,0:0:0
156,284,11707,1,2,0:0:0
268,284,12163,5,4,0:0:0
316,184,12619,1,0,0:0:0
268,84,13075,1,0,0:0:0
380,88,13531,2,0,B|452:88,2,70,0|2|2,0:0|0:0|0:0,0:0:0
340,192,14443,2,0,B|416:224|408:316|384:368|284:392|212:344|188:260|260:192,1,420,0|2,0:0|0:0,0:0:0
272,92,16268,5,2,0:0:0
164,124,16724,1,0,0:0:0
92,208,17180,1,4,0:0:0
204,212,17636,5,2,0:0:0
276,296,18092,1,2,0:0:0
384,328,18548,1,0,0:0:0
388,216,19004,2,0,B|464:216,2,70,8|8|2,0:0|0:0|0:0,0:0:0
392,104,19916,5,2,0:0:0
288,60,20372,1,0,0:0:0
224,152,20828,1,4,0:0:0
328,192,21284,5,2,0:0:0
238,258,21740,1,2,0:0:0
128,280,22196,1,0,0:0:0
88,184,22652,1,8,0:0:0
76,128,22880,1,8,0:0:0
116,88,23108,6,2,B|248:28|248:160|388:80,1,280,2|0,0:0|0:0,0:0:0
444,176,24476,1,12,0:0:0
388,272,24932,6,2,B|256:212|256:344|116:264,1,280,2|0,0:0|0:0,0:0:0
36,192,26300,1,12,0:0:0
24,80,26756,6,2,B|181:52|181:52|209:47|244:65|248:89|248:89|255:128,1,280,2|0,0:0|0:0,0:0:0
152,168,28124,1,12,0:0:0
48,208,28580,6,2,B|54:244|54:244|58:267|94:285|121:281|121:281|279:253,1,280,2|0,0:0|0:0,0:0:0
264,144,29948,1,12,0:0:0
372,172,30404,6,0,B|359:89|352:46|352:46|348:27|330:10|314:12|314:12|215:27|156:36|156:36|136:39|127:61|130:77|130:77|170:330|170:330|174:353|189:375|209:372|209:372|371:346|371:346|391:343|395:318|392:298|392:298|384:247,1,980,6|2,0:0|0:0,0:0:0
272,224,34053,1,0,0:0:0
248,112,34509,1,0,0:0:0
136,136,34965,2,0,B|176:76,1,70,0|2,0:0|0:0,0:0:0
320,160,35877,6,0,B|276:228,1,70,0|2,0:0|0:0,0:0:0
128,288,36789,2,0,B|68:244,1,70,0|2,0:0|0:0,0:0:0
164,108,37701,5,0,0:0:0
256,172,38157,1,0,0:0:0
348,108,38613,2,2,B|384:112|412:136,1,70,0|2,0:0|0:0,0:0:0
410,247,39297,5,6,0:0:0
347,340,39753,1,2,0:0:0
264,264,40209,2,0,B|192:248,1,70,2|2,0:0|0:0,0:0:0
195,192,40665,2,0,B|263:207,1,70,2|2,0:0|0:0,0:0:0
256,96,41349,5,0,0:0:0
148,128,41805,1,0,0:0:0
76,42,42261,2,2,B|20:90,1,70,0|2,0:0|0:0,0:0:0
22,255,43173,6,0,B|76:301,1,70,2|2,0:0|0:0,0:0:0
243,300,44085,2,0,B|296:254,1,70,2|2,0:0|0:0,0:0:0
256,92,44997,1,4,0:0:0
256,72,52294,5,4,0:0:0
304,172,52750,2,0,B|364:220|364:320|256:420|148:320|148:220|208:172,2,420,0|4|0,0:0|0:0|0:0,0:0:0
260,76,55942,1,4,0:0:0
352,140,56398,5,0,0:0:0
388,244,56854,1,0,0:0:0
382,355,57310,1,0,0:0:0
328,340,57538,2,0,B|256:372|184:340,2,140,4|4|4,0:0|0:0|0:0,0:0:0
264,68,59590,6,0,B|212:120|212:120|264:160|264:160|212:208|212:208|268:248|268:248|216:296|216:296|276:344,1,420,0|2,0:0|0:0,0:0:0
384,336,61415,6,0,B|328:291|328:291|380:243|380:243|324:203|324:203|376:155|376:155|324:115|324:115|376:63,1,420,6|2,0:0|0:0,0:0:0
488,56,63239,6,0,B|436:108|436:108|488:148|488:148|436:196|436:196|492:236|492:236|440:284|440:284|493:329,1,420,6|0,0:0|0:0,0:0:0
448,368,64835,1,0,0:0:0
336,352,65291,1,0,0:0:0
256,272,65747,1,6,0:0:0
88,48,66887,6,0,B|88:188,2,140,0|8|0,0:0|0:0|0:0,0:0:0
176,120,68255,1,2,0:0:0
256,200,68711,6,0,B|256:344,2,140,0|8|0,0:0|0:0|0:0,0:0:0
336,120,70079,1,2,0:0:0
424,48,70535,5,0,0:0:0
424,159,70991,1,8,0:0:0
424,270,71447,1,0,0:0:0
320,312,71903,1,2,0:0:0
208,316,72359,6,2,B|164:260|112:192|164:124|208:64,1,280,2|0,0:0|0:0,0:0:0
432,56,74183,6,0,B|456:80|480:120|456:160|432:184,2,140,2|0|2,0:0|0:0|0:0,0:0:0
352,128,75552,2,0,B|328:152|304:192|328:232|352:256,2,140,6|0|2,0:0|0:0|0:0,0:0:0
240,144,76920,2,0,B|260:123|284:83|260:43|236:19,2,140,2|4|2,0:0|0:0|0:0,0:0:0
144,96,78288,2,0,B|120:120|96:160|120:200|144:224,2,140,2|0|6,0:0|0:0|0:0,0:0:0
360,136,80112,5,2,0:0:0
256,168,80568,2,0,B|256:312,2,140,0|0|6,0:0|0:0|0:0,0:0:0
344,108,81936,5,0,0:0:0
420,192,82392,2,0,B|420:260,1,70,0|2,0:0|0:0,0:0:0
320,312,83076,2,0,B|296:328|256:352|216:328|188:312,2,140,6|0|0,0:0|0:0|0:0,0:0:0
320,256,84216,1,2,0:0:0
256,164,84672,1,2,0:0:0
148,136,85128,6,0,B|171:79|256:8|336:79|364:136,3,280,0|2|2|2,0:0|0:0|0:0|0:0,0:0:0
368,192,88092,1,0,0:0:0
344,360,88776,5,0,0:0:0
244,304,89232,1,0,0:0:0
148,244,89689,2,2,B|108:236|96:200,1,70,0|2,0:0|0:0,0:0:0
160,108,90373,5,6,0:0:0
256,48,90829,1,2,0:0:0
352,108,91285,2,0,B|352:180,1,70,2|2,0:0|0:0,0:0:0
407,178,91741,2,0,B|407:250,1,70,2|2,0:0|0:0,0:0:0
296,264,92425,6,0,B|224:292|156:260,1,140,0|0,0:0|0:0,0:0:0
148,152,93337,2,0,B|204:196,1,70,0|2,0:0|0:0,0:0:0
364,152,94249,6,0,B|308:196,1,70,0|2,0:0|0:0,0:0:0
256,356,95161,2,0,B|256:276,1,70,0|2,0:0|0:0,0:0:0
256,120,96073,1,4,0:0:0
80,192,103369,5,6,0:0:0
256,336,105194,5,6,0:0:0
432,192,107018,5,6,0:0:0
256,48,108842,5,6,0:0:0
256,192,110666,5,0,0:0:0
352,248,111122,1,2,0:0:0
256,292,111578,1,0,0:0:0
156,244,112034,2,0,B|84:244,2,70,2|2|0,0:0|0:0|0:0,0:0:0
256,192,112946,5,2,0:0:0
338,116,113402,1,0,0:0:0
256,40,113858,2,0,B|256:108,2,70,2|2|0,0:0|0:0|0:0,0:0:0
174,116,114770,5,2,0:0:0
256,192,115226,1,0,0:0:0
340,268,115682,2,0,B|412:268,2,70,2|2|0,0:0|0:0|0:0,0:0:0
256,340,116594,5,2,0:0:0
172,268,117050,1,0,0:0:0
172,156,117506,1,2,0:0:0
60,136,117962,6,2,B|91:80|171:9|256:80|279:137,1,280,2|0,0:0|0:0,0:0:0
256,248,119331,1,0,0:0:0
146,272,119787,6,2,B|177:328|257:399|342:328|365:271,1,280,2|0,0:0|0:0,0:0:0
392,164,121155,1,0,0:0:0
281,143,121611,6,2,B|312:87|392:16|477:87|500:144,1,280,2|0,0:0|0:0,0:0:0
392,164,122979,1,0,0:0:0
500,200,123435,6,2,B|477:256|393:324|321:264|281:200,1,280,2|0,0:0|0:0,0:0:0
170,195,124803,1,0,0:0:0
112,100,125259,6,0,B|140:76|140:76|164:116|164:116|188:76|188:76|212:116|212:116|236:76|236:76|260:116|260:116|284:76|284:76|308:116|308:116|328:88|328:88|344:72,1,420,0|8,0:0|0:0,0:0:0
448,104,127083,5,6,0:0:0
368,176,127539,1,0,0:0:0
260,212,127995,2,0,B|312:260,1,70,0|2,0:0|0:0,0:0:0
424,264,128679,5,2,0:0:0
348,344,129135,1,0,0:0:0
236,336,129591,2,0,B|184:288,1,70,2|0,0:0|0:0,0:0:0
80,336,130275,1,6,0:0:0
80,224,130731,6,0,B|80:84,1,140,0|0,0:0|0:0,0:0:0
184,128,131643,2,2,B|184:198,1,70,0|2,0:0|0:0,0:0:0
352,200,132555,2,2,B|352:130,1,70,0|2,0:0|0:0,0:0:0
184,128,133467,2,2,B|184:198,1,70,0|2,0:0|0:0,0:0:0
256,348,134380,5,0,0:0:0
335,268,134836,1,0,0:0:0
255,188,135292,2,2,B|255:116,1,70,0|2,0:0|0:0,0:0:0
144,96,135976,5,6,0:0:0
32,96,136432,1,2,0:0:0
88,192,136888,2,2,B|88:244|88:244|88:272|96:336|172:360|208:360|208:360|256:360,1,280,2|2,0:0|0:0,0:0:0
307,360,138028,5,0,0:0:0
252,264,138484,1,0,0:0:0
340,192,138940,2,2,B|412:192,1,70,0|2,0:0|0:0,0:0:0
252,132,139852,6,2,B|184:132,1,70,0|2,0:0|0:0,0:0:0
24,192,140764,2,2,B|96:192,1,70,0|2,0:0|0:0,0:0:0
200,64,141676,5,0,0:0:0
315,64,142132,1,0,0:0:0
256,160,142588,2,2,B|256:232,1,70,0|2,0:0|0:0,0:0:0
256,340,143272,1,6,0:0:0
168,272,143728,2,0,B|128:256|76:192|128:128|168:104,1,210,2|2,0:0|0:0,0:0:0
256,172,144868,1,6,0:0:0
304,272,145324,5,0,0:0:0
360,176,145780,1,0,0:0:0
256,128,146236,2,2,B|304:72,1,70,0|2,0:0|0:0,0:0:0
136,28,147148,6,2,B|80:96|156:96|120:164,1,140,2|0,0:0|0:0,0:0:0
232,184,148060,2,2,B|198:246|274:246|218:314,1,140,2|0,0:0|0:0,0:0:0
136,300,148973,5,0,0:0:0
104,224,149429,1,0,0:0:0
136,148,149885,2,2,B|188:68|284:88,1,157.499995306134,2|0,0:0|0:0,0:0:0
260,168,151025,1,0,0:0:0
344,152,151481,2,2,B|384:184,1,52.4999984353781
384,226,151937,2,2,B|344:258,1,52.4999984353781,2|0,0:0|0:0,0:0:0
260,272,152621,5,0,0:0:0
201,212,153077,1,0,0:0:0
162,286,153533,2,0,B|200:328,1,52.4999984353781,0|2,0:0|0:0,0:0:0
320,344,154445,6,0,B|320:288,1,52.4999984353781,0|2,0:0|0:0,0:0:0
256,184,155357,2,0,B|256:236,1,52.4999984353781,0|2,0:0|0:0,0:0:0
92,168,156269,22,0,B|131:247|255:375|255:375|379:247|415:171|415:171|459:71|423:15|387:-4|335:-11|299:19|255:79|255:79|211:19|175:-11|122:-4|87:15|51:71|75:127,2,1120,0|2|6,0:0|0:0|0:0,0:0:0
256,192,163794,12,0,166758,0:0:0
