osu file format v13

[General]
AudioFilename: _ele_butter_7g_air.mp3
AudioLeadIn: 0
PreviewTime: -1
Countdown: 1
SampleSet: Soft
StackLeniency: 1
Mode: 2
LetterboxInBreaks: 1
WidescreenStoryboard: 1

[Editor]
Bookmarks: 77837,108972,115459,118054,126283,136256
DistanceSpacing: 0.5
BeatDivisor: 16
GridSize: 4
TimelineZoom: 1

[Metadata]
Title:eletric butterfly
TitleUnicode:eletric butterfly
Artist:7g t+pazolite
ArtistUnicode:7g 養土卵 光 / 浜 柔好
Creator:superw7
Version:crazy deluge 9.5
Source:BMS
Tags:t+pazolite fuxk what the what!? superw7 why make this map i love t+pazolite
BeatmapID:0
BeatmapSetID:-1

[Difficulty]
HPDrainRate:0.7
CircleSize:4
OverallDifficulty:9.9
ApproachRate:9.5
SliderMultiplier:2.99999990463257
SliderTickRate:1

[Events]
//Background and Video events
0,0,"000022233333.jpg",0,0
//Break Periods
2,103983,107150
//Storyboard Layer 0 (Background)
//Storyboard Layer 1 (Fail)
//Storyboard Layer 2 (Pass)
//Storyboard Layer 3 (Foreground)
//Storyboard Sound Samples

[TimingPoints]
0,324.324324324324,4,2,0,100,1,0
76581,-55.5555555555556,4,2,0,100,0,0
77797,-50,4,2,0,100,0,0
77837,-100,4,2,0,100,0,0
98635,-50,4,2,0,100,0,0
107675,-100,4,2,0,100,0,0
136216,-66.6666666666667,4,2,0,100,0,0

[HitObjects]
0,192,1297,5,0,0:0:0:0:
224,192,1459,1,0,0:0:0:0:
112,144,1621,2,0,L|16:112,1,74.9999976158143
288,112,1783,2,0,L|384:80,1,74.9999976158142
512,192,1946,5,0,0:0:0:0:
288,192,2108,1,0,0:0:0:0:
400,144,2270,2,0,L|496:112,1,74.9999976158143
224,112,2432,2,0,L|128:80,1,74.9999976158142
512,192,2595,5,0,0:0:0:0:
288,192,2756,1,0,0:0:0:0:
0,192,2918,5,0,0:0:0:0:
224,192,3079,1,0,0:0:0:0:
224,272,3243,6,0,L|144:256,1,74.9999976158143
384,224,3405,6,0,L|464:208,1,74.9999976158143
128,128,3567,6,0,L|48:112,1,74.9999976158143
288,128,3729,6,0,L|368:112,1,74.9999976158143
224,192,3891,5,0,0:0:0:0:
0,192,4053,1,0,0:0:0:0:
359,88,4215,2,0,L|288:112,1,74.9999976158142
40,120,4377,2,0,L|112:144,1,74.9999976158143
288,192,4540,5,0,0:0:0:0:
512,192,4702,1,0,0:0:0:0:
152,88,4864,2,0,L|224:112,1,74.9999976158142
471,120,5026,2,0,L|400:144,1,74.9999976158143
224,192,5189,5,0,0:0:0:0:
0,192,5350,1,0,0:0:0:0:
288,192,5512,5,0,0:0:0:0:
512,192,5673,1,0,0:0:0:0:
361,113,5837,6,0,L|288:128,1,74.9999976158143
54,113,5999,6,0,L|128:128,1,74.9999976158143
457,209,6161,6,0,L|384:224,1,74.9999976158143
150,257,6323,6,0,L|224:272,1,74.9999976158143
208,192,6486,5,0,0:0:0:0:
384,192,6648,1,0,0:0:0:0:
160,128,6810,2,0,L|80:80,1,74.9999976158143
352,128,6972,2,0,L|272:80,1,74.9999976158143
304,192,7135,5,0,0:0:0:0:
128,192,7297,1,0,0:0:0:0:
352,128,7459,2,0,L|432:80,1,74.9999976158143
160,128,7621,2,0,L|240:80,1,74.9999976158143
208,192,7783,5,0,0:0:0:0:
384,192,7945,1,0,0:0:0:0:
304,192,8108,5,0,0:0:0:0:
128,192,8270,1,0,0:0:0:0:
160,128,8391,6,0,L|80:80,1,74.9999976158143
352,128,8553,2,0,L|272:80,1,74.9999976158143
352,128,8716,6,0,L|432:80,1,74.9999976158143
160,128,8878,2,0,L|240:80,1,74.9999976158143
96,256,9081,5,0,0:0:0:0:
416,256,9243,5,0,0:0:0:0:
256,192,9364,6,0,L|160:192,1,74.9999976158143
256,192,9527,6,0,L|352:192,1,74.9999976158143
176,256,9729,5,0,0:0:0:0:
336,256,9891,5,0,0:0:0:0:
288,192,10054,6,0,L|272:160,1,18.7499994039536
224,192,10135,6,0,L|240:160,1,18.7499994039536
304,192,10216,6,0,L|288:160,1,18.7499994039536
208,192,10297,6,0,L|224:160,1,18.7499994039536
256,192,10337,5,0,0:0:0:0:
256,192,10662,5,0,0:0:0:0:
256,192,10986,5,0,0:0:0:0:
256,192,11310,5,0,0:0:0:0:
256,192,11675,5,0,0:0:0:0:
0,192,11837,1,0,0:0:0:0:
192,160,11999,6,0,L|112:112,1,74.9999976158143
16,112,12162,6,0,L|96:64,1,74.9999976158143
320,192,12324,5,0,0:0:0:0:
64,192,12486,1,0,0:0:0:0:
256,160,12648,6,0,L|176:112,1,74.9999976158143
80,112,12811,6,0,L|160:64,1,74.9999976158143
384,192,12972,5,0,0:0:0:0:
128,192,13134,1,0,0:0:0:0:
320,160,13296,6,0,L|240:112,1,74.9999976158143
144,112,13459,6,0,L|224:64,1,74.9999976158143
448,192,13621,5,0,0:0:0:0:
192,192,13783,1,0,0:0:0:0:
352,144,13945,6,0,L|416:105,1,74.9999976158143
304,96,14108,6,0,L|239:57,1,74.9999976158143
256,192,14270,5,0,0:0:0:0:
512,192,14432,1,0,0:0:0:0:
320,160,14594,6,0,L|400:112,1,74.9999976158143
496,112,14757,6,0,L|416:64,1,74.9999976158143
192,192,14919,5,0,0:0:0:0:
448,192,15081,1,0,0:0:0:0:
256,160,15243,6,0,L|336:112,1,74.9999976158143
432,112,15406,6,0,L|352:64,1,74.9999976158143
128,192,15567,5,0,0:0:0:0:
384,192,15729,1,0,0:0:0:0:
192,160,15891,6,0,L|272:112,1,74.9999976158143
368,112,16054,6,0,L|288:64,1,74.9999976158143
64,192,16216,6,0,L|144:144,1,74.9999976158143
272,192,16378,6,0,L|192:144,1,74.9999976158143
128,160,16540,6,0,L|63:198,1,74.9999976158143
208,160,16702,6,0,L|272:198,1,74.9999976158143
208,192,16864,5,0,0:0:0:0:
0,192,17027,1,0,0:0:0:0:
64,128,17189,6,0,L|144:64,1,74.9999976158143,0|0,0:0|0:0,0:0:0:0:
256,128,17351,6,0,L|336:64,1,74.9999976158143,0|0,0:0|0:0,0:0:0:0:
272,192,17512,5,0,0:0:0:0:
64,192,17675,1,0,0:0:0:0:
128,128,17837,6,0,L|208:64,1,74.9999976158143,0|0,0:0|0:0,0:0:0:0:
320,128,17999,6,0,L|400:64,1,74.9999976158143,0|0,0:0|0:0,0:0:0:0:
336,192,18162,5,0,0:0:0:0:
128,192,18325,1,0,0:0:0:0:
192,128,18487,6,0,L|272:64,1,74.9999976158143,0|0,0:0|0:0,0:0:0:0:
384,128,18649,6,0,L|464:64,1,74.9999976158143,0|0,0:0|0:0,0:0:0:0:
400,192,18809,5,0,0:0:0:0:
192,192,18972,1,0,0:0:0:0:
506,81,19134,6,0,L|448:128,1,74.9999976158143,0|0,0:0|0:0,0:0:0:0:
314,81,19296,6,0,L|256:128,1,74.9999976158143,0|0,0:0|0:0,0:0:0:0:
304,192,19459,5,0,0:0:0:0:
512,192,19622,1,0,0:0:0:0:
448,128,19784,6,0,L|368:64,1,74.9999976158143,0|0,0:0|0:0,0:0:0:0:
256,128,19946,6,0,L|176:64,1,74.9999976158143,0|0,0:0|0:0,0:0:0:0:
240,192,20108,5,0,0:0:0:0:
448,192,20271,1,0,0:0:0:0:
384,128,20433,6,0,L|304:64,1,74.9999976158143,0|0,0:0|0:0,0:0:0:0:
192,128,20595,6,0,L|112:64,1,74.9999976158143,0|0,0:0|0:0,0:0:0:0:
176,192,20756,5,0,0:0:0:0:
384,192,20919,1,0,0:0:0:0:
320,128,21081,6,0,L|240:64,1,74.9999976158143,0|0,0:0|0:0,0:0:0:0:
128,128,21243,6,0,L|48:64,1,74.9999976158143,0|0,0:0|0:0,0:0:0:0:
112,192,21405,6,0,L|192:128,1,74.9999976158143,0|0,0:0|0:0,0:0:0:0:
304,192,21567,6,0,L|384:128,1,74.9999976158143,0|0,0:0|0:0,0:0:0:0:
368,144,21729,6,0,L|288:80,1,74.9999976158143,0|0,0:0|0:0,0:0:0:0:
176,144,21891,6,0,L|96:80,1,74.9999976158143,0|0,0:0|0:0,0:0:0:0:
0,192,22054,5,0,0:0:0:0:
224,192,22216,1,0,0:0:0:0:
96,112,22378,6,0,L|16:112,1,74.9999976158143
192,96,22540,2,0,L|288:48,1,74.9999976158143
64,192,22702,5,0,0:0:0:0:
288,192,22864,1,0,0:0:0:0:
160,112,23026,6,0,L|80:112,1,74.9999976158143
256,96,23188,2,0,L|352:48,1,74.9999976158143
128,192,23351,5,0,0:0:0:0:
352,192,23513,1,0,0:0:0:0:
224,112,23675,6,0,L|144:112,1,74.9999976158143
320,96,23837,2,0,L|416:48,1,74.9999976158143
192,192,23999,5,0,0:0:0:0:
416,192,24161,1,0,0:0:0:0:
451,62,24323,6,0,L|384:96,1,74.9999976158143
213,112,24485,2,0,L|288:112,1,74.9999976158143
512,192,24648,5,0,0:0:0:0:
288,192,24810,1,0,0:0:0:0:
416,112,24972,6,0,L|496:112,1,74.9999976158143
320,96,25134,2,0,L|224:48,1,74.9999976158143
448,192,25297,5,0,0:0:0:0:
224,192,25459,1,0,0:0:0:0:
352,112,25621,6,0,L|432:112,1,74.9999976158143
256,96,25783,2,0,L|160:48,1,74.9999976158143
384,192,25945,5,0,0:0:0:0:
160,192,26107,1,0,0:0:0:0:
288,112,26269,6,0,L|368:112,1,74.9999976158143
192,96,26431,2,0,L|96:48,1,74.9999976158143
96,192,26594,6,0,L|21:192,1,74.9999976158143
192,175,26756,2,0,L|259:141,1,74.9999976158143
192,95,26918,6,0,L|267:95,1,74.9999976158143
96,112,27080,2,0,L|28:145,1,74.9999976158143
0,192,27243,5,0,0:0:0:0:
208,192,27405,1,0,0:0:0:0:
80,144,27567,6,0,L|80:48,1,74.9999976158143
272,112,27729,2,0,L|272:16,1,74.9999976158143
64,192,27891,5,0,0:0:0:0:
272,192,28053,1,0,0:0:0:0:
144,144,28216,6,0,L|144:48,1,74.9999976158143
336,112,28378,2,0,L|336:16,1,74.9999976158143
128,192,28540,5,0,0:0:0:0:
336,192,28702,1,0,0:0:0:0:
208,144,28865,6,0,L|208:48,1,74.9999976158143
400,112,29027,2,0,L|400:16,1,74.9999976158143
128,192,29189,5,0,0:0:0:0:
336,192,29351,1,0,0:0:0:0:
400,37,29514,6,0,L|400:112,1,74.9999976158143
208,69,29676,2,0,L|208:144,1,74.9999976158143
512,192,29837,5,0,0:0:0:0:
304,192,29999,1,0,0:0:0:0:
432,144,30162,6,0,L|432:48,1,74.9999976158143
240,112,30324,2,0,L|240:16,1,74.9999976158143
448,192,30486,5,0,0:0:0:0:
240,192,30648,1,0,0:0:0:0:
368,144,30811,6,0,L|368:48,1,74.9999976158143
176,112,30973,2,0,L|176:16,1,74.9999976158143
384,192,31135,5,0,0:0:0:0:
176,192,31297,1,0,0:0:0:0:
304,144,31460,6,0,L|304:48,1,74.9999976158143
112,112,31622,2,0,L|112:16,1,74.9999976158143
320,192,31783,6,0,L|272:160,1,37.4999988079071
112,192,31864,2,0,L|64:160,1,37.4999988079071
16,144,31945,6,0,L|64:112,1,37.4999988079071
224,144,32026,2,0,L|272:112,1,37.4999988079071
208,192,32108,6,0,L|256:160,1,37.4999988079071
416,192,32189,2,0,L|464:160,1,37.4999988079071
512,144,32270,6,0,L|464:112,1,37.4999988079071
304,144,32351,2,0,L|256:112,1,37.4999988079071
256,192,32432,5,0,0:0:0:0:
112,256,32594,6,0,L|16:240,1,74.9999976158143
256,224,32716,2,0,L|352:192,1,74.9999976158143
496,256,33081,6,0,L|416:224,1,74.9999976158143
272,160,33243,1,0,0:0:0:0:
432,128,33324,6,0,L|512:96,1,74.9999976158143
192,112,33486,5,0,0:0:0:0:
336,64,33567,6,0,L|416:32,1,74.9999976158143
0,192,33729,5,0,0:0:0:0:
240,160,33810,1,0,0:0:0:0:
80,128,33891,6,0,L|0:96,1,74.9999976158143
320,112,34053,5,0,0:0:0:0:
176,64,34134,6,0,L|96:32,1,74.9999976158143
400,160,34297,1,0,0:0:0:0:
240,128,34378,6,0,L|160:96,1,74.9999976158143
480,112,34540,5,0,0:0:0:0:
336,64,34621,6,0,L|256:32,1,74.9999976158143
512,112,34864,1,0,0:0:0:0:
256,192,35027,5,0,0:0:0:0:
208,128,35189,6,0,L|112:96,1,74.9999976158143
304,128,35311,2,0,L|400:96,1,74.9999976158143
160,192,35675,5,0,0:0:0:0:
352,144,35756,6,0,L|448:112,1,74.9999976158143,0|0,0:0|0:0,0:0:0:0:
64,160,35918,1,0,0:0:0:0:
256,112,35999,6,0,L|352:80,1,74.9999976158143,0|0,0:0|0:0,0:0:0:0:
512,192,36162,5,0,0:0:0:0:
16,192,36324,5,0,0:0:0:0:
288,176,36405,5,0,0:0:0:0:
96,128,36486,6,0,L|0:96,1,74.9999976158143,0|0,0:0|0:0,0:0:0:0:
352,176,36648,5,0,0:0:0:0:
160,128,36729,6,0,L|64:96,1,74.9999976158143,0|0,0:0|0:0,0:0:0:0:
416,176,36891,5,0,0:0:0:0:
224,128,36972,6,0,L|128:96,1,74.9999976158143,0|0,0:0|0:0,0:0:0:0:
480,176,37135,5,0,0:0:0:0:
288,128,37216,6,0,L|192:96,1,74.9999976158143,0|0,0:0|0:0,0:0:0:0:
512,176,37418,1,0,0:0:0:0:
112,192,37621,5,0,0:0:0:0:
32,144,37783,6,0,P|16:96|48:64,1,74.9999976158143
128,96,37905,6,0,P|144:48|112:16,1,74.9999976158143
352,192,38189,5,0,0:0:0:0:
160,144,38270,6,0,L|64:112,1,74.9999976158143,0|0,0:0|0:0,0:0:0:0:
448,160,38432,1,0,0:0:0:0:
256,112,38513,6,0,L|160:80,1,74.9999976158143,0|0,0:0|0:0,0:0:0:0:
0,192,38676,5,0,0:0:0:0:
496,192,38838,5,0,0:0:0:0:
224,176,38919,5,0,0:0:0:0:
416,128,39000,6,0,L|512:96,1,74.9999976158143,0|0,0:0|0:0,0:0:0:0:
160,176,39162,5,0,0:0:0:0:
352,128,39243,6,0,L|448:96,1,74.9999976158143,0|0,0:0|0:0,0:0:0:0:
96,176,39405,5,0,0:0:0:0:
288,128,39486,6,0,L|384:96,1,74.9999976158143,0|0,0:0|0:0,0:0:0:0:
512,176,39649,5,0,0:0:0:0:
320,128,39730,6,0,L|224:96,1,74.9999976158143,0|0,0:0|0:0,0:0:0:0:
448,176,39891,5,0,0:0:0:0:
256,128,39972,6,0,L|160:96,1,74.9999976158143,0|0,0:0|0:0,0:0:0:0:
384,176,40135,5,0,0:0:0:0:
192,128,40216,6,0,L|96:96,1,74.9999976158143,0|0,0:0|0:0,0:0:0:0:
0,192,40378,6,0,L|80:160,1,74.9999976158143
512,192,40499,6,0,L|432:160,1,74.9999976158143
464,192,40864,5,0,0:0:0:0:
192,176,40945,5,0,0:0:0:0:
384,128,41026,6,0,L|480:96,1,74.9999976158143,0|0,0:0|0:0,0:0:0:0:
128,176,41188,5,0,0:0:0:0:
320,128,41269,6,0,L|416:96,1,74.9999976158143,0|0,0:0|0:0,0:0:0:0:
64,176,41431,5,0,0:0:0:0:
256,128,41512,6,0,L|352:96,1,74.9999976158143,0|0,0:0|0:0,0:0:0:0:
480,176,41675,5,0,0:0:0:0:
288,128,41756,6,0,L|192:96,1,74.9999976158143,0|0,0:0|0:0,0:0:0:0:
416,176,41917,5,0,0:0:0:0:
224,128,41998,6,0,L|128:96,1,74.9999976158143,0|0,0:0|0:0,0:0:0:0:
352,176,42161,5,0,0:0:0:0:
160,128,42242,6,0,L|64:96,1,74.9999976158143,0|0,0:0|0:0,0:0:0:0:
256,192,42486,5,0,0:0:0:0:
0,304,42770,6,0,L|96:272,1,74.9999976158143
256,272,42932,5,0,0:0:0:0:
64,288,43013,6,0,L|160:256,1,74.9999976158143
320,256,43175,5,0,0:0:0:0:
128,272,43256,6,0,L|224:240,1,74.9999976158143
384,240,43418,5,0,0:0:0:0:
192,256,43499,6,0,L|288:224,1,74.9999976158143
448,224,43661,5,0,0:0:0:0:
256,240,43743,6,0,L|352:208,1,74.9999976158143
512,208,43905,2,0,L|416:192,1,74.9999976158143
512,304,44067,6,0,L|416:272,1,74.9999976158143
256,272,44229,5,0,0:0:0:0:
448,288,44310,6,0,L|352:256,1,74.9999976158143
192,256,44472,5,0,0:0:0:0:
384,272,44553,6,0,L|288:240,1,74.9999976158143
128,240,44715,5,0,0:0:0:0:
320,256,44796,6,0,L|224:224,1,74.9999976158143
64,224,44958,5,0,0:0:0:0:
256,240,45040,6,0,L|160:208,1,74.9999976158143
0,208,45202,2,0,L|96:192,1,74.9999976158143
80,240,45364,6,0,L|0:208,1,74.9999976158143,0|0,0:0|0:0,0:0:0:0:
240,224,45527,1,0,0:0:0:0:
144,272,45608,6,0,L|64:240,1,74.9999976158143,0|0,0:0|0:0,0:0:0:0:
304,256,45771,1,0,0:0:0:0:
208,304,45851,6,0,L|128:272,1,74.9999976158143,0|0,0:0|0:0,0:0:0:0:
368,288,46014,1,0,0:0:0:0:
272,336,46094,6,0,L|192:304,1,74.9999976158143,0|0,0:0|0:0,0:0:0:0:
432,320,46257,1,0,0:0:0:0:
336,368,46337,2,0,L|256:336,1,74.9999976158143
432,336,46499,2,0,L|512:288,1,74.9999976158143
432,240,46662,6,0,L|512:208,1,74.9999976158143,0|0,0:0|0:0,0:0:0:0:
272,224,46825,1,0,0:0:0:0:
368,272,46906,6,0,L|448:240,1,74.9999976158143,0|0,0:0|0:0,0:0:0:0:
208,256,47069,1,0,0:0:0:0:
304,304,47149,6,0,L|384:272,1,74.9999976158143,0|0,0:0|0:0,0:0:0:0:
144,288,47312,1,0,0:0:0:0:
240,336,47392,6,0,L|320:304,1,74.9999976158143,0|0,0:0|0:0,0:0:0:0:
80,320,47555,1,0,0:0:0:0:
176,368,47635,2,0,L|256:336,1,74.9999976158143
80,336,47797,2,0,L|0:288,1,74.9999976158143
0,304,47959,6,0,L|80:272,1,74.9999976158143
512,288,48121,5,0,0:0:0:0:
0,304,48202,6,0,L|80:272,1,74.9999976158143
448,288,48364,5,0,0:0:0:0:
0,304,48445,6,0,L|80:272,1,74.9999976158143
384,288,48608,5,0,0:0:0:0:
0,304,48689,6,0,L|80:272,1,74.9999976158143
320,288,48852,5,0,0:0:0:0:
0,304,48932,6,0,L|80:272,1,74.9999976158143
512,304,49094,6,0,L|432:272,1,74.9999976158143
512,304,49256,6,0,L|432:272,1,74.9999976158143
0,288,49418,5,0,0:0:0:0:
512,304,49499,6,0,L|432:272,1,74.9999976158143
64,288,49661,5,0,0:0:0:0:
512,304,49742,6,0,L|432:272,1,74.9999976158143
128,288,49905,5,0,0:0:0:0:
512,304,49986,6,0,L|432:272,1,74.9999976158143
192,288,50149,5,0,0:0:0:0:
80,304,50229,6,0,L|0:272,1,74.9999976158143
432,304,50391,6,0,L|512:272,1,74.9999976158143
0,192,50594,6,0,L|80:176,1,74.9999976158143
256,192,50756,5,0,0:0:0:0:
512,192,50837,6,0,L|432:176,1,74.9999976158143
256,192,50999,5,0,0:0:0:0:
0,192,51081,6,0,L|80:176,1,74.9999976158143
256,192,51243,5,0,0:0:0:0:
512,192,51324,6,0,L|432:176,1,74.9999976158143
256,192,51486,5,0,0:0:0:0:
0,192,51567,6,0,L|80:160,1,74.9999976158143
512,192,51729,6,0,L|432:160,1,74.9999976158143
80,192,51891,6,0,L|0:160,1,74.9999976158143
432,192,52054,6,0,L|512:160,1,74.9999976158143
112,192,52216,6,0,L|192:160,1,74.9999976158143
416,192,52378,6,0,L|336:160,1,74.9999976158143
192,192,52540,6,0,L|112:160,1,74.9999976158143
320,192,52703,6,0,L|416:160,1,74.9999976158143
256,192,52864,6,0,L|208:192,3,37.4999988079071,0|0|0|0,0:0|0:0|0:0|0:0,0:0:0:0:
256,192,53027,6,0,L|304:192,3,37.4999988079071,0|0|0|0,0:0|0:0|0:0|0:0,0:0:0:0:
256,192,53189,12,0,54405,0:0:0:0:
0,192,54486,5,0,0:0:0:0:
432,192,54567,6,0,L|512:160,1,74.9999976158143
0,192,54729,5,0,0:0:0:0:
368,192,54810,6,0,L|448:160,1,74.9999976158143
0,192,54972,5,0,0:0:0:0:
304,192,55053,6,0,L|384:160,1,74.9999976158143
0,192,55216,5,0,0:0:0:0:
240,192,55297,6,0,L|320:160,1,74.9999976158143
80,192,55459,6,0,L|0:160,1,74.9999976158143
432,192,55621,6,0,L|512:160,1,74.9999976158143
512,192,55783,5,0,0:0:0:0:
80,192,55864,6,0,L|0:160,1,74.9999976158143
512,192,56026,5,0,0:0:0:0:
144,192,56107,6,0,L|64:160,1,74.9999976158143
512,192,56269,5,0,0:0:0:0:
208,192,56350,6,0,L|128:160,1,74.9999976158143
512,192,56513,5,0,0:0:0:0:
272,192,56594,6,0,L|192:160,1,74.9999976158143
10,164,56756,6,0,L|80:192,1,74.9999976158143
501,164,56918,6,0,L|432:192,1,74.9999976158143
0,192,57081,6,0,L|80:160,1,74.9999976158143
320,192,57243,5,0,0:0:0:0:
0,192,57324,6,0,L|80:160,1,74.9999976158143
384,192,57486,5,0,0:0:0:0:
0,192,57567,6,0,L|80:160,1,74.9999976158143
448,192,57729,5,0,0:0:0:0:
0,192,57810,6,0,L|80:160,1,74.9999976158143
512,192,57972,5,0,0:0:0:0:
256,192,58054,6,0,L|160:160,1,74.9999976158143
256,192,58216,6,0,L|352:160,1,74.9999976158143
512,192,58378,6,0,L|432:160,1,74.9999976158143
192,192,58540,5,0,0:0:0:0:
512,192,58621,6,0,L|432:160,1,74.9999976158143
128,192,58783,5,0,0:0:0:0:
512,192,58864,6,0,L|432:160,1,74.9999976158143
64,192,59026,5,0,0:0:0:0:
512,192,59107,6,0,L|432:160,1,74.9999976158143
0,192,59269,5,0,0:0:0:0:
176,144,59351,2,0,L|256:192,1,74.9999976158143
336,144,59513,2,0,L|256:192,1,74.9999976158143
192,192,59675,6,0,L|288:160,1,74.9999976158143
512,192,59837,5,0,0:0:0:0:
128,192,59918,6,0,L|224:160,1,74.9999976158143
512,192,60080,5,0,0:0:0:0:
64,192,60162,6,0,L|160:160,1,74.9999976158143
512,192,60324,5,0,0:0:0:0:
0,192,60405,6,0,L|96:160,1,74.9999976158143
512,192,60567,5,0,0:0:0:0:
224,192,60648,6,0,L|208:112,1,74.9999976158143
288,192,60810,2,0,L|304:96,1,74.9999976158143
320,192,60972,6,0,L|224:160,1,74.9999976158143
0,192,61134,5,0,0:0:0:0:
384,192,61215,6,0,L|288:160,1,74.9999976158143
0,192,61377,5,0,0:0:0:0:
448,192,61459,6,0,L|352:160,1,74.9999976158143
0,192,61621,5,0,0:0:0:0:
512,192,61702,6,0,L|416:160,1,74.9999976158143
0,192,61864,5,0,0:0:0:0:
300,118,61945,6,0,L|288:192,1,74.9999976158143
209,118,62107,2,0,L|224:192,1,74.9999976158143
256,192,62270,6,0,L|336:192,1,74.9999976158143
192,192,62432,5,0,0:0:0:0:
256,192,62513,2,0,L|336:192,1,74.9999976158143
128,192,62675,5,0,0:0:0:0:
256,192,62756,2,0,L|336:192,1,74.9999976158143
64,192,62918,5,0,0:0:0:0:
256,192,62999,2,0,L|336:192,1,74.9999976158143
0,192,63161,5,0,0:0:0:0:
0,112,63243,6,0,L|80:112,1,74.9999976158143
512,112,63405,6,0,L|432:112,1,74.9999976158143
256,192,63567,6,0,L|176:192,1,74.9999976158143
320,192,63729,5,0,0:0:0:0:
256,192,63810,2,0,L|176:192,1,74.9999976158143
384,192,63972,5,0,0:0:0:0:
256,192,64053,2,0,L|176:192,1,74.9999976158143
448,192,64215,5,0,0:0:0:0:
256,192,64296,2,0,L|176:192,1,74.9999976158143
512,192,64458,5,0,0:0:0:0:
512,112,64540,6,0,L|432:112,1,74.9999976158143
0,112,64702,6,0,L|80:112,1,74.9999976158143
432,192,64864,6,0,L|528:192,1,74.9999976158143
320,192,65027,5,0,0:0:0:0:
80,192,65310,2,0,L|0:192,1,74.9999976158143
432,192,65513,6,0,L|528:192,1,74.9999976158143
256,192,65676,5,0,0:0:0:0:
80,192,65959,2,0,L|0:192,1,74.9999976158143
432,192,66161,6,0,L|528:192,1,74.9999976158143
192,192,66324,5,0,0:0:0:0:
80,192,66607,2,0,L|0:192,1,74.9999976158143
176,192,66810,6,0,L|208:112,1,74.9999976158143
336,192,66972,6,0,L|304:112,1,74.9999976158143
128,144,67135,6,0,L|192:80,1,74.9999976158143
384,144,67297,6,0,L|330:90,1,74.9999976158143
256,192,67459,6,0,L|336:192,1,74.9999976158143
176,192,67621,5,0,0:0:0:0:
32,192,67905,6,0,L|112:192,1,74.9999976158143
256,192,68067,6,0,L|176:192,1,74.9999976158143
336,192,68229,5,0,0:0:0:0:
405,192,68310,2,0,L|320:192,1,74.9999976158143
405,192,68472,5,0,0:0:0:0:
480,192,68554,2,0,L|384:192,1,74.9999976158143
411,192,68716,5,0,0:0:0:0:
336,192,68798,2,0,L|432:192,1,74.9999976158143
331,192,68959,5,0,0:0:0:0:
256,192,69041,2,0,L|352:192,1,74.9999976158143
256,192,69202,5,0,0:0:0:0:
181,192,69284,2,0,L|277:192,1,74.9999976158143
176,192,69445,5,0,0:0:0:0:
101,192,69527,2,0,L|197:192,1,74.9999976158143
96,192,69689,5,0,0:0:0:0:
21,192,69770,2,0,L|117:192,1,74.9999976158143
496,192,69932,6,0,L|416:192,1,74.9999976158143
80,192,70093,6,0,L|-16:192,1,74.9999976158143
192,192,70256,5,0,0:0:0:0:
432,192,70539,2,0,L|512:192,1,74.9999976158143
80,192,70742,6,0,L|-16:192,1,74.9999976158143
256,192,70905,5,0,0:0:0:0:
432,192,71188,2,0,L|512:192,1,74.9999976158143
80,192,71390,6,0,L|-16:192,1,74.9999976158143
320,192,71553,5,0,0:0:0:0:
432,192,71836,2,0,L|512:192,1,74.9999976158143
256,192,71999,5,0,0:0:0:0:
0,192,72081,2,0,L|80:192,1,74.9999976158143
512,192,72243,2,0,L|416:192,1,74.9999976158143
256,192,72405,1,0,0:0:0:0:
80,192,72486,2,0,L|-16:192,1,74.9999976158143
80,192,72648,5,0,0:0:0:0:
160,192,72729,6,0,L|80:192,1,74.9999976158143,0|0,0:0|0:0,0:0:0:0:
160,192,72891,5,0,0:0:0:0:
240,192,72972,6,0,L|160:192,1,74.9999976158143,0|0,0:0|0:0,0:0:0:0:
240,192,73135,5,0,0:0:0:0:
320,192,73216,6,0,L|240:192,1,74.9999976158143,0|0,0:0|0:0,0:0:0:0:
320,192,73378,5,0,0:0:0:0:
400,192,73459,6,0,L|320:192,1,74.9999976158143,0|0,0:0|0:0,0:0:0:0:
400,192,73621,5,0,0:0:0:0:
480,192,73702,6,0,L|400:192,1,74.9999976158143,0|0,0:0|0:0,0:0:0:0:
496,192,73864,6,0,L|512:112,1,74.9999976158143
0,192,74027,6,0,L|96:160,1,74.9999976158143
336,192,74189,6,0,L|240:160,1,74.9999976158143
64,192,74351,6,0,L|160:160,1,74.9999976158143
400,192,74513,6,0,L|304:160,1,74.9999976158143
512,192,74675,6,0,L|416:160,1,74.9999976158143
176,192,74837,6,0,L|272:160,1,74.9999976158143
448,192,74999,6,0,L|352:160,1,74.9999976158143
112,192,75161,6,0,L|208:160,1,74.9999976158143
256,192,75324,5,0,0:0:0:0:
180,144,75405,6,0,L|336:144,7,149.999995231629,0|0|0|0|0|0|0|0,0:0|0:0|0:0|0:0|0:0|0:0|0:0|0:0,0:0:0:0:
308,96,76601,6,0,L|180:96,18,101.249993691445,0|0|0|0|0|0|0|0|0|0|0|0|0|0|0|0|0|0|0,0:0|0:0|0:0|0:0|0:0|0:0|0:0|0:0|0:0|0:0|0:0|0:0|0:0|0:0|0:0|0:0|0:0|0:0|0:0,0:0:0:0:
256,192,77837,5,0,0:0:0:0:
416,192,77959,6,0,L|512:176,1,74.9999976158143
256,192,78162,5,0,0:0:0:0:
416,192,78284,6,0,L|512:176,1,74.9999976158143
256,192,78486,5,0,0:0:0:0:
416,192,78608,6,0,L|512:176,1,74.9999976158143
256,192,78810,5,0,0:0:0:0:
416,192,78932,6,0,L|512:176,1,74.9999976158143
256,192,79094,5,0,0:0:0:0:
96,192,79216,6,0,L|0:176,1,74.9999976158143
256,192,79419,5,0,0:0:0:0:
96,192,79541,6,0,L|0:176,1,74.9999976158143
256,192,79743,5,0,0:0:0:0:
96,192,79865,6,0,L|0:176,1,74.9999976158143
256,192,80067,5,0,0:0:0:0:
96,192,80189,6,0,L|0:176,1,74.9999976158143
22,179,80350,6,0,L|96:192,1,74.9999976158143
256,192,80553,5,0,0:0:0:0:
22,179,80674,6,0,L|96:192,1,74.9999976158143
256,192,80877,5,0,0:0:0:0:
22,179,80998,6,0,L|96:192,1,74.9999976158143
256,192,81201,5,0,0:0:0:0:
22,179,81323,6,0,L|96:192,1,74.9999976158143
256,192,81526,5,0,0:0:0:0:
489,179,81607,6,0,L|416:192,1,74.9999976158143
256,192,81810,5,0,0:0:0:0:
489,179,81931,6,0,L|416:192,1,74.9999976158143
256,192,82134,5,0,0:0:0:0:
489,179,82255,6,0,L|416:192,1,74.9999976158143
256,192,82458,5,0,0:0:0:0:
489,179,82580,6,0,L|416:192,1,74.9999976158143
256,192,82783,5,0,0:0:0:0:
256,192,82864,1,0,0:0:0:0:
128,192,82986,6,0,L|208:176,1,74.9999976158143
256,192,83188,1,0,0:0:0:0:
96,192,83310,6,0,L|176:176,1,74.9999976158143
256,192,83513,1,0,0:0:0:0:
64,192,83635,6,0,L|144:176,1,74.9999976158143
256,192,83837,1,0,0:0:0:0:
32,192,83959,6,0,L|112:176,1,74.9999976158143
256,192,84162,1,0,0:0:0:0:
384,192,84284,6,0,L|304:176,1,74.9999976158143
256,192,84486,1,0,0:0:0:0:
416,192,84608,6,0,L|336:176,1,74.9999976158143
256,192,84811,1,0,0:0:0:0:
448,192,84933,6,0,L|368:176,1,74.9999976158143
256,192,85135,1,0,0:0:0:0:
480,192,85257,6,0,L|400:176,1,74.9999976158143
256,192,85459,5,0,0:0:0:0:
176,192,85581,6,0,L|96:176,1,74.9999976158143
256,192,85783,5,0,0:0:0:0:
144,192,85905,6,0,L|64:176,1,74.9999976158143,0|0,0:0|0:0,0:0:0:0:
256,192,86108,5,0,0:0:0:0:
112,192,86230,6,0,L|32:176,1,74.9999976158143,0|0,0:0|0:0,0:0:0:0:
256,192,86432,5,0,0:0:0:0:
80,192,86554,6,0,L|0:176,1,74.9999976158143,0|0,0:0|0:0,0:0:0:0:
256,192,86756,5,0,0:0:0:0:
336,192,86878,6,0,L|416:176,1,74.9999976158143
256,192,87080,5,0,0:0:0:0:
368,192,87202,6,0,L|448:176,1,74.9999976158143,0|0,0:0|0:0,0:0:0:0:
256,192,87405,5,0,0:0:0:0:
400,192,87527,6,0,L|480:176,1,74.9999976158143,0|0,0:0|0:0,0:0:0:0:
256,192,87729,5,0,0:0:0:0:
432,192,87851,6,0,L|512:176,1,74.9999976158143,0|0,0:0|0:0,0:0:0:0:
256,192,88054,1,0,0:0:0:0:
80,192,88175,6,0,L|-16:192,1,74.9999976158143
256,192,88377,5,0,0:0:0:0:
80,192,88499,6,0,L|-16:192,1,74.9999976158143
320,192,88702,5,0,0:0:0:0:
80,192,88823,6,0,L|-16:192,1,74.9999976158143
384,192,89026,5,0,0:0:0:0:
80,192,89148,6,0,L|-16:192,1,74.9999976158143
448,192,89351,5,0,0:0:0:0:
432,192,89472,6,0,L|528:192,1,74.9999976158143
256,192,89674,5,0,0:0:0:0:
432,192,89796,6,0,L|528:192,1,74.9999976158143
192,192,89999,5,0,0:0:0:0:
432,192,90120,6,0,L|528:192,1,74.9999976158143
128,192,90323,5,0,0:0:0:0:
432,192,90445,6,0,L|528:192,1,74.9999976158143
64,192,90648,5,0,0:0:0:0:
0,192,90769,6,0,L|96:192,1,74.9999976158143
256,192,90972,5,0,0:0:0:0:
0,192,91094,6,0,L|96:192,1,74.9999976158143
320,192,91297,5,0,0:0:0:0:
0,192,91418,6,0,L|96:192,1,74.9999976158143
384,192,91621,5,0,0:0:0:0:
0,192,91742,6,0,L|96:192,1,74.9999976158143
448,192,91945,5,0,0:0:0:0:
512,192,92067,6,0,L|416:192,1,74.9999976158143
256,192,92270,5,0,0:0:0:0:
512,192,92392,6,0,L|416:192,1,74.9999976158143
192,192,92595,5,0,0:0:0:0:
512,192,92716,6,0,L|416:192,1,74.9999976158143
128,192,92919,5,0,0:0:0:0:
512,192,93040,6,0,L|416:192,1,74.9999976158143
64,192,93243,5,0,0:0:0:0:
256,192,93364,6,0,L|160:160,1,74.9999976158143
512,192,93567,5,0,0:0:0:0:
256,192,93689,6,0,L|160:160,1,74.9999976158143
448,192,93892,5,0,0:0:0:0:
256,192,94013,6,0,L|160:160,1,74.9999976158143
384,192,94216,5,0,0:0:0:0:
256,192,94337,6,0,L|160:160,1,74.9999976158143
320,192,94540,5,0,0:0:0:0:
256,192,94662,6,0,L|352:160,1,74.9999976158143
0,192,94865,5,0,0:0:0:0:
256,192,94987,6,0,L|352:160,1,74.9999976158143
64,192,95190,5,0,0:0:0:0:
256,192,95311,6,0,L|352:160,1,74.9999976158143
128,192,95514,5,0,0:0:0:0:
256,192,95635,6,0,L|352:160,1,74.9999976158143
192,192,95838,5,0,0:0:0:0:
256,192,95959,6,0,L|336:160,1,74.9999976158143
512,192,96162,5,0,0:0:0:0:
256,192,96283,6,0,L|336:160,1,74.9999976158143
448,192,96486,5,0,0:0:0:0:
256,192,96608,6,0,L|336:160,1,74.9999976158143
384,192,96810,5,0,0:0:0:0:
256,192,96932,6,0,L|336:160,1,74.9999976158143
320,192,97134,5,0,0:0:0:0:
256,192,97256,6,0,L|176:160,1,74.9999976158143
0,192,97459,5,0,0:0:0:0:
256,192,97580,6,0,L|176:160,1,74.9999976158143
64,192,97783,5,0,0:0:0:0:
256,192,97905,6,0,L|176:160,1,74.9999976158143
128,192,98107,5,0,0:0:0:0:
256,192,98229,6,0,L|176:160,1,74.9999976158143
192,192,98431,5,0,0:0:0:0:
256,192,98635,6,0,L|144:196,8,112.499996423721,0|0|0|0|0|0|0|0|0,0:0|0:0|0:0|0:0|0:0|0:0|0:0|0:0|0:0,0:0:0:0:
256,192,99243,6,0,L|368:188,7,112.499996423721,0|0|0|0|0|0|0|0,0:0|0:0|0:0|0:0|0:0|0:0|0:0|0:0,0:0:0:0:
200,192,99851,6,0,L|92:128,7,112.499996423721,0|0|0|0|0|0|0|0,0:0|0:0|0:0|0:0|0:0|0:0|0:0|0:0,0:0:0:0:
312,192,100520,6,0,L|416:136,7,112.499996423721,0|0|0|0|0|0|0|0,0:0|0:0|0:0|0:0|0:0|0:0|0:0|0:0,0:0:0:0:
304,176,101189,6,0,L|448:128,1,149.999995231629
208,176,101513,6,0,L|64:128,1,149.999995231629
368,128,101837,6,0,L|512:80,1,149.999995231629
144,128,102162,6,0,L|0:80,1,149.999995231629
352,208,102527,6,0,L|272:176,1,74.9999976158143
400,176,102689,2,0,L|304:144,1,74.9999976158143
448,144,102851,2,0,L|368:112,1,74.9999976158143
496,112,103013,2,0,L|416:80,1,74.9999976158143
160,208,103175,6,0,L|240:176,1,74.9999976158143
112,176,103337,2,0,L|208:144,1,74.9999976158143
64,144,103499,2,0,L|144:112,1,74.9999976158143
16,112,103661,2,0,L|96:80,1,74.9999976158143
256,80,103783,5,0,0:0:0:0:
0,304,107675,6,0,L|96:272,1,74.9999976158143
256,272,107837,5,0,0:0:0:0:
64,288,107918,6,0,L|160:256,1,74.9999976158143
320,256,108080,5,0,0:0:0:0:
128,272,108161,6,0,L|224:240,1,74.9999976158143
384,240,108323,5,0,0:0:0:0:
192,256,108404,6,0,L|288:224,1,74.9999976158143
448,224,108566,5,0,0:0:0:0:
256,240,108648,6,0,L|352:208,1,74.9999976158143
512,208,108810,2,0,L|416:192,1,74.9999976158143
512,304,108972,6,0,L|416:272,1,74.9999976158143
256,272,109134,5,0,0:0:0:0:
448,288,109215,6,0,L|352:256,1,74.9999976158143
192,256,109377,5,0,0:0:0:0:
384,272,109458,6,0,L|288:240,1,74.9999976158143
128,240,109620,5,0,0:0:0:0:
320,256,109701,6,0,L|224:224,1,74.9999976158143
64,224,109863,5,0,0:0:0:0:
256,240,109945,6,0,L|160:208,1,74.9999976158143
0,208,110107,2,0,L|96:192,1,74.9999976158143
80,240,110269,6,0,L|0:208,1,74.9999976158143,0|0,0:0|0:0,0:0:0:0:
240,224,110432,1,0,0:0:0:0:
144,272,110513,6,0,L|64:240,1,74.9999976158143,0|0,0:0|0:0,0:0:0:0:
304,256,110676,1,0,0:0:0:0:
208,304,110756,6,0,L|128:272,1,74.9999976158143,0|0,0:0|0:0,0:0:0:0:
368,288,110919,1,0,0:0:0:0:
272,336,110999,6,0,L|192:304,1,74.9999976158143,0|0,0:0|0:0,0:0:0:0:
432,320,111162,1,0,0:0:0:0:
336,368,111242,2,0,L|256:336,1,74.9999976158143
432,336,111404,2,0,L|512:288,1,74.9999976158143
432,240,111567,6,0,L|512:208,1,74.9999976158143,0|0,0:0|0:0,0:0:0:0:
272,224,111730,1,0,0:0:0:0:
368,272,111811,6,0,L|448:240,1,74.9999976158143,0|0,0:0|0:0,0:0:0:0:
208,256,111974,1,0,0:0:0:0:
304,304,112054,6,0,L|384:272,1,74.9999976158143,0|0,0:0|0:0,0:0:0:0:
144,288,112217,1,0,0:0:0:0:
240,336,112297,6,0,L|320:304,1,74.9999976158143,0|0,0:0|0:0,0:0:0:0:
80,320,112460,1,0,0:0:0:0:
176,368,112540,2,0,L|256:336,1,74.9999976158143
80,336,112702,2,0,L|0:288,1,74.9999976158143
256,192,112864,12,0,115378,0:0:0:0:
388,328,115418,6,0,L|364:308,1,18.7499994039536
224,264,115499,6,0,L|212:240,1,18.7499994039536
20,180,115581,6,0,L|16:148,1,18.7499994039536,0|0,0:0|0:0,0:0:0:0:
124,328,115662,6,0,L|148:308,1,18.7499994039536
288,264,115743,6,0,L|300:240,1,18.7499994039536
492,180,115825,6,0,L|496:148,1,18.7499994039536,0|0,0:0|0:0,0:0:0:0:
408,288,115905,6,0,L|380:272,1,18.7499994039536
240,236,115986,6,0,L|216:216,1,18.7499994039536
48,172,116067,6,0,L|28:148,1,18.7499994039536
104,288,116148,6,0,L|132:272,1,18.7499994039536
272,236,116229,6,0,L|296:216,1,18.7499994039536
464,172,116310,6,0,L|484:148,1,18.7499994039536
208,288,116391,6,0,L|184:284,1,18.7499994039536
52,232,116472,2,0,L|32:216,1,18.7499994039536
304,288,116554,6,0,L|328:284,1,18.7499994039536
460,232,116635,2,0,L|480:216,1,18.7499994039536
272,328,116716,6,0,L|264:304,1,18.7499994039536
152,248,116797,6,0,L|148:224,1,18.7499994039536
16,184,116878,6,0,L|16:160,1,18.7499994039536
240,328,116959,6,0,L|248:304,1,18.7499994039536
360,248,117040,6,0,L|364:224,1,18.7499994039536
496,184,117121,6,0,L|496:160,1,18.7499994039536
380,288,117202,6,0,L|360:288,1,18.7499994039536
192,292,117283,6,0,L|168:292,1,18.7499994039536
20,292,117364,6,0,L|-4:292,1,18.7499994039536
132,288,117445,6,0,L|152:288,1,18.7499994039536
320,292,117526,6,0,L|344:292,1,18.7499994039536
492,292,117607,6,0,L|516:292,1,18.7499994039536
416,292,117689,6,0,L|392:292,1,18.7499994039536
20,296,117770,6,0,L|-4:296,1,18.7499994039536
20,296,117851,6,0,L|-4:296,1,18.7499994039536
112,328,117932,6,0,L|136:328,1,18.7499994039536
240,328,118013,6,0,L|248:304,1,18.7499994039536
360,248,118094,6,0,L|364:224,1,18.7499994039536
496,184,118175,6,0,L|496:160,1,18.7499994039536
272,328,118256,6,0,L|264:304,1,18.7499994039536
152,248,118337,6,0,L|148:224,1,18.7499994039536
16,184,118418,6,0,L|16:160,1,18.7499994039536
132,288,118499,6,0,L|152:288,1,18.7499994039536
320,292,118580,6,0,L|344:292,1,18.7499994039536
492,292,118661,6,0,L|516:292,1,18.7499994039536
380,288,118742,6,0,L|360:288,1,18.7499994039536
192,292,118823,6,0,L|168:292,1,18.7499994039536
20,292,118904,6,0,L|-4:292,1,18.7499994039536
96,292,118986,6,0,L|120:292,1,18.7499994039536
492,296,119067,6,0,L|516:296,1,18.7499994039536
492,296,119148,6,0,L|516:296,1,18.7499994039536
400,328,119229,6,0,L|376:328,1,18.7499994039536
256,304,119310,6,0,L|224:304,1,18.7499994039536
144,304,119391,6,0,L|116:304,1,18.7499994039536
0,304,119472,6,0,L|0:280,1,18.7499994039536
72,240,119554,6,0,L|104:240,1,18.7499994039536
192,240,119635,6,0,L|216:240,1,18.7499994039536
312,240,119716,6,0,L|336:240,1,18.7499994039536
377,184,119797,6,0,L|392:196,1,18.7499994039536
512,225,119878,6,0,L|512:244,1,18.7499994039536
134,184,119959,6,0,L|120:196,1,18.7499994039536
0,217,120040,6,0,L|0:236,1,18.7499994039536
464,176,120121,6,0,L|448:165,1,18.7499994039536
336,128,120202,6,0,L|320:117,1,18.7499994039536
48,176,120283,6,0,L|63:165,1,18.7499994039536
176,128,120364,6,0,L|191:117,1,18.7499994039536
296,192,120445,6,0,L|296:168,1,18.7499994039536
216,192,120527,2,0,L|216:156,1,18.7499994039536
140,196,120608,6,0,L|168:184,1,18.7499994039536
272,168,120689,6,0,L|296:148,1,18.7499994039536
428,88,120770,6,0,L|436:68,1,18.7499994039536
372,196,120851,6,0,L|344:184,1,18.7499994039536
240,168,120932,6,0,L|216:148,1,18.7499994039536
84,88,121013,6,0,L|76:68,1,18.7499994039536
4,196,121094,6,0,L|24:184,1,18.7499994039536
136,152,121175,6,0,L|156:144,1,18.7499994039536
372,116,121256,6,0,L|396:108,1,18.7499994039536
508,196,121337,6,0,L|488:184,1,18.7499994039536
376,152,121418,6,0,L|356:144,1,18.7499994039536
140,116,121499,6,0,L|116:108,1,18.7499994039536
296,216,121581,6,0,L|304:200,1,18.7499994039536
448,160,121662,2,0,L|464:152,1,18.7499994039536
216,216,121743,6,0,L|208:200,1,18.7499994039536
64,160,121824,2,0,L|48:152,1,18.7499994039536
4,196,121905,6,0,L|24:184,1,18.7499994039536
300,116,121986,6,0,L|320:108,1,18.7499994039536
412,80,122067,6,0,L|432:80,1,18.7499994039536
508,196,122148,6,0,L|488:184,1,18.7499994039536
212,116,122229,6,0,L|192:108,1,18.7499994039536
100,80,122310,6,0,L|80:80,1,18.7499994039536
4,112,122391,6,0,L|36:100,1,18.7499994039536
192,88,122472,6,0,L|216:80,1,18.7499994039536
376,80,122554,6,0,L|400:80,1,18.7499994039536
508,112,122635,6,0,L|476:100,1,18.7499994039536
320,88,122716,6,0,L|296:80,1,18.7499994039536
136,80,122798,6,0,L|112:80,1,18.7499994039536
4,196,122878,6,0,L|12:180,1,18.7499994039536
180,160,122959,2,0,L|196:140,1,18.7499994039536
352,120,123040,2,0,L|372:116,1,18.7499994039536
504,112,123121,2,0,L|536:112,1,18.7499994039536
372,196,123202,6,0,L|344:184,1,18.7499994039536
240,168,123283,6,0,L|216:148,1,18.7499994039536
84,88,123364,6,0,L|76:68,1,18.7499994039536
140,196,123445,6,0,L|168:184,1,18.7499994039536
272,168,123526,6,0,L|296:148,1,18.7499994039536
428,88,123607,6,0,L|436:68,1,18.7499994039536
508,196,123688,6,0,L|488:184,1,18.7499994039536
376,152,123769,6,0,L|356:144,1,18.7499994039536
140,116,123850,6,0,L|116:108,1,18.7499994039536
4,196,123931,6,0,L|24:184,1,18.7499994039536
136,152,124012,6,0,L|156:144,1,18.7499994039536
372,116,124093,6,0,L|396:108,1,18.7499994039536
216,216,124175,6,0,L|208:200,1,18.7499994039536
64,160,124256,2,0,L|48:152,1,18.7499994039536
296,216,124337,6,0,L|304:200,1,18.7499994039536
448,160,124418,2,0,L|464:152,1,18.7499994039536
508,196,124499,6,0,L|488:184,1,18.7499994039536
212,116,124580,6,0,L|192:108,1,18.7499994039536
100,80,124661,6,0,L|80:80,1,18.7499994039536
4,196,124742,6,0,L|24:184,1,18.7499994039536
300,116,124823,6,0,L|320:108,1,18.7499994039536
412,80,124904,6,0,L|432:80,1,18.7499994039536
508,112,124985,6,0,L|476:100,1,18.7499994039536
320,88,125066,6,0,L|296:80,1,18.7499994039536
136,80,125148,6,0,L|112:80,1,18.7499994039536
4,112,125229,6,0,L|36:100,1,18.7499994039536
192,88,125310,6,0,L|216:80,1,18.7499994039536
376,80,125392,6,0,L|400:80,1,18.7499994039536
508,196,125472,6,0,L|500:180,1,18.7499994039536
332,160,125553,2,0,L|316:140,1,18.7499994039536
160,120,125634,2,0,L|140:116,1,18.7499994039536
8,112,125715,2,0,L|-24:112,1,18.7499994039536
244,308,125797,6,0,L|256:288,1,18.7499994039536
340,248,125878,2,0,L|356:240,1,18.7499994039536
468,256,125959,6,0,L|456:236,1,18.7499994039536
300,192,126040,2,0,L|276:184,1,18.7499994039536
172,168,126121,6,0,L|136:164,1,18.7499994039536
40,164,126202,2,0,L|16:168,1,18.7499994039536
264,148,126283,6,0,L|284:140,1,18.7499994039536
432,112,126364,2,0,L|456:100,1,18.7499994039536,0|0,0:0|0:0,0:0:0:0:
268,308,126445,6,0,L|256:288,1,18.7499994039536
172,248,126526,2,0,L|156:240,1,18.7499994039536
44,256,126607,6,0,L|56:236,1,18.7499994039536
212,192,126688,2,0,L|236:184,1,18.7499994039536
340,168,126770,6,0,L|376:164,1,18.7499994039536
472,164,126851,2,0,L|496:168,1,18.7499994039536
248,148,126932,6,0,L|228:140,1,18.7499994039536
80,112,127013,2,0,L|56:100,1,18.7499994039536,0|0,0:0|0:0,0:0:0:0:
244,308,127094,6,0,L|256:288,1,18.7499994039536
340,248,127175,2,0,L|356:240,1,18.7499994039536
468,256,127256,6,0,L|456:236,1,18.7499994039536
300,192,127337,2,0,L|276:184,1,18.7499994039536
172,168,127419,6,0,L|136:164,1,18.7499994039536
40,164,127500,2,0,L|16:168,1,18.7499994039536
264,148,127581,6,0,L|284:140,1,18.7499994039536
432,112,127662,2,0,L|456:100,1,18.7499994039536,0|0,0:0|0:0,0:0:0:0:
228,200,127743,6,0,L|212:176,1,18.7499994039536
80,152,127824,2,0,L|56:148,1,18.7499994039536
284,200,127905,6,0,L|300:176,1,18.7499994039536
432,152,127986,2,0,L|456:148,1,18.7499994039536
450,148,128067,6,0,L|432:152,1,18.7499994039536
294,184,128148,2,0,L|284:200,1,18.7499994039536
61,148,128229,6,0,L|80:152,1,18.7499994039536
217,184,128310,2,0,L|228:200,1,18.7499994039536
328,320,128391,6,0,L|348:308,1,18.7499994039536
464,280,128472,2,0,L|488:276,1,18.7499994039536
264,228,128554,6,0,L|244:216,1,18.7499994039536
128,188,128635,2,0,L|120:168,1,18.7499994039536
208,156,128716,6,0,L|228:148,1,18.7499994039536
412,124,128797,2,0,L|436:120,1,18.7499994039536
284,92,128878,6,0,L|260:84,1,18.7499994039536,0|0,0:0|0:0,0:0:0:0:
48,56,128959,6,0,L|20:52,1,18.7499994039536,0|0,0:0|0:0,0:0:0:0:
328,320,129040,6,0,L|348:308,1,18.7499994039536
464,280,129121,2,0,L|488:276,1,18.7499994039536
396,252,129203,6,0,L|376:240,1,18.7499994039536
344,192,129284,2,0,L|352:172,1,18.7499994039536
184,172,129365,6,0,L|164:164,1,18.7499994039536
20,116,129446,2,0,L|-4:112,1,18.7499994039536
228,92,129527,6,0,L|252:84,1,18.7499994039536,0|0,0:0|0:0,0:0:0:0:
464,56,129608,6,0,L|492:52,1,18.7499994039536,0|0,0:0|0:0,0:0:0:0:
360,196,129689,6,0,L|344:180,1,18.7499994039536
276,144,129770,2,0,L|272:124,1,18.7499994039536
152,196,129851,6,0,L|168:180,1,18.7499994039536
236,144,129932,2,0,L|240:124,1,18.7499994039536
416,224,130013,6,0,L|384:208,1,18.7499994039536
300,156,130094,2,0,L|296:132,1,18.7499994039536
96,224,130175,6,0,L|128:208,1,18.7499994039536
212,156,130256,2,0,L|216:132,1,18.7499994039536
456,240,130337,6,0,L|428:228,1,18.7499994039536
308,164,130418,2,0,L|304:144,1,18.7499994039536
56,240,130499,6,0,L|84:228,1,18.7499994039536
204,164,130580,2,0,L|208:144,1,18.7499994039536
512,260,130662,6,0,L|488:252,1,18.7499994039536
308,212,130743,2,0,L|288:204,1,18.7499994039536
0,260,130824,6,0,L|24:252,1,18.7499994039536
204,212,130905,2,0,L|224:204,1,18.7499994039536
360,296,130986,6,0,L|384:288,1,18.7499994039536
452,248,131067,2,0,L|468:232,1,18.7499994039536
368,208,131148,6,0,L|344:192,1,18.7499994039536
120,144,131229,2,0,L|88:128,1,18.7499994039536
0,100,131310,6,0,L|0:72,1,18.7499994039536
104,52,131391,6,0,L|132:52,1,18.7499994039536
396,52,131472,6,0,L|364:40,1,18.7499994039536
224,40,131554,6,0,L|192:28,1,18.7499994039536
152,296,131635,6,0,L|128:288,1,18.7499994039536
60,248,131716,2,0,L|44:232,1,18.7499994039536
144,208,131797,6,0,L|168:192,1,18.7499994039536
392,144,131878,2,0,L|424:128,1,18.7499994039536
512,100,131959,6,0,L|512:72,1,18.7499994039536
408,52,132040,6,0,L|380:52,1,18.7499994039536
68,68,132121,6,0,L|100:56,1,18.7499994039536
288,40,132203,6,0,L|320:28,1,18.7499994039536
392,308,132283,6,0,L|376:300,1,18.7499994039536
256,264,132364,6,0,L|224:252,1,18.7499994039536
0,188,132445,6,0,L|20:180,1,18.7499994039536
136,144,132527,6,0,L|160:136,1,18.7499994039536
512,168,132608,6,0,L|512:144,1,18.7499994039536
392,124,132689,6,0,L|372:108,1,18.7499994039536
0,120,132770,6,0,L|0:96,1,18.7499994039536
144,68,132851,6,0,L|164:48,1,18.7499994039536
492,276,132932,6,0,L|460:264,1,18.7499994039536
312,208,133013,2,0,L|304:176,1,18.7499994039536
20,276,133094,6,0,L|52:264,1,18.7499994039536
200,208,133175,2,0,L|208:176,1,18.7499994039536
512,192,133256,6,0,L|480:192,1,18.7499994039536
312,164,133337,2,0,L|288:168,1,18.7499994039536
0,192,133418,6,0,L|32:192,1,18.7499994039536
200,164,133499,2,0,L|224:168,1,18.7499994039536
308,252,133581,6,0,L|312:224,1,18.7499994039536
432,176,133662,2,0,L|452:164,1,18.7499994039536
204,252,133743,6,0,L|200:224,1,18.7499994039536
80,176,133824,2,0,L|60:164,1,18.7499994039536
328,212,133905,6,0,L|336:192,1,18.7499994039536
456,152,133986,2,0,L|472:144,1,18.7499994039536
184,212,134067,6,0,L|176:192,1,18.7499994039536
56,152,134148,2,0,L|40:144,1,18.7499994039536
352,184,134229,6,0,L|360:160,1,18.7499994039536
484,120,134310,2,0,L|504:112,1,18.7499994039536
160,184,134391,6,0,L|152:160,1,18.7499994039536
28,120,134472,2,0,L|8:112,1,18.7499994039536
380,152,134554,6,0,L|392:124,1,18.7499994039536
512,96,134635,2,0,L|544:92,1,18.7499994039536
132,152,134716,6,0,L|120:124,1,18.7499994039536
0,96,134797,2,0,L|-32:92,1,18.7499994039536
0,192,134918,6,0,L|32:176,1,18.7499994039536
48,176,134959,2,0,L|80:160,1,18.7499994039536
96,160,134999,2,0,L|128:144,1,18.7499994039536
144,144,135040,2,0,L|176:128,1,18.7499994039536
192,128,135081,2,0,L|224:112,1,18.7499994039536
240,112,135121,2,0,L|272:96,1,18.7499994039536
288,96,135162,2,0,L|320:80,1,18.7499994039536
336,80,135202,2,0,L|368:64,1,18.7499994039536
384,64,135243,2,0,L|416:48,1,18.7499994039536
432,48,135283,2,0,L|464:32,1,18.7499994039536
512,192,135324,6,0,L|480:176,1,18.7499994039536
464,176,135365,2,0,L|432:160,1,18.7499994039536
416,160,135405,2,0,L|384:144,1,18.7499994039536
368,144,135446,2,0,L|336:128,1,18.7499994039536
320,128,135487,2,0,L|288:112,1,18.7499994039536
272,112,135527,2,0,L|240:96,1,18.7499994039536
224,96,135568,2,0,L|192:80,1,18.7499994039536
176,80,135608,2,0,L|144:64,1,18.7499994039536
128,64,135649,2,0,L|96:48,1,18.7499994039536
80,48,135689,2,0,L|48:32,1,18.7499994039536
256,192,135770,6,0,L|284:192,1,18.7499994039536
512,192,135851,2,0,L|512:160,1,18.7499994039536
274,192,135932,2,0,L|252:192,1,18.7499994039536
0,192,136013,2,0,L|0:160,1,18.7499994039536
256,192,136094,2,0,L|280:192,1,18.7499994039536
508,188,136216,6,0,B|496:264|396:216|392:296,1,168.749994635582
