osu file format v14

[General]
AudioFilename: audio.mp3
AudioLeadIn: 0
PreviewTime: 76722
Countdown: 0
SampleSet: Soft
StackLeniency: 0.7
Mode: 0
LetterboxInBreaks: 0
WidescreenStoryboard: 0

[Editor]
DistanceSpacing: 0.5
BeatDivisor: 4
GridSize: 4
TimelineZoom: 1.9

[Metadata]
Title:Star*Glitter
TitleUnicode:Star☆Glitter
Artist:7TH SISTERS
ArtistUnicode:セブンスシスターズ
Creator:-Nya-
Version:Insane
Source:Tokyo 7th シスターズ
Tags:simulation game size aihuro
BeatmapID:1024010
BeatmapSetID:479547

[Difficulty]
HPDrainRate:6
CircleSize:4
OverallDifficulty:7
ApproachRate:9
SliderMultiplier:1.6
SliderTickRate:1

[Events]
//Background and Video events
0,0,"7th sisters.jpeg",0,0
Video,-790,"optc.flv"
//Break Periods
//Storyboard Layer 0 (Background)
//Storyboard Layer 1 (Fail)
//Storyboard Layer 2 (Pass)
//Storyboard Layer 3 (Foreground)
//Storyboard Sound Samples

[TimingPoints]
1372,350.877192982456,4,2,1,50,1,0
5407,-200,4,2,1,50,0,0
6635,-100,4,2,1,50,0,0
6986,-100,4,2,1,60,0,0
24354,-100,4,2,1,40,0,0
24442,-100,4,2,1,60,0,0
25757,-100,4,2,1,25,0,0
26021,-100,4,2,1,60,0,0
26459,-100,4,2,1,25,0,0
26547,-100,4,2,1,60,0,0
27512,-100,4,2,1,25,0,0
27687,-100,4,2,1,60,0,0
28652,-100,4,2,1,25,0,0
28740,-100,4,2,1,60,0,0
29968,-100,4,2,1,40,0,0
30056,-100,4,2,1,60,0,0
30319,-100,4,2,1,25,0,0
30494,-100,4,2,1,60,0,0
31371,-100,4,2,1,25,0,0
31547,-100,4,2,1,60,0,0
32775,-100,4,2,1,40,0,0
32863,-100,4,2,1,60,0,0
33214,-100,4,2,1,25,0,0
33301,-100,4,2,1,60,0,0
34179,-100,4,2,1,25,0,0
35056,-100,4,2,1,60,0,0
35582,-100,4,2,1,40,0,0
35670,-100,4,2,1,60,0,0
35933,-100,4,2,1,25,0,0
36108,-100,4,2,1,60,0,0
36986,-100,4,2,1,25,0,0
37161,-100,4,2,1,60,0,0
37863,-200,4,2,1,60,0,0
38915,-100,4,2,1,25,0,0
39091,-100,4,2,1,60,0,0
40319,-100,4,2,1,25,0,0
40582,-100,4,2,1,60,0,0
41635,-100,4,2,1,35,0,0
41810,-100,4,2,1,60,0,0
44354,-100,4,2,1,35,0,0
44617,-100,4,2,1,60,0,0
48214,-100,4,2,1,35,0,0
48477,-100,4,2,1,60,0,0
50056,-100,4,2,1,35,0,0
50143,-100,4,2,1,60,0,0
51021,-100,4,2,1,35,0,0
51196,-100,4,2,1,60,0,0
52775,-100,4,2,1,35,0,0
53038,-100,4,2,1,60,0,0
53828,-100,4,2,1,35,0,0
54003,-100,4,2,1,60,0,0
56635,-100,4,2,1,35,0,0
56898,-100,4,2,1,60,0,0
60845,-100,4,2,1,35,0,0
61459,-100,4,2,1,60,0,0
73828,-100,4,2,1,35,0,0
74179,-100,4,2,1,60,0,0
77161,-83.3333333333333,4,2,1,85,0,1
86810,-71.4285714285714,4,2,1,85,0,1
87161,-62.5,4,2,1,85,0,1
87512,-62.5,4,2,1,40,0,1
87863,-62.5,4,2,1,85,0,1
88389,-83.3333333333333,4,2,1,85,0,1
108038,-83.3333333333333,4,2,1,85,0,0
109442,-100,4,2,1,60,0,0
122073,-100,4,2,1,5,0,0

[Colours]
Combo1 : 190,125,255
Combo2 : 255,138,138
Combo3 : 85,162,255
Combo4 : 255,255,151

[HitObjects]
88,56,1372,6,0,L|104:160,1,80,2|0,0:0|0:0,0:0:0:0:
212,240,1722,2,0,L|199:160,1,80,2|0,0:0|0:0,0:0:0:0:
320,68,2073,2,0,P|360:64|416:72,1,80,2|0,0:0|0:0,0:0:0:0:
512,168,2424,2,0,P|472:171|432:168,1,80,2|0,0:0|0:0,0:0:0:0:
304,156,2775,5,2,0:0:0:0:
288,252,2950,1,0,0:0:0:0:
192,244,3126,1,2,0:0:0:0:
200,148,3301,1,0,0:0:0:0:
288,252,3477,2,0,L|336:328,1,80,2|0,0:0|0:0,0:0:0:0:
424,292,3828,2,0,L|472:368,1,80,2|0,0:0|0:0,0:0:0:0:
488,200,4179,6,0,P|472:148|448:112,1,80,2|0,0:0|0:0,0:0:0:0:
392,56,4529,1,2,0:0:0:0:
392,56,4705,1,0,0:0:0:0:
232,108,4880,2,0,L|168:180,1,80,2|0,0:0|0:0,0:0:0:0:
120,244,5231,1,2,0:0:0:0:
120,244,5407,6,0,P|172:276|328:184,1,260,2|0,0:0|0:0,0:0:0:0:
332,140,6635,5,2,0:0:0:0:
347,103,6722,1,2,0:0:0:0:
381,83,6810,1,2,0:0:0:0:
420,85,6898,1,2,0:0:0:0:
456,108,6986,6,0,P|472:176|460:264,1,160,4|8,1:0|0:0,0:0:0:0:
392,332,7512,1,0,0:0:0:0:
356,224,7687,1,0,0:0:0:0:
460,264,7863,1,0,0:0:0:0:
312,300,8038,1,8,0:0:0:0:
272,300,8125,1,0,0:0:0:0:
234,288,8213,1,0,0:0:0:0:
203,263,8301,1,0,0:0:0:0:
180,232,8389,6,0,L|208:64,1,160,0|8,0:0|0:0,0:0:0:0:
77,62,8915,1,0,0:0:0:0:
64,204,9091,2,0,P|40:152|80:60,1,160,0|8,0:0|0:0,0:0:0:0:
192,40,9617,1,0,0:0:0:0:
308,136,9793,6,0,P|304:192|260:296,1,160,0|8,0:0|0:0,0:0:0:0:
156,184,10319,1,0,0:0:0:0:
156,172,10407,1,0,0:0:0:0:
156,160,10494,1,0,0:0:0:0:
44,216,10670,1,0,0:0:0:0:
80,324,10845,1,8,0:0:0:0:
264,232,11021,6,0,L|192:376,1,160
320,336,11547,1,8,0:0:0:0:
328,320,11898,2,0,P|348:256|344:240,1,80
280,96,12249,2,0,P|260:160|264:176,1,80,8|0,0:0|0:0,0:0:0:0:
360,40,12600,6,0,P|288:0|200:40,1,160,0|8,0:0|0:0,0:0:0:0:
168,104,13126,1,0,0:0:0:0:
208,268,13301,2,0,L|180:148,1,120
168,104,13652,1,8,0:0:0:0:
120,296,13828,6,0,P|172:356|260:340,1,160,4|0,0:0|0:0,0:0:0:0:
328,268,14354,1,8,0:0:0:0:
432,352,14529,1,0,0:0:0:0:
436,340,14617,1,0,0:0:0:0:
440,328,14705,1,0,0:0:0:0:
416,220,14880,1,0,0:0:0:0:
320,120,15056,1,0,0:0:0:0:
286,141,15143,1,0,0:0:0:0:
252,163,15231,1,0,0:0:0:0:
219,184,15319,1,0,0:0:0:0:
188,208,15407,6,0,P|144:188|132:128,1,80
248,12,15757,1,4,0:0:0:0:
232,16,16108,1,0,0:0:0:0:
130,161,16284,1,8,0:0:0:0:
40,16,16459,1,0,0:0:0:0:
130,161,16635,5,4,0:0:0:0:
112,184,16986,1,0,3:0:0:0:
256,272,17336,2,0,P|312:264|344:232,1,80,0|0,3:0|0:0,0:0:0:0:
352,108,17687,1,0,0:0:0:0:
328,76,17775,1,0,0:0:0:0:
296,52,17863,1,2,0:0:0:0:
44,104,18214,6,0,L|16:276,1,160,6|0,0:0|0:0,0:0:0:0:
4,356,18740,1,0,0:0:0:0:
128,292,18915,2,0,P|152:256|160:208,1,80
148,124,19266,1,0,0:0:0:0:
236,164,19442,1,0,0:0:0:0:
208,4,19617,6,0,L|224:84,1,80,2|0,0:0|0:0,0:0:0:0:
132,16,19968,1,0,0:0:0:0:
236,164,20143,2,0,P|284:136|288:32,1,160
236,164,20670,1,0,0:0:0:0:
216,256,20845,1,0,0:0:0:0:
372,264,21021,6,0,L|336:360,1,80,2|0,0:0|0:0,0:0:0:0:
344,184,21371,1,0,0:0:0:0:
488,160,21547,2,0,B|504:232|504:232|504:348,1,160
412,356,22073,1,0,0:0:0:0:
372,264,22249,1,0,0:0:0:0:
224,92,22424,6,0,P|216:156|284:212,1,160,2|0,0:0|0:0,0:0:0:0:
360,152,22950,1,0,0:0:0:0:
224,92,23126,1,2,0:0:0:0:
296,32,23301,1,0,0:0:0:0:
128,88,23477,2,0,L|100:216,1,120,2|0,0:0|0:0,0:0:0:0:
96,252,23828,6,0,P|108:296|216:320,1,160,2|0,0:0|0:0,0:0:0:0:
300,204,24354,1,8,1:0:0:0:
296,112,24529,2,0,P|264:64|240:48,1,80,0|2,0:0|0:0,0:0:0:0:
96,24,24880,2,0,P|128:72|152:88,1,80,2|0,0:0|0:0,0:0:0:0:
300,204,25231,6,0,P|280:260|168:260,1,160,2|0,0:0|0:0,0:0:0:0:
68,208,25757,1,8,1:0:0:0:
64,220,25845,1,8,1:0:0:0:
60,232,25933,1,8,1:0:0:0:
112,96,26108,2,0,P|168:60|264:64,1,160,2|8,0:0|1:0,0:0:0:0:
336,216,26635,6,0,L|396:128,1,80,2|0,0:0|0:0,0:0:0:0:
256,184,26986,1,0,0:0:0:0:
368,76,27161,2,0,P|408:80|444:108,1,80,2|0,0:0|0:0,0:0:0:0:
464,224,27512,1,8,1:1:0:0:
464,236,27600,1,8,1:1:0:0:
464,248,27687,1,2,0:0:0:0:
384,336,27863,1,2,0:0:0:0:
232,272,28038,6,0,L|324:312,1,80,2|0,0:0|0:0,0:0:0:0:
248,176,28389,2,0,L|174:144,1,80,2|0,0:0|0:0,0:0:0:0:
156,136,28652,1,8,1:1:0:0:
140,128,28740,1,2,0:0:0:0:
48,212,28915,1,0,0:0:0:0:
128,328,29091,2,0,P|196:368|220:364,1,80,2|2,0:0|0:0,0:0:0:0:
272,348,29354,1,0,3:0:0:0:
296,332,29442,6,0,P|312:296|280:184,1,160,0|0,3:0|3:0,0:0:0:0:
200,136,29968,1,8,1:0:0:0:
300,52,30143,1,0,3:0:0:0:
168,24,30319,1,8,1:1:0:0:
160,36,30407,1,8,1:1:0:0:
152,48,30494,1,2,0:0:0:0:
92,168,30670,1,0,0:0:0:0:
208,304,30845,6,0,P|152:324|120:244,1,160,2|2,0:0|0:0,0:0:0:0:
200,160,31371,1,8,1:1:0:0:
200,160,31459,1,8,1:1:0:0:
200,160,31547,2,0,L|312:180,1,80,2|0,0:0|3:0,0:0:0:0:
412,200,31898,1,2,0:0:0:0:
352,72,32073,1,2,0:0:0:0:
336,240,32249,6,0,P|396:288|484:248,1,160,2|0,3:0|0:0,0:0:0:0:
484,172,32775,1,8,1:0:0:0:
288,176,32950,2,0,P|260:208|260:248,1,80,2|0,0:0|0:0,0:0:0:0:
260,256,33214,1,8,1:0:0:0:
264,268,33301,1,2,0:0:0:0:
344,352,33477,1,0,0:0:0:0:
160,320,33652,6,0,P|128:272|152:176,1,160,2|0,0:0|0:0,0:0:0:0:
232,104,34179,1,8,1:0:0:0:
240,96,34266,1,8,1:0:0:0:
248,88,34354,1,2,0:0:0:0:
151,178,34529,1,8,3:3:0:0:
124,52,34705,1,8,3:3:0:0:
248,88,34880,1,8,3:3:0:0:
72,192,35056,6,0,P|104:248|200:240,1,160,2|0,0:0|0:0,0:0:0:0:
272,196,35582,1,8,1:0:0:0:
360,292,35757,1,0,0:0:0:0:
412,180,35933,1,8,1:0:0:0:
412,180,36021,1,8,1:0:0:0:
412,180,36108,1,2,0:0:0:0:
272,196,36284,1,0,0:0:0:0:
424,104,36459,6,0,P|488:168|452:244,1,160,2|0,0:0|0:0,0:0:0:0:
384,288,36986,1,8,1:0:0:0:
384,288,37073,1,8,1:0:0:0:
384,288,37161,2,0,L|304:248,1,80,2|0,0:0|0:0,0:0:0:0:
200,196,37512,1,2,0:0:0:0:
116,244,37687,1,0,0:0:0:0:
112,100,37863,6,0,P|80:72|48:176,1,200,4|0,0:0|0:0,0:0:0:0:
116,244,38915,5,8,1:0:0:0:
208,92,39091,1,0,3:0:0:0:
368,340,39442,2,0,P|412:316|476:220,1,160,0|0,3:0|0:0,0:0:0:0:
464,112,39968,1,0,3:0:0:0:
316,40,40143,1,0,0:0:0:0:
316,40,40231,1,0,0:0:0:0:
316,40,40319,2,0,P|288:72|240:136,1,120,8|0,1:0|0:0,0:0:0:0:
216,176,40670,6,0,P|168:192|56:176,1,160,4|8,0:0|0:0,0:0:0:0:
28,88,41196,1,0,0:0:0:0:
40,256,41371,2,0,L|60:348,1,80
128,376,41635,1,8,3:3:0:0:
156,376,41722,2,0,P|200:376|252:340,1,80,8|0,3:3|0:0,0:0:0:0:
304,296,42073,5,0,0:0:0:0:
260,208,42249,1,0,0:0:0:0:
400,296,42424,1,8,0:0:0:0:
320,160,42600,2,0,P|248:132|184:192,1,160
148,288,43126,1,0,0:0:0:0:
123,256,43213,1,0,0:0:0:0:
98,225,43301,1,0,0:0:0:0:
73,193,43389,1,0,0:0:0:0:
52,160,43477,6,0,P|44:120|60:76,1,80,2|0,0:0|0:0,0:0:0:0:
132,24,43828,1,8,0:0:0:0:
232,144,44003,2,0,P|280:144|316:116,1,80
352,24,44354,1,8,1:0:0:0:
364,24,44442,1,8,1:0:0:0:
376,24,44529,1,8,1:0:0:0:
452,112,44705,1,0,0:0:0:0:
424,280,44880,6,0,L|464:180,1,80,2|0,0:0|0:0,0:0:0:0:
368,140,45231,1,8,0:0:0:0:
424,280,45407,1,0,0:0:0:0:
424,280,45494,1,0,0:0:0:0:
424,280,45582,2,0,P|364:304|340:300,1,80,2|0,0:0|0:0,0:0:0:0:
200,192,45933,2,0,P|148:216|152:296,1,120,2|0,0:0|0:0,0:0:0:0:
160,316,46284,5,2,0:0:0:0:
184,344,46635,1,8,0:0:0:0:
272,256,46810,1,0,0:0:0:0:
252,104,46986,2,0,L|160:36,1,80
176,176,47336,1,2,0:0:0:0:
104,60,47512,1,0,0:0:0:0:
104,60,47600,1,0,0:0:0:0:
104,60,47687,6,0,P|72:124|68:148,1,80,0|8,0:0|1:1,0:0:0:0:
68,228,48038,1,8,0:0:0:0:
176,176,48214,1,8,1:0:0:0:
184,184,48301,1,8,1:0:0:0:
192,192,48389,1,8,1:0:0:0:
264,256,48564,1,0,0:0:0:0:
288,128,48740,1,0,0:0:0:0:
376,220,48915,1,0,0:0:0:0:
336,48,49091,6,0,P|292:36|196:100,1,160,2|8,0:0|0:0,0:0:0:0:
368,128,49617,2,0,B|412:116|424:60|424:60|468:136,1,160,2|0,0:0|0:0,0:0:0:0:
460,128,50056,1,8,1:0:0:0:
460,140,50143,1,2,0:0:0:0:
460,236,50319,1,0,0:0:0:0:
368,128,50494,5,0,0:0:0:0:
288,276,50670,2,0,L|372:232,1,80,2|8,0:0|0:0,0:0:0:0:
256,156,51021,1,8,1:0:0:0:
256,156,51108,1,8,1:0:0:0:
256,156,51196,2,0,P|196:176|180:196,1,80,2|0,0:0|0:0,0:0:0:0:
160,296,51547,1,8,1:1:0:0:
96,168,51722,1,0,0:0:0:0:
104,344,51898,6,0,P|172:372|232:312,1,160,2|8,0:0|0:0,0:0:0:0:
244,224,52424,1,0,0:0:0:0:
216,60,52600,2,0,L|140:144,1,80,2|8,0:0|1:0,0:0:0:0:
155,129,52863,1,8,1:0:0:0:
149,139,52950,1,8,1:0:0:0:
84,208,53126,1,0,0:0:0:0:
32,96,53301,5,0,0:0:0:0:
162,119,53477,1,2,0:0:0:0:
84,208,53652,1,8,0:0:0:0:
108,52,53828,1,8,1:0:0:0:
108,52,53915,1,8,1:0:0:0:
108,52,54003,1,2,0:0:0:0:
200,28,54179,1,0,0:0:0:0:
332,128,54354,2,0,P|380:120|400:96,1,80,8|0,1:1|0:0,0:0:0:0:
252,116,54705,6,0,P|252:180|300:304,1,160,4|0,0:0|0:0,0:0:0:0:
208,124,55407,2,0,P|208:188|256:312,1,160,4|0,0:0|0:0,0:0:0:0:
316,356,55933,1,0,0:0:0:0:
436,196,56108,6,0,P|436:140|340:144,1,160,4|0,0:0|0:0,0:0:0:0:
240,200,56635,1,8,1:1:0:0:
228,208,56722,1,8,1:1:0:0:
216,216,56810,1,8,1:1:0:0:
112,292,56986,1,0,0:0:0:0:
128,164,57161,1,0,0:0:0:0:
196,296,57336,1,0,0:0:0:0:
192,104,57512,6,0,P|232:64|272:52,1,80,8|0,1:1|0:0,0:0:0:0:
412,84,57863,2,0,P|372:124|332:136,1,80,8|0,1:1|0:0,0:0:0:0:
192,104,58214,1,0,0:0:0:0:
229,257,58389,1,0,0:0:0:0:
233,273,58477,1,0,0:0:0:0:
237,289,58564,1,8,1:1:0:0:
94,109,58740,6,0,L|70:229,1,120,8|0,1:1|0:0,0:0:0:0:
168,221,59091,2,0,L|191:103,1,120,8|0,1:1|0:0,0:0:0:0:
156,16,59442,1,8,1:1:0:0:
296,52,59617,1,0,0:0:0:0:
128,44,59793,1,0,0:0:0:0:
316,128,59968,2,0,L|340:216,1,80,8|0,1:1|0:0,0:0:0:0:
376,64,60319,5,4,0:0:0:0:
388,72,60670,1,8,1:1:0:0:
472,200,60845,1,8,1:1:0:0:
472,216,60933,1,8,1:1:0:0:
472,232,61021,1,8,1:1:0:0:
472,84,61196,1,8,3:3:0:0:
392,152,61371,1,8,3:3:0:0:
216,64,61547,6,0,P|168:96|200:212,1,160,4|0,0:0|0:0,0:0:0:0:
280,272,62073,1,8,1:1:0:0:
64,340,62424,1,0,0:0:0:0:
44,252,62600,1,0,0:0:0:0:
234,363,62775,2,0,P|282:327|278:267,1,120,8|0,1:1|0:0,0:0:0:0:
244,180,63126,5,4,0:0:0:0:
252,168,63652,1,8,1:1:0:0:
260,156,64003,5,0,0:0:0:0:
448,152,64179,1,8,1:1:0:0:
448,172,64880,5,8,1:1:0:0:
448,188,65231,1,0,0:0:0:0:
448,204,65582,1,0,0:0:0:0:
360,292,65757,1,0,0:0:0:0:
184,296,65933,6,0,P|160:248|136:116,1,160,4|0,0:0|0:0,0:0:0:0:
280,52,66459,2,0,P|280:136|260:232,1,160,12|0,1:1|0:0,0:0:0:0:
224,300,66898,1,0,0:0:0:0:
256,312,66986,6,0,P|312:320|440:196,1,240,12|0,1:1|0:0,0:0:0:0:
432,100,67687,1,0,0:0:0:0:
428,84,68038,1,8,1:1:0:0:
280,116,68214,1,0,0:0:0:0:
360,12,68389,1,0,0:0:0:0:
368,152,68564,1,0,0:0:0:0:
212,44,68740,6,0,P|132:72|104:140,1,160,4|0,0:0|0:0,0:0:0:0:
136,232,69266,1,0,0:0:0:0:
212,44,69442,2,0,P|256:132|284:200,1,160,8|0,1:1|0:0,0:0:0:0:
264,288,69968,1,0,0:0:0:0:
436,208,70143,6,0,P|456:140|364:76,1,160,4|0,0:0|0:0,0:0:0:0:
304,76,70670,1,0,0:0:0:0:
272,248,70845,2,0,L|208:88,1,160,8|0,1:1|0:0,0:0:0:0:
184,8,71371,1,0,0:0:0:0:
76,124,71547,5,4,0:0:0:0:
80,140,71898,1,0,0:0:0:0:
84,156,72249,1,8,1:1:0:0:
88,172,72600,1,0,0:0:0:0:
168,288,72775,6,0,P|248:256|260:160,1,160,8|0,1:1|0:0,0:0:0:0:
88,256,73301,2,0,P|84:324|180:372,1,160,0|8,0:0|1:1,0:0:0:0:
176,196,73828,1,8,3:3:0:0:
304,280,74003,1,8,3:3:0:0:
267,184,74179,1,0,0:0:0:0:
388,44,74354,6,0,P|416:92|472:200,1,160,12|8,1:1|1:1,0:0:0:0:
468,208,75056,1,8,1:1:0:0:
260,244,75231,1,0,0:0:0:0:
432,308,75407,1,8,1:1:0:0:
344,156,75582,5,0,0:0:0:0:
328,136,75933,1,0,0:0:0:0:
204,28,76108,2,0,P|164:56|136:160,1,160
64,328,76635,1,0,0:0:0:0:
68,312,76722,1,0,0:0:0:0:
72,296,76810,1,0,0:0:0:0:
64,328,77161,6,0,P|128:348|188:236,1,191.999994140625,4|8,0:0|0:0,0:0:0:0:
188,152,77687,1,0,0:0:0:0:
92,24,77863,2,0,P|72:88|32:224,1,191.999994140625,0|8,0:0|0:0,0:0:0:0:
188,152,78389,1,0,0:0:0:0:
292,16,78564,5,0,0:0:0:0:
288,172,78740,1,0,0:0:0:0:
152,72,78915,2,0,P|112:112|104:152,1,95.9999970703126,8|0,0:0|0:0,0:0:0:0:
288,172,79266,1,0,0:0:0:0:
220,40,79442,1,0,0:0:0:0:
364,160,79617,2,0,L|448:220,1,95.9999970703126,8|0,0:0|0:0,0:0:0:0:
464,316,79880,1,0,0:0:0:0:
464,316,79968,6,0,P|404:348|372:348,1,95.9999970703126
252,248,80319,1,8,0:0:0:0:
244,160,80494,2,0,P|172:212|204:320,1,191.999994140625
304,380,81021,1,8,0:0:0:0:
96,336,81196,1,0,0:0:0:0:
92,316,81284,1,0,0:0:0:0:
88,296,81371,6,0,P|84:224|72:92,1,191.999994140625,0|8,0:0|0:0,0:0:0:0:
28,8,81898,1,0,0:0:0:0:
180,92,82073,2,0,P|240:112|284:108,1,95.9999970703126
436,16,82424,2,0,P|388:16|343:34,1,95.9999970703126,8|0,0:0|0:0,0:0:0:0:
484,160,82775,6,0,P|416:160|396:264,1,191.999994140625,0|8,0:0|0:0,0:0:0:0:
484,160,83301,1,0,0:0:0:0:
396,264,83477,2,0,P|332:272|296:252,1,95.9999970703126
256,100,83828,1,8,0:0:0:0:
272,184,84003,1,0,0:0:0:0:
272,184,84091,1,0,0:0:0:0:
272,184,84179,6,0,P|188:152|188:44,1,191.999994140625,0|8,0:0|0:0,0:0:0:0:
268,16,84705,1,0,0:0:0:0:
80,120,84880,2,0,L|32:28,1,95.9999970703126
32,208,85231,2,0,L|76:293,1,95.9999970703126,8|0,0:0|0:0,0:0:0:0:
144,356,85494,1,0,0:0:0:0:
144,356,85582,6,0,B|220:332|220:332|308:248,1,191.999994140625,0|8,0:0|0:0,0:0:0:0:
356,160,86108,1,0,0:0:0:0:
304,28,86284,1,0,0:0:0:0:
224,160,86459,1,0,0:0:0:0:
212,176,86547,1,0,0:0:0:0:
200,192,86635,1,8,0:0:0:0:
112,52,86810,6,0,P|56:76|76:184,1,167.999994873047,0|0,3:0|0:0,0:0:0:0:
92,268,87161,6,0,P|148:244|124:116,1,192,0|0,3:0|0:0,0:0:0:0:
112,52,87512,5,8,0:0:0:0:
248,168,87687,1,8,0:0:0:0:
364,16,87863,1,0,0:0:0:0:
364,40,87950,1,0,0:0:0:0:
380,68,88038,1,8,0:0:0:0:
408,92,88125,1,0,0:0:0:0:
445,99,88213,1,0,0:0:0:0:
483,98,88301,1,0,0:0:0:0:
512,68,88389,6,0,P|472:172|367:206,1,191.999994140625,4|8,0:0|0:0,0:0:0:0:
169,181,88915,2,0,P|209:77|314:43,1,191.999994140625
348,100,89354,1,0,0:0:0:0:
348,100,89442,1,8,0:0:0:0:
280,244,89617,1,0,0:0:0:0:
272,260,89705,1,0,0:0:0:0:
264,276,89793,6,0,P|224:308|168:308,1,95.9999970703126
104,176,90143,1,8,0:0:0:0:
224,72,90319,1,0,0:0:0:0:
224,72,90407,1,0,0:0:0:0:
224,72,90494,1,0,0:0:0:0:
132,176,90670,1,0,0:0:0:0:
268,72,90845,1,8,0:0:0:0:
352,180,91021,1,0,0:0:0:0:
192,236,91196,6,0,P|196:320|240:364,1,143.999995605469
336,360,91547,1,8,0:0:0:0:
228,164,91722,2,0,P|144:172|116:272,1,191.999994140625
234,361,92249,1,8,0:0:0:0:
64,344,92424,1,0,0:0:0:0:
40,112,92600,6,0,L|120:176,1,95.9999970703126
272,112,92950,2,0,L|197:52,1,95.9999970703126,8|0,0:0|0:0,0:0:0:0:
108,12,93214,1,0,0:0:0:0:
108,12,93301,1,0,0:0:0:0:
40,112,93477,1,0,0:0:0:0:
197,52,93652,1,8,0:0:0:0:
24,28,93828,1,0,0:0:0:0:
164,156,94003,6,0,P|216:224|256:348,1,191.999994140625,0|8,0:0|0:0,0:0:0:0:
120,252,94529,1,0,0:0:0:0:
312,184,94705,2,0,P|356:144|368:96,1,95.9999970703126
224,116,95056,1,8,0:0:0:0:
360,32,95231,1,0,0:0:0:0:
360,32,95319,1,0,0:0:0:0:
360,32,95407,6,0,P|416:44|432:152,1,143.999995605469
416,216,95757,1,8,0:0:0:0:
188,224,95933,1,0,0:0:0:0:
176,208,96021,1,0,0:0:0:0:
164,192,96108,1,0,0:0:0:0:
92,80,96284,1,0,0:0:0:0:
272,152,96459,1,8,0:0:0:0:
184,112,96635,1,0,0:0:0:0:
96,296,96810,6,0,P|152:328|184:328,1,95.9999970703126
324,240,97161,1,8,0:0:0:0:
180,208,97336,1,0,0:0:0:0:
316,100,97512,2,0,P|380:84|456:184,1,191.999994140625,0|8,0:0|0:0,0:0:0:0:
316,100,98038,6,0,P|220:120|160:16,1,191.999994140625
308,12,98564,1,8,0:0:0:0:
358,129,98740,1,0,0:0:0:0:
200,164,98915,1,0,0:0:0:0:
358,129,99091,1,0,0:0:0:0:
308,254,99266,2,0,L|280:354,1,95.9999970703126,8|0,0:0|0:0,0:0:0:0:
425,182,99617,6,0,P|405:262|369:382,1,191.999994140625,4|8,0:0|0:0,0:0:0:0:
328,220,100143,1,0,0:0:0:0:
268,40,100319,2,0,P|208:60|236:176,1,191.999994140625,0|8,0:0|0:0,0:0:0:0:
332,96,100845,1,0,0:0:0:0:
176,240,101021,6,0,L|96:320,1,95.9999970703126
124,152,101371,1,8,0:0:0:0:
236,300,101547,1,0,0:0:0:0:
248,312,101635,1,0,0:0:0:0:
264,324,101722,2,0,L|344:380,1,95.9999970703126
236,300,102073,2,0,P|252:216|284:208,1,95.9999970703126,8|0,0:0|0:0,0:0:0:0:
320,56,102424,6,0,P|360:128|472:92,1,191.999994140625,4|8,0:0|0:0,0:0:0:0:
320,56,102950,2,0,P|212:92|120:104,1,191.999994140625
36,24,103477,1,8,0:0:0:0:
40,112,103652,1,0,0:0:0:0:
208,200,103828,5,0,0:0:0:0:
124,196,104003,1,0,0:0:0:0:
260,272,104179,2,0,P|288:228|288:176,1,95.9999970703126,8|0,0:0|0:0,0:0:0:0:
316,40,104529,2,0,L|372:-8,1,47.9999985351563
460,32,104705,2,0,L|423:63,1,47.9999985351563
344,132,104880,1,8,0:0:0:0:
228,32,105056,1,0,0:0:0:0:
176,216,105231,6,0,P|232:228|232:108,1,191.999994140625,4|8,0:0|0:0,0:0:0:0:
176,216,105757,1,0,0:0:0:0:
92,72,105933,2,0,L|76:176,1,95.9999970703126
64,284,106284,1,8,0:0:0:0:
176,216,106459,1,0,3:0:0:0:
192,204,106810,1,0,3:0:0:0:
208,192,107161,1,0,3:0:0:0:
288,124,107336,5,0,0:0:0:0:
315,163,107423,1,0,0:0:0:0:
343,202,107511,1,0,0:0:0:0:
370,241,107599,1,0,0:0:0:0:
398,281,107686,1,0,0:0:0:0:
416,300,107775,1,0,0:0:0:0:
419,280,107862,1,0,0:0:0:0:
422,260,107950,1,0,0:0:0:0:
428,236,108038,6,0,L|440:132,1,95.9999970703126,4|0,0:0|0:0,0:0:0:0:
460,20,108389,1,8,0:0:0:0:
376,24,108564,1,0,0:0:0:0:
504,100,108740,1,0,0:0:0:0:
332,132,108915,1,0,0:0:0:0:
200,36,109091,1,8,0:0:0:0:
161,61,109178,1,0,0:0:0:0:
158,108,109266,1,0,0:0:0:0:
193,138,109354,1,0,0:0:0:0:
240,128,109442,6,0,P|256:180|208:296,1,160,0|8,0:0|0:0,0:0:0:0:
92,328,109968,1,0,0:0:0:0:
88,312,110056,1,0,0:0:0:0:
84,296,110143,2,0,P|72:208|60:108,1,160,0|8,0:0|0:0,0:0:0:0:
64,28,110670,1,0,0:0:0:0:
292,24,110845,6,0,P|272:80|160:112,1,160,0|8,0:0|0:0,0:0:0:0:
160,32,111371,1,0,0:0:0:0:
208,196,111547,1,0,0:0:0:0:
376,120,111722,1,0,0:0:0:0:
388,112,111810,1,0,0:0:0:0:
400,104,111898,1,8,0:0:0:0:
296,168,112073,1,0,0:0:0:0:
432,276,112249,6,0,P|424:328|316:360,1,160,0|8,0:0|0:0,0:0:0:0:
432,276,112775,1,0,0:0:0:0:
232,236,112950,1,0,0:0:0:0:
236,48,113126,2,0,L|260:88,1,40
192,160,113301,2,0,L|171:125,1,40,8|0,0:0|0:0,0:0:0:0:
132,52,113477,1,0,0:0:0:0:
80,208,113652,6,0,P|80:284|108:372,1,160,0|8,0:0|0:0,0:0:0:0:
252,352,114179,1,0,0:0:0:0:
252,352,114266,1,0,0:0:0:0:
252,352,114354,2,0,P|304:292|248:220,1,160,0|8,0:0|0:0,0:0:0:0:
212,84,114880,2,0,P|160:144|216:216,1,160,4|0,0:0|0:0,0:0:0:0:
304,80,115407,5,8,0:0:0:0:
416,148,115582,1,0,0:0:0:0:
292,184,115757,1,0,0:0:0:0:
380,72,115933,1,0,0:0:0:0:
392,220,116108,1,8,0:0:0:0:
393,252,116196,1,0,0:0:0:0:
388,283,116283,1,0,0:0:0:0:
377,313,116371,1,0,0:0:0:0:
352,332,116459,6,0,L|256:324,1,80
168,192,116810,2,0,L|247:198,1,80,4|0,0:0|0:0,0:0:0:0:
96,136,117161,1,0,0:0:0:0:
144,48,117336,1,0,0:0:0:0:
48,224,117512,1,0,0:0:0:0:
232,112,117687,6,0,P|276:80|296:32,1,80,0|0,3:0|0:0,0:0:0:0:
388,200,118038,2,0,P|410:232|444:253,1,80,0|0,3:0|0:0,0:0:0:0:
436,120,118389,1,0,3:0:0:0:
304,216,118564,1,0,3:0:0:0:
289,58,118740,1,0,0:0:0:0:
276,48,118828,1,0,0:0:0:0:
264,36,118915,1,2,0:0:0:0:
112,192,119266,5,4,0:0:0:0:
256,192,119442,12,0,122073,0:0:0:0:
