osu file format v14

[General]
AudioFilename: audio.mp3
AudioLeadIn: 0
PreviewTime: 76722
Countdown: 0
SampleSet: Soft
StackLeniency: 0.7
Mode: 0
LetterboxInBreaks: 0
WidescreenStoryboard: 0

[Editor]
DistanceSpacing: 1.2
BeatDivisor: 4
GridSize: 4
TimelineZoom: 1

[Metadata]
Title:Star*Glitter
TitleUnicode:Star☆Glitter
Artist:7TH SISTERS
ArtistUnicode:セブンスシスターズ
Creator:-Nya-
Version:Easy
Source:Tokyo 7th シスターズ
Tags:simulation game size aihuro
BeatmapID:1024009
BeatmapSetID:479547

[Difficulty]
HPDrainRate:2
CircleSize:3
OverallDifficulty:2
ApproachRate:2.5
SliderMultiplier:0.8
SliderTickRate:1

[Events]
//Background and Video events
0,0,"7th sisters.jpeg",0,0
Video,-790,"optc.flv"
//Break Periods
//Storyboard Layer 0 (Background)
//Storyboard Layer 1 (Fail)
//Storyboard Layer 2 (Pass)
//Storyboard Layer 3 (Foreground)
//Storyboard Sound Samples

[TimingPoints]
1372,350.877192982456,4,2,1,50,1,0
6635,-100,4,2,1,50,0,0
6986,-100,4,2,1,60,0,0
25757,-100,4,2,1,25,0,0
26021,-100,4,2,1,60,0,0
26459,-100,4,2,1,25,0,0
26547,-100,4,2,1,60,0,0
27512,-100,4,2,1,25,0,0
27687,-100,4,2,1,60,0,0
28652,-100,4,2,1,25,0,0
28740,-100,4,2,1,60,0,0
30319,-100,4,2,1,25,0,0
30494,-100,4,2,1,60,0,0
31371,-100,4,2,1,25,0,0
31547,-100,4,2,1,60,0,0
33214,-100,4,2,1,25,0,0
33301,-100,4,2,1,60,0,0
34179,-100,4,2,1,25,0,0
34354,-100,4,2,1,25,0,0
35056,-100,4,2,1,60,0,0
35582,-100,4,2,1,40,0,0
35670,-100,4,2,1,60,0,0
35933,-100,4,2,1,25,0,0
36108,-100,4,2,1,60,0,0
36986,-100,4,2,1,25,0,0
37161,-100,4,2,1,60,0,0
38915,-100,4,2,1,25,0,0
39091,-100,4,2,1,60,0,0
40319,-100,4,2,1,25,0,0
40582,-100,4,2,1,60,0,0
41635,-100,4,2,1,35,0,0
41810,-100,4,2,1,60,0,0
44354,-100,4,2,1,35,0,0
44617,-100,4,2,1,60,0,0
48214,-100,4,2,1,35,0,0
48477,-100,4,2,1,60,0,0
50056,-100,4,2,1,35,0,0
50143,-100,4,2,1,60,0,0
51021,-100,4,2,1,35,0,0
51196,-100,4,2,1,60,0,0
52775,-100,4,2,1,35,0,0
53038,-100,4,2,1,60,0,0
53828,-100,4,2,1,35,0,0
54003,-100,4,2,1,60,0,0
56635,-100,4,2,1,35,0,0
56898,-100,4,2,1,60,0,0
60845,-100,4,2,1,35,0,0
61459,-100,4,2,1,60,0,0
73828,-100,4,2,1,35,0,0
74179,-100,4,2,1,60,0,0
77161,-100,4,2,1,85,0,1
87512,-100,4,2,1,40,0,1
87863,-100,4,2,1,85,0,1
108038,-100,4,2,1,60,0,0
122073,-100,4,2,1,5,0,0

[Colours]
Combo1 : 190,125,255
Combo2 : 255,138,138
Combo3 : 85,162,255
Combo4 : 255,255,151

[HitObjects]
72,176,1372,6,0,B|104:220|176:208|176:208|216:256|304:232,1,240,2|2,0:0|0:0,0:0:0:0:
388,228,2775,2,0,P|384:112|272:56,1,240,2|2,0:0|0:0,0:0:0:0:
196,96,4179,6,0,L|80:216,1,160,2|2,0:0|0:0,0:0:0:0:
20,282,5231,1,2,0:0:0:0:
256,192,5407,12,4,6986,1:0:0:0:
184,56,8389,6,0,B|112:96|108:188|108:188|144:272,1,240,0|8,0:0|0:0,0:0:0:0:
229,296,9793,2,0,P|293:272|337:172,1,160
320,100,10845,1,8,0:0:0:0:
240,48,11196,2,0,B|160:56|160:56|80:108,1,160,0|0,0:0|0:0,0:0:0:0:
44,184,12249,1,8,0:0:0:0:
80,272,12600,6,0,P|116:308|152:312,1,80,0|8,0:0|0:0,0:0:0:0:
238,304,13301,2,0,P|294:264|349:224,2,120,0|4|8,0:0|0:0|0:0,0:0:0:0:
186,222,14705,2,0,B|174:186|174:186|182:130,1,80
248,76,15407,5,0,0:0:0:0:
344,60,15757,2,0,P|360:104|392:188,1,120,4|8,0:0|0:0,0:0:0:0:
417,263,16635,1,4,0:0:0:0:
344,326,16986,1,0,3:0:0:0:
248,326,17336,2,0,B|232:290|232:290|236:210,1,120,0|2,3:0|0:0,0:0:0:0:
311,149,18214,6,0,P|239:113|159:149,1,160,6|0,0:0|0:0,0:0:0:0:
115,219,19266,1,0,0:0:0:0:
23,188,19617,2,0,L|7:28,1,160,2|0,0:0|0:0,0:0:0:0:
102,15,20670,1,0,0:0:0:0:
190,52,21021,6,0,L|270:91,2,80,2|0|0,0:0|0:0|0:0,0:0:0:0:
114,111,22073,1,0,0:0:0:0:
171,188,22424,2,0,P|253:211|329:178,1,160,2|2,0:0|0:0,0:0:0:0:
351,94,23477,1,2,0:0:0:0:
447,95,23828,6,0,B|459:135|447:191|447:191|467:227|463:267,1,160,2|0,0:0|0:0,0:0:0:0:
410,330,24880,1,2,0:0:0:0:
317,355,25231,2,0,P|273:367|221:347,2,80,2|0|8,0:0|0:0|1:0,0:0:0:0:
345,262,26284,1,0,0:0:0:0:
371,169,26635,6,0,P|291:181|249:251,1,160,2|0,0:0|0:0,0:0:0:0:
189,317,27687,1,2,0:0:0:0:
99,281,28038,2,0,B|57:230|95:175|95:175|69:104|139:61,1,240,2|2,0:0|0:0,0:0:0:0:
223,40,29442,6,0,L|303:8,2,80,0|0|0,3:0|3:0|3:0,0:0:0:0:
206,134,30494,1,2,0:0:0:0:
294,172,30845,2,0,P|238:224|149:210,1,160,2|2,0:0|0:0,0:0:0:0:
76,168,31898,1,2,0:0:0:0:
41,78,32249,6,0,L|5:-10,2,80,2|2|2,3:0|3:0|3:0,0:0:0:0:
136,91,33301,1,2,0:0:0:0:
231,104,33652,2,0,P|296:147|326:220,1,160,2|2,0:0|0:0,0:0:0:0:
261,292,34705,1,8,3:3:0:0:
169,262,35056,6,0,B|145:210|145:210|149:142,2,120,2|8|2,0:0|1:0|0:0,0:0:0:0:
197,353,36459,2,0,P|127:352|90:312,2,120,2|8|0,0:0|1:0|0:0,0:0:0:0:
282,309,37863,6,0,B|302:257|266:197|266:197|326:117|278:29,1,280,4|0,0:0|0:0,0:0:0:0:
195,10,39442,1,0,0:0:0:0:
100,27,39793,2,0,P|124:79|188:107,1,120,0|8,3:0|1:0,0:0:0:0:
267,139,40670,6,0,P|295:211|259:280,1,160,4|0,0:0|0:0,0:0:0:0:
179,334,41722,1,8,3:3:0:0:
93,291,42073,2,0,L|37:139,1,160
70,50,43126,1,0,0:0:0:0:
159,87,43477,6,0,B|180:144|180:144|176:211,2,120,2|0|8,0:0|0:0|1:0,0:0:0:0:
244,43,44880,2,0,P|273:117|304:201,1,160,2|2,0:0|0:0,0:0:0:0:
328,284,45933,1,2,0:0:0:0:
263,355,46284,6,0,P|183:363|103:339,1,160
66,254,47336,1,2,0:0:0:0:
65,157,47687,2,0,L|69:61,2,80,0|8|8,0:0|0:0|1:0,0:0:0:0:
146,207,48740,1,0,0:0:0:0:
241,200,49091,6,0,B|277:152|233:92|233:92|305:80|313:40|309:4,1,240,2|2,0:0|0:0,0:0:0:0:
405,13,50494,2,0,P|429:85|409:257,1,240,0|8,0:0|1:1,0:0:0:0:
352,319,51898,6,0,B|300:351|300:351|216:343,2,120,2|0|8,0:0|0:0|1:0,0:0:0:0:
327,226,53301,2,0,P|251:218|179:266,1,160,0|2,0:0|0:0,0:0:0:0:
134,344,54354,1,8,1:1:0:0:
49,298,54705,5,4,0:0:0:0:
87,109,55407,1,4,0:0:0:0:
270,52,56108,2,0,B|314:100|310:156|310:156|266:220,1,160,4|8,0:0|1:1,0:0:0:0:
193,225,57161,1,0,0:0:0:0:
144,308,57512,6,0,L|216:372,1,80,8|8,1:1|1:1,0:0:0:0:
281,304,58214,2,0,L|353:368,1,80,0|8,0:0|1:1,0:0:0:0:
433,331,58915,2,0,P|453:291|433:155,1,160
386,103,59968,1,8,1:1:0:0:
291,83,60319,6,0,B|177:39|119:168|5:93,1,280,4|4,0:0|0:0,0:0:0:0:
59,241,62073,2,0,B|131:277|131:277|235:261,1,160,8|8,1:1|1:1,0:0:0:0:
303,243,63126,6,0,L|367:119,2,120,4|8|8,0:0|1:1|1:1,0:0:0:0:
123,175,64880,2,0,P|135:139|179:99,1,80,8|0,1:1|0:0,0:0:0:0:
248,63,65582,1,0,0:0:0:0:
327,119,65933,6,0,L|403:233,2,120,4|12|12,0:0|1:1|1:1,0:0:0:0:
142,170,67687,2,0,P|158:218|210:250,1,80,0|8,0:0|1:1,0:0:0:0:
255,295,68389,1,0,0:0:0:0:
350,303,68740,6,0,P|402:283|446:207,2,120,4|0|0,0:0|0:0|0:0,0:0:0:0:
292,226,70143,2,0,P|326:178|381:155,2,120,4|0|0,0:0|0:0|0:0,0:0:0:0:
236,304,71547,6,0,P|192:240|220:160,1,160,4|8,0:0|1:1,0:0:0:0:
278,94,72600,1,0,0:0:0:0:
347,27,72950,2,0,P|371:63|331:175,1,160,0|8,0:0|1:1,0:0:0:0:
268,231,74003,1,8,3:3:0:0:
186,282,74354,6,0,L|103:246,2,80,12|8|8,1:1|1:1|1:1,0:0:0:0:
276,315,75407,1,8,1:1:0:0:
370,332,75757,2,0,P|417:309|392:143,1,240
316,105,77161,6,0,B|239:91|239:91|152:103,1,160,4|0,0:0|0:0,0:0:0:0:
77,154,78214,1,8,0:0:0:0:
69,249,78564,2,0,B|133:245|161:193|161:193|277:273,1,240,0|8,0:0|0:0,0:0:0:0:
345,318,79968,6,0,L|427:279,1,80,0|8,0:0|0:0,0:0:0:0:
463,199,80670,2,0,L|433:124,1,80,0|8,0:0|0:0,0:0:0:0:
368,53,81371,2,0,P|290:61|236:117,1,160
226,213,82424,1,8,0:0:0:0:
286,287,82775,6,0,B|230:319|174:291|174:291|122:327|50:299,1,240,0|8,0:0|0:0,0:0:0:0:
30,208,84179,2,0,P|51:131|132:101,1,160
213,118,85231,1,8,0:0:0:0:
291,172,85582,6,0,L|359:232,1,80,0|8,0:0|0:0,0:0:0:0:
443,199,86284,2,0,P|442:256|394:310,1,120,0|0,0:0|3:0,0:0:0:0:
312,330,87161,2,0,L|212:240,1,120,0|8,3:0|0:0,0:0:0:0:
151,184,88038,1,8,0:0:0:0:
104,99,88389,6,0,P|181:91|238:143,1,160,4|0,0:0|0:0,0:0:0:0:
304,214,89442,1,8,0:0:0:0:
376,277,89793,2,0,P|445:240|478:169,1,160
425,89,90845,1,8,0:0:0:0:
329,78,91196,6,0,P|273:82|209:82,2,120,0|0|8,0:0|0:0|0:0,0:0:0:0:
425,89,92600,2,0,P|444:164|402:229,1,160
307,246,93652,1,8,0:0:0:0:
217,281,94003,6,0,B|205:239|220:203|220:203|134:160|123:64,1,240,0|8,0:0|0:0,0:0:0:0:
213,41,95407,2,0,P|258:110|339:122,1,160
408,68,96459,1,8,0:0:0:0:
498,36,96810,6,0,P|502:88|490:120,1,80,0|8,0:0|0:0,0:0:0:0:
425,182,97512,2,0,P|421:234|433:266,1,80,0|8,0:0|0:0,0:0:0:0:
503,321,98214,2,0,P|430:358|361:325,1,160
289,266,99266,1,8,0:0:0:0:
222,197,99617,6,0,L|162:121,2,80,4|8|0,0:0|0:0|0:0,0:0:0:0:
316,179,100670,1,8,0:0:0:0:
388,115,101021,2,0,B|345:47|345:47|273:0,1,160
184,21,102073,1,8,0:0:0:0:
108,79,102424,6,0,P|112:115|136:167,1,80,4|8,0:0|0:0,0:0:0:0:
186,232,103126,2,0,P|201:268|206:308,1,80,0|8,0:0|0:0,0:0:0:0:
289,356,103828,2,0,B|345:324|349:268|349:268|321:132,1,240,0|8,0:0|0:0,0:0:0:0:
296,49,105231,6,0,P|340:37|428:29,1,120,4|0,0:0|0:0,0:0:0:0:
495,78,106108,1,0,0:0:0:0:
497,173,106459,2,0,B|493:213|493:213|473:261,1,80,0|0,3:0|3:0,0:0:0:0:
418,325,107161,2,0,P|366:349|298:317,1,120,0|0,3:0|0:0,0:0:0:0:
245,257,108038,5,4,0:0:0:0:
256,192,108214,12,0,110845,0:0:0:0:
176,108,112249,6,0,L|136:196,2,80,0|8|0,0:0|0:0|0:0,0:0:0:0:
216,20,113301,1,8,0:0:0:0:
308,44,113652,6,0,P|332:76|344:196,1,160,0|0,0:0|0:0,0:0:0:0:
276,260,114705,1,8,0:0:0:0:
208,328,115056,2,0,B|160:288|96:312|96:312|97:237|34:214,1,240,0|8,0:0|0:0,0:0:0:0:
39,119,116459,5,0,0:0:0:0:
59,25,116810,2,0,P|109:51|134:120,1,120,4|0,0:0|0:0,0:0:0:0:
187,186,117687,2,0,L|273:172,1,80,0|0,3:0|3:0,0:0:0:0:
359,195,118389,2,0,P|367:239|323:307,1,120,0|2,3:0|0:0,0:0:0:0:
244,343,119266,5,4,0:0:0:0:
256,192,119442,12,0,122073,0:0:0:0:
