osu file format v9

[General]
AudioFilename: bonus level 2.mp3
AudioLeadIn: 2000
PreviewTime: 72019
Countdown: 0
SampleSet: Soft
StackLeniency: 0.7
Mode: 0
LetterboxInBreaks: 0

[Editor]
Bookmarks: 48020,72020,108010,132030
DistanceSpacing: 1
BeatDivisor: 4
GridSize: 4

[Metadata]
Title:bonus level 2
Artist:777minus111
Creator:Kert
Version:Twilight
Source:
Tags:8bit 8-bit chiptune children of dos 666 night sky moon nharox

[Difficulty]
HPDrainRate:4
CircleSize:4
OverallDifficulty:5
ApproachRate:6
SliderMultiplier:2.8
SliderTickRate:1

[Events]
//Background and Video events
0,0,"purple sky2.jpg"
//Break Periods
//Storyboard Layer 0 (Background)
//Storyboard Layer 1 (Fail)
//Storyboard Layer 2 (Pass)
//Storyboard Layer 3 (Foreground)
//Storyboard Sound Samples
//Background Colour Transformations
3,100,0,0,0

[TimingPoints]
19,750,4,2,1,20,1,0
19,-200,4,2,1,20,0,0
48019,-100,4,2,1,25,0,0
72019,-133.333333333333,4,2,1,25,0,0
120019,-100,4,2,1,25,0,0
132019,-100,4,2,1,5,0,0

[Colours]
Combo1 : 164,38,38
Combo2 : 112,61,106
Combo3 : 0,72,181

[HitObjects]
248,328,19,2,0,B|220:344|184:328|184:328|176:328|176:328|140:312|112:328,1,140,0|8
264,248,1519,2,0,B|292:264|328:248|328:248|336:248|336:248|372:232|400:248,1,140,0|8
256,152,3019,5,0
128,264,3769,1,8
256,152,4519,1,0
384,264,5269,1,8
408,96,6019,6,0,B|376:32|288:48,1,140,0|8
104,96,7519,2,0,B|136:32|224:48,1,140,0|8
216,216,9019,5,0
56,272,9769,1,8
88,104,10519,1,0
88,104,11269,1,8
256,64,12019,6,0,B|320:104|320:104|320:176,1,140,0|8
256,320,13519,2,0,B|192:280|192:280|192:208,1,140,0|8
326,112,15019,6,0,B|186:112,1,140,0|8
186,272,16519,2,0,B|326:272,1,140,0|8
408,128,18019,5,0
256,48,18769,1,8
104,128,19519,1,0
256,48,20269,1,8
296,216,21019,5,0
456,272,21769,1,8
424,104,22519,1,0
424,104,23269,1,8
392,272,24019,6,0,B|256:304,1,140,0|8
96,344,25519,2,0,B|95:289|144:248,2,105,2|0|0
176,328,27019,5,0
32,248,27769,1,8
32,80,28519,2,0,B|80:24|160:40,1,140,0|8
120,272,30019,6,0,B|256:304,1,140,2|8
416,344,31519,2,0,B|417:290|368:248,2,105,2|0|2
336,328,33019,5,0
480,248,33769,1,8
480,80,34519,2,0,B|432:24|352:40,1,140,0|8
216,136,36019,6,0,B|176:200|96:200,1,140,0|8
16,56,37519,1,2
128,120,38081,1,0
176,240,38644,1,0
144,320,39019,6,0,B|88:320|88:320|48:304|32:256,1,140,0|8
96,104,40519,1,0
256,48,41269,1,8
296,248,42019,6,0,B|336:184|416:184,1,140,2|8
496,328,43519,1,2
384,264,44081,1,0
336,144,44644,1,2
368,64,45019,6,0,B|424:64|424:64|464:80|480:128,1,140,0|8
416,280,46519,1,0
256,336,47269,1,8
96,280,48019,5,0
188,156,48394,2,0,B|140:104,1,70
64,104,48769,2,0,B|16:156,2,70,8|0|0
204,40,49519,6,0,B|260:100,1,70,2|0
304,148,49894,1,0
412,260,50269,1,8
488,40,50831,5,8
424,84,51019,2,0,B|376:116|376:116|348:124|348:124|292:160,1,140
168,76,51769,2,0,B|248:48,1,70,8|0
80,108,52331,6,0,B|52:200,1,70,2|0
36,248,52706,1,0
84,308,52894,2,0,B|244:340,1,140,0|8
256,108,53831,5,0
328,64,54019,2,0,B|400:80|400:80|440:152,1,140,0|0
428,292,54769,1,8
356,336,54957,2,0,B|284:320|284:320|244:248,1,140,0|0
300,200,55519,2,0,B|348:148,1,70,2|0
424,148,55894,2,0,B|472:200,2,70,0|0|8
216,48,56831,5,0
140,28,57019,2,0,B|60:44|32:120,1,140
56,264,57769,1,8
116,212,57956,2,0,B|160:156|160:156|236:128,2,140,0|2|0
132,284,58894,1,0
196,340,59081,1,0
256,284,59269,1,8
380,100,59831,5,8
316,44,60019,1,0
256,100,60206,1,0
196,160,60394,2,0,B|120:128,1,70,2|0
52,100,60769,2,0,B|8:156|32:236,1,140,8|8
96,284,61331,6,0,B|236:308,2,140,0|0|0
96,284,62269,1,8
204,56,62831,5,0
284,88,63019,2,0,B|348:116,1,70
416,168,63394,2,0,B|444:252,1,70,2|0
424,316,63769,1,8
340,300,63956,1,0
288,232,64144,1,0
288,152,64331,6,0,B|312:76|396:64,2,140
360,192,65269,1,8
156,36,65831,5,0
108,104,66019,2,0,B|96:136|96:136|108:176|96:212|96:212|72:232,2,140,0|0|8
192,112,66956,2,0,B|332:84,1,140
412,104,67519,1,2
412,104,67706,1,0
412,104,67894,2,0,B|388:264,1,140,0|8
256,124,68831,5,0
176,152,69019,2,0,B|144:180|144:180|116:236|152:292,2,140,0|0|8
212,228,69956,1,0
256,300,70144,1,2
300,228,70331,1,0
336,152,70519,2,0,B|368:180|368:180|396:236|360:292,2,140,0|0|8
116,32,71831,1,0
168,96,72019,6,0,B|208:84|208:84|232:56|232:56|272:44|272:44,1,104.999996870756,8|8
412,84,72769,1,0
468,140,72956,1,0
392,156,73144,1,8
256,240,73519,6,0,B|270:244|230:232|230:232|206:204|206:204|166:192,1,104.999996870756,8|8
44,284,74269,1,2
44,284,74456,1,0
44,284,74644,1,8
192,336,75019,6,8,B|256:324|280:272,2,104.999996870756,8|8|0
124,192,76144,1,8
256,104,76519,1,8
256,104,76894,1,8
388,192,77269,1,0
256,280,77644,1,8
100,264,78019,5,8
68,192,78206,1,0
100,120,78394,1,8
256,88,78769,1,2
372,192,79144,1,8
456,60,79519,5,8
456,60,79706,1,0
456,60,79894,1,8
304,108,80269,1,0
216,240,80644,1,8
92,336,81019,6,0,B|48:300|44:244,1,104.999996870756,8|8
124,112,81769,2,0,B|164:60,2,52.4999984353781,0|0|8
216,240,82519,2,0,B|271:228|300:182,1,104.999996870756,2|0
364,40,83269,1,8
236,280,84019,6,0,B|180:272|148:232|148:232|84:216|44:260,1,209.999993741512,2|0
276,104,85519,2,0,B|332:112|364:152|364:152|428:168|468:124,1,209.999993741512,2|2
192,156,87019,6,0,B|168:208|192:260,1,104.999996870756
320,224,87769,2,0,B|344:172|320:120,1,104.999996870756,2|0
188,92,88519,2,0,B|132:192|188:292,1,209.999993741512,2|2
460,328,90019,5,2
460,56,90769,1,2
308,284,91519,5,2
256,88,92081,1,0
152,264,92644,1,2
112,132,93019,6,0,B|44:164|44:164|4:240|64:292,1,209.999993741512,0|2
172,40,94519,2,0,B|240:72|240:72|280:148|220:200,1,209.999993741512,2|2
452,40,96019,6,0,B|476:92|448:136|448:136|384:140|360:192|360:192|384:244|448:248|448:248|476:292|452:344,1,419.999987483025
256,264,98269,1,8
60,344,99019,6,0,B|36:292|64:248|64:248|128:244|152:192|152:192|128:140|64:136|64:136|36:92|60:40,1,419.999987483025
256,120,101269,1,8
344,52,102019,6,0,B|344:108|344:108|376:148|376:148|384:192|360:252,1,209.999993741512,0|2
168,332,103519,2,0,B|168:276|168:276|136:236|136:236|128:192|152:132,1,209.999993741512,0|8
256,192,105019,12,8,106519
452,40,108019,6,0,B|484:84|484:84|484:144,2,104.999996870756,8|8|0
256,112,109519,2,0,B|344:168,1,104.999996870756
436,224,110269,2,0,B|348:280,1,104.999996870756,2|0
256,328,111019,6,0,B|224:284|224:284|224:224,2,104.999996870756,8|8|0
256,112,112519,1,2
156,80,112894,1,0
56,44,113269,1,8
56,252,114019,5,8
56,252,114394,1,8
56,252,114769,1,0
256,312,115519,2,0,B|348:252|328:128,1,209.999993741512,2|8
256,52,116644,1,0
184,128,117019,6,0,B|148:164|148:164|148:224,2,104.999996870756,8|8|0
256,204,118144,1,0
344,260,118519,2,0,B|344:314|344:314|308:350,1,104.999996870756,2|0
204,352,119269,1,8
32,188,120019,6,0,B|64:124,1,70
112,48,120394,2,0,B|180:48,2,70,0|0|10
144,132,120956,1,0
324,132,121331,6,0,B|392:112,1,70
480,100,121706,1,0
460,188,121894,2,0,B|440:256,1,70,0|0
356,292,122269,1,10
268,264,122456,1,0
44,128,123019,6,0,B|24:196,1,70
84,264,123394,2,0,B|104:332,1,70
192,356,123769,1,10
280,340,123956,1,0
368,320,124144,1,0
448,272,124331,6,0,B|472:192,1,70
384,172,124706,2,0,B|360:252,1,70
276,208,125081,2,0,B|200:184,1,70,0|10
124,160,125456,1,0
300,36,126019,6,0,B|416:48|460:156,1,210
424,240,126769,2,0,B|368:288|368:288|300:300,1,140,10|0
209,299,127331,2,0,B|144:288|144:288|88:240,2,140
256,220,128269,2,0,B|256:132,2,70,10|0|0
120,112,129019,5,0
256,44,129394,1,0
392,112,129769,1,10
392,264,130144,5,0
392,264,130331,1,0
256,340,130706,1,0
120,264,131081,1,0
120,264,131269,1,10
256,192,131644,5,0
256,116,131831,1,0
256,40,132019,1,4
