osu file format v9

[General]
AudioFilename: bonus level 2.mp3
AudioLeadIn: 2000
PreviewTime: 72019
Countdown: 0
SampleSet: Soft
StackLeniency: 0.7
Mode: 0
LetterboxInBreaks: 0

[Editor]
Bookmarks: 24030,48020,72020,84020,120020,132020
DistanceSpacing: 1.2
BeatDivisor: 4
GridSize: 4

[Metadata]
Title:bonus level 2
Artist:777minus111
Creator:Kert
Version:Dusk
Source:
Tags:8bit 8-bit chiptune children of dos 666 night sky moon nharox

[Difficulty]
HPDrainRate:4
CircleSize:3
OverallDifficulty:4
ApproachRate:4
SliderMultiplier:1.4
SliderTickRate:1

[Events]
//Background and Video events
0,0,"purple sky2.jpg"
//Break Periods
2,96219,106699
//Storyboard Layer 0 (Background)
//Storyboard Layer 1 (Fail)
//Storyboard Layer 2 (Pass)
//Storyboard Layer 3 (Foreground)
//Storyboard Sound Samples
//Background Colour Transformations
3,100,0,0,0

[TimingPoints]
19,750,4,2,1,20,1,0
72009,-100,4,2,1,25,0,0
132019,-100,4,2,1,5,0,0

[Colours]
Combo1 : 164,38,38
Combo2 : 112,61,106
Combo3 : 0,72,181

[HitObjects]
108,336,19,2,0,B|156:288|244:280,1,140,0|8
404,264,1519,2,0,B|356:216|268:208,1,140,0|8
104,216,3019,2,0,B|112:136|184:96,1,140,0|8
337,101,4519,2,0,B|400:136|408:216,1,140,0|8
256,296,6019,5,0
172,152,6769,1,8
340,152,7519,1,0
256,296,8269,1,8
96,248,9019,6,0,B|44:195|45:121,1,140,0|8
204,64,10519,2,0,B|255:116|254:190,1,140,0|8
336,340,12019,6,0,B|384:292|392:204,1,140,0|8
408,44,13519,2,0,B|456:92|464:180,1,140,0|8
408,328,15019,2,0,B|330:328|290:264,1,140,0|8
220,120,16519,2,0,B|184:56|102:56,1,140,0|8
96,248,18019,5,0
256,192,18769,1,8
256,360,19519,1,0
256,192,20269,1,8
416,248,21019,6,0,B|467:195|466:121,1,140,0|8
308,64,22519,2,0,B|256:116|257:190,1,140,0|8
416,256,24019,5,0
256,312,24769,1,8
96,256,25519,2,0,B|40:296|24:352,2,105,2|0|2
168,216,27019,6,0,B|232:184|320:208,1,140,0|8
456,272,28519,2,0,B|488:204|456:136,1,140,2|8
336,32,30019,5,2
336,32,30769,1,8
176,32,31519,2,0,B|112:64|96:128,2,105,2|0|2
256,48,33019,6,0,B|256:216,1,140,0|8
336,336,34519,1,2
176,336,35269,1,8
88,192,36019,6,0,B|112:120|184:96,1,140,0|8
344,136,37519,2,0,B|400:248,2,105,2|0|2
304,64,39019,5,0
144,112,39769,1,8
144,272,40519,1,2
304,320,41269,1,8
424,192,42019,6,8,B|400:120|328:96,1,140,2|8
168,136,43519,2,0,B|112:248,2,105,2|0|2
208,64,45019,5,0
368,112,45769,1,8
368,272,46519,1,2
208,320,47269,1,8
96,192,48019,5,0
184,48,48769,1,8
256,96,49144,1,0
328,48,49519,1,0
416,192,50269,1,8
328,336,51019,5,0
256,192,51769,1,8
256,192,52144,1,0
256,192,52519,1,0
192,56,53269,1,8
40,124,54019,6,8,B|40:272,1,140,0|8
200,320,55519,1,2
264,264,55894,1,0
352,264,56269,1,8
416,320,56644,1,0
472,260,57019,6,0,B|472:112,1,140,0|8
328,40,58519,1,0
256,192,59269,1,8
184,344,60019,6,0,B|96:344|48:296,1,140,0|8
72,136,61519,2,0,B|96:48,2,70,2|0|8
136,192,62644,1,0
208,240,63019,6,0,B|288:208|312:120,1,140,0|8
424,32,64519,2,0,B|496:48,2,70,2|0|8
256,32,66019,5,2
256,32,66769,1,8
96,80,67519,5,2
48,152,67894,1,0
48,232,68269,1,8
96,304,68644,1,0
176,336,69019,6,0,B|244:352|316:336,1,140,0|8
408,192,70519,2,0,B|340:176|268:192,1,140,0|8
104,240,72019,6,0,B|64:176,2,70,8|8|0
176,88,73519,2,0,B|160:16,2,70,2|8|0
256,120,74644,1,0
336,88,75019,6,0,B|352:16,2,70,8|8|0
408,240,76519,2,0,B|448:176,2,70,2|8|0
256,312,78019,5,8
256,232,78394,1,8
184,192,78769,1,0
256,72,79519,5,2
256,152,79894,1,8
328,192,80269,1,0
448,272,81019,6,0,B|416:336|336:344,1,140,0|8
256,328,82144,1,0
176,344,82519,2,0,B|96:336|64:272,1,140,0|8
168,136,84019,6,0,B|136:64|64:40,2,140,0|8|0
256,280,86269,1,8
344,136,87019,2,0,B|376:64|448:40,2,140,2|8|0
256,280,89269,1,8
256,104,90019,6,0,B|256:24,2,70,8|8|0
336,248,91519,2,0,B|400:312,2,70,2|8|0
256,216,92644,1,0
176,248,93019,2,0,B|112:312,2,70,8|8|0
256,96,94519,5,2
328,248,95269,1,0
256,288,95644,1,0
184,248,96019,1,8
416,336,108019,6,0,B|444:268|416:200,2,140,0|2|0
256,280,110269,1,8
96,336,111019,6,0,B|68:268|96:200,2,140,0|2|0
256,280,113269,1,8
256,192,114019,12,8,116269
480,48,117019,6,0,B|408:32|336:48,1,140,0|2
256,60,118144,1,0
170,46,118519,2,0,B|104:32|32:48,1,140,0|8
64,212,120019,6,0,B|40:284,2,70,0|0|8
112,140,121144,1,0
172,84,121519,2,0,B|236:52|316:72,1,140,0|8
448,172,123019,6,0,B|472:100,2,70,2|0|8
400,244,124144,1,0
340,300,124519,2,0,B|276:332|196:312,1,140,0|8
176,160,126019,6,0,B|112:128,2,70,0|0|8
256,192,127144,1,0
336,160,127519,2,0,B|400:128,2,70,0|0|8
256,312,129019,5,0
256,232,129394,1,0
256,152,129769,1,8
104,96,130519,5,2
256,40,131269,1,8
408,96,132019,1,4
