osu file format v9

[General]
AudioFilename: CHANGE!!!!.mp3
AudioLeadIn: 2000
PreviewTime: 56614
Countdown: 0
SampleSet: Normal
StackLeniency: 0.7
Mode: 1
LetterboxInBreaks: 0

[Editor]
DistanceSpacing: 0.8
BeatDivisor: 4
GridSize: 16

[Metadata]
Title:CHANGE!!!! (TV Size)
Artist:765PRO ALLSTARS
Creator:Netsukawa
Version:aabc's Taiko
Source:THE iDOLM@STER
Tags:Amami Haruka Kisaragi Chihaya Hagiwara Yukiho Takatsuki Yayoi Akiduki Ritsuko Minase Iori Miura Azusa Hutami Ami Mami Kikuchi Makoto Hoshii Miki Ganaha Hibiki Shijou Takane Suzully aabc271 S_i_R_i_R_u SiRiRu Vicho-kun opening

[Difficulty]
HPDrainRate:4
CircleSize:6
OverallDifficulty:5
ApproachRate:7
SliderMultiplier:1.4
SliderTickRate:1

[Events]
//Background and Video events
0,0,"BG.jpg"
//Break Periods
//Storyboard Layer 0 (Background)
//Storyboard Layer 1 (Fail)
//Storyboard Layer 2 (Pass)
//Storyboard Layer 3 (Foreground)
//Storyboard Sound Samples
//Background Colour Transformations
3,100,163,162,255

[TimingPoints]
204.753931523991,352.941176470588,4,1,0,90,1,0
762,352.941176470588,4,1,0,90,1,0
42585,-111.111111111111,4,1,0,90,0,0
43114,-125,4,1,0,90,0,0
47703,-117.647058823529,4,1,0,90,0,0
48056,-111.111111111111,4,1,0,90,0,0
48409,-105.263157894737,4,1,0,90,0,0
48761,-100,4,1,0,90,0,0
57232,-100,4,1,1,90,0,1
67820,-100,4,1,1,90,0,0
68526,-100,4,1,1,90,0,1
79820,-100,4,1,1,90,0,0

[Colours]
Combo1 : 11,102,255
Combo2 : 255,102,11

[HitObjects]
256,192,762,1,4
256,192,1114,5,8
256,192,1467,5,0
256,192,1644,1,0
256,192,1820,5,8
256,192,2173,5,0
256,192,2526,5,8
256,192,2703,5,0
256,192,3056,1,0
256,192,3232,5,8
256,192,3409,5,0
256,192,3585,1,0
256,192,3938,5,8
256,192,4291,5,0
256,192,4467,1,0
256,192,4644,5,8
256,192,4997,5,0
256,192,5173,5,8
256,192,5350,1,8
256,192,5526,5,0
256,192,5879,5,8
256,192,6232,1,8
256,192,6409,5,4
256,192,6761,5,8
256,192,7114,5,0
256,192,7291,1,0
256,192,7467,5,8
256,192,7820,1,8
256,192,7997,1,8
256,192,8173,5,0
256,192,8350,1,0
256,192,8703,5,8
256,192,8879,5,0
256,192,9056,5,8
256,192,9232,1,8
256,192,9585,1,8
256,192,9938,1,8
256,192,10114,5,0
256,192,10291,1,0
256,192,10467,5,8
256,192,11526,1,12
256,192,11703,1,12
256,192,12056,5,4
256,192,12232,1,0
256,192,12409,5,8
256,192,12585,5,0
256,192,12673,1,0
256,192,12761,1,0
256,192,12938,1,0
256,192,13114,5,8
256,192,13291,5,0
256,192,13644,1,0
256,192,13820,5,8
256,192,13997,5,0
256,192,14173,5,8
256,192,14261,1,8
256,192,14350,5,0
256,192,14526,5,8
256,192,14703,1,8
256,192,14879,5,0
256,192,15056,1,0
256,192,15144,1,0
256,192,15232,5,8
256,192,15409,5,0
256,192,15585,5,8
256,192,15761,1,8
256,192,15938,5,0
256,192,16114,1,0
256,192,16467,1,0
256,192,16644,5,8
256,192,16820,5,0
256,192,16997,5,8
256,192,17085,1,8
256,192,17173,5,0
256,192,17261,1,0
256,192,17350,5,8
256,192,17703,5,4
256,192,17879,1,4
256,192,18232,5,12
256,192,18585,1,12
256,192,18938,1,12
256,192,19114,12,0,20173
256,192,20526,5,4
256,192,20879,5,8
256,192,21056,5,0
256,192,21144,1,0
256,192,21232,1,0
256,192,21409,5,8
256,192,21585,1,8
256,192,21761,5,0
256,192,22114,1,0
256,192,22291,5,8
256,192,22467,5,0
256,192,22644,1,0
256,192,22732,1,0
256,192,22820,1,0
256,192,22997,5,8
256,192,23173,5,0
256,192,23350,5,8
256,192,23526,5,0
256,192,23614,5,8
256,192,23703,1,8
256,192,23879,1,8
256,192,24056,5,0
256,192,24232,5,8
256,192,24409,1,8
256,192,24585,5,0
256,192,24938,1,0
256,192,25114,5,8
256,192,25291,5,0
256,192,25467,5,8
256,192,25556,1,8
256,192,25644,5,0
256,192,25820,5,8
256,192,25997,1,8
256,192,26085,1,8
256,192,26173,5,0
256,192,26526,5,12
256,192,26879,5,0
256,192,27056,1,0
256,192,27232,5,8
256,192,27409,5,0
256,192,27761,1,0
256,192,27938,5,8
256,192,28114,5,0
256,192,28291,5,8
256,192,28379,1,8
256,192,28467,5,0
256,192,28644,5,8
256,192,28820,5,0
256,192,28997,5,8
256,192,29173,5,0
256,192,29261,1,0
256,192,29350,5,8
256,192,29526,5,0
256,192,29703,5,8
256,192,29791,5,0
256,192,29879,1,0
256,192,29967,1,0
256,192,30056,5,8
256,192,30232,5,0
256,192,30585,1,0
256,192,30761,5,8
256,192,30938,5,4
256,192,31467,5,12
256,192,31820,5,0
256,192,31997,5,8
256,192,32085,1,8
256,192,32173,1,8
256,192,32350,5,0
256,192,32526,5,8
256,192,32614,1,8
256,192,32703,5,0
256,192,32879,1,0
256,192,33056,5,8
256,192,33232,5,0
256,192,33409,1,0
256,192,33497,1,0
256,192,33585,5,8
256,192,33761,5,0
256,192,34114,1,0
256,192,34291,1,0
256,192,34467,5,8
256,192,34644,1,8
256,192,34820,5,0
256,192,34909,1,0
256,192,34997,5,8
256,192,35173,1,8
256,192,35350,1,8
256,192,35438,1,8
256,192,35526,5,0
256,192,35614,1,0
256,192,35703,1,0
256,192,35879,1,0
256,192,36232,1,0
256,192,36409,5,8
256,192,36585,5,0
256,192,36761,5,8
256,192,36850,1,8
256,192,36938,5,0
256,192,37114,5,8
256,192,37203,1,8
256,192,37291,5,0
256,192,37379,1,0
256,192,37467,5,8
256,192,37820,5,0
256,192,37997,5,8
256,192,38350,1,8
256,192,38526,2,0,B|256:16|432:16,1,280
256,192,39409,5,0
256,192,39585,5,8
256,192,39761,1,8
256,192,39850,1,8
256,192,39938,5,0
256,192,40114,1,0
256,192,40291,5,8
256,192,40467,5,0
256,192,40556,1,0
256,192,40644,5,8
256,192,40820,5,0
256,192,40997,5,8
256,192,41173,5,0
256,192,41350,5,8
256,192,41526,1,8
256,192,41703,5,4
256,192,42585,5,8
256,192,42761,1,8
256,192,43114,5,4
256,192,43467,5,8
256,192,43644,5,0
256,192,43820,1,0
256,192,44173,5,8
256,192,44526,5,0
256,192,44879,5,8
256,192,45056,5,0
256,192,45232,1,0
256,192,45409,5,8
256,192,45585,1,8
256,192,45938,5,0
256,192,46291,5,8
256,192,46467,1,8
256,192,46820,1,8
256,192,46997,5,0
256,192,47173,5,8
256,192,47350,5,4
256,192,47703,1,4
256,192,48056,5,12
256,192,48409,1,12
256,192,48761,1,12
256,192,49114,5,0
256,192,49291,5,8
256,192,49644,5,0
256,192,49820,5,8
256,192,50173,5,0
256,192,50350,5,8
256,192,50438,1,8
256,192,50526,1,8
256,192,50703,1,8
256,192,50879,5,0
256,192,51056,5,8
256,192,51232,1,8
256,192,51585,12,0,54056
256,192,54409,5,4
256,192,55114,1,4
256,192,55820,5,12
256,192,55997,5,0
256,192,56173,1,0
256,192,56350,5,8
256,192,56526,5,0
256,192,56703,5,8
256,192,57056,1,8
256,192,57232,5,4
256,192,57409,5,8
256,192,57585,5,0
256,192,57673,1,0
256,192,57761,5,8
256,192,57938,5,0
256,192,58114,5,8
256,192,58203,1,8
256,192,58291,5,0
256,192,58467,1,0
256,192,58644,5,8
256,192,58820,5,0
256,192,58997,5,8
256,192,59085,1,8
256,192,59173,5,0
256,192,59350,5,8
256,192,59526,5,0
256,192,59614,1,0
256,192,59703,1,0
256,192,59879,5,8
256,192,60232,5,0
256,192,60409,5,8
256,192,60585,5,0
256,192,60761,5,8
256,192,60850,1,8
256,192,60938,5,0
256,192,61114,5,8
256,192,61291,5,0
256,192,61467,1,0
256,192,61644,5,8
256,192,61732,1,8
256,192,61820,1,8
256,192,61997,5,0
256,192,62350,5,8
256,192,62703,1,8
256,192,62879,5,4
256,192,63056,5,8
256,192,63232,5,0
256,192,63320,1,0
256,192,63409,5,8
256,192,63585,5,0
256,192,63761,5,8
256,192,63938,5,0
256,192,64026,5,8
256,192,64114,5,0
256,192,64291,5,8
256,192,64467,5,0
256,192,64556,1,0
256,192,64644,1,0
256,192,64820,5,8
256,192,65173,1,8
256,192,65350,1,8
256,192,65526,5,0
256,192,65703,5,8
256,192,65879,5,0
256,192,65967,1,0
256,192,66056,5,8
256,192,66232,5,0
256,192,66409,5,8
256,192,66497,1,8
256,192,66585,1,8
256,192,66673,1,8
256,192,66761,5,0
256,192,66938,1,4
256,192,67291,5,12
256,192,67467,5,4
256,192,67644,1,4
256,192,67997,5,8
256,192,68350,1,8
256,192,68526,5,4
256,192,68703,5,8
256,192,68879,5,0
256,192,68967,1,0
256,192,69056,5,8
256,192,69232,5,0
256,192,69409,5,8
256,192,69585,5,0
256,192,69673,1,0
256,192,69761,5,8
256,192,69938,1,8
256,192,70114,1,8
256,192,70203,1,8
256,192,70291,5,0
256,192,70467,1,0
256,192,70820,1,0
256,192,70997,1,0
256,192,71173,5,8
256,192,71350,1,8
256,192,71526,5,0
256,192,71614,1,0
256,192,71703,5,8
256,192,71879,5,0
256,192,72056,5,8
256,192,72144,1,8
256,192,72232,5,0
256,192,72409,5,8
256,192,72585,5,0
256,192,72761,1,0
256,192,72938,1,0
256,192,73026,1,0
256,192,73114,5,8
256,192,73291,5,0
256,192,73467,5,8
256,192,73556,1,8
256,192,73644,5,0
256,192,73732,1,0
256,192,73820,1,0
256,192,73997,5,8
256,192,74173,5,4
256,192,74526,5,8
256,192,74703,5,0
256,192,74791,1,0
256,192,74879,1,0
256,192,75056,5,8
256,192,75232,5,0
256,192,75409,5,12
256,192,75761,5,0
256,192,75938,5,8
256,192,76114,5,0
256,192,76291,5,8
256,192,76379,1,8
256,192,76467,5,0
256,192,76644,5,8
256,192,76820,5,0
256,192,76997,5,12
256,192,77173,5,0
256,192,77261,1,0
256,192,77350,5,8
256,192,77526,5,0
256,192,77614,1,0
256,192,77703,5,8
256,192,77879,5,0
256,192,77967,1,0
256,192,78056,5,8
256,192,78232,5,4
256,192,79291,5,12
256,192,79467,1,12
256,192,79820,5,4
256,192,79997,1,0
256,192,80085,1,0
256,192,80173,5,8
256,192,80350,5,0
256,192,80526,1,0
256,192,80703,5,8
256,192,80879,1,8
256,192,81056,5,0
256,192,81409,1,0
256,192,81585,5,8
256,192,81761,5,0
256,192,81938,5,8
256,192,82026,1,8
256,192,82114,5,0
256,192,82291,5,8
256,192,82467,5,0
256,192,82644,5,8
256,192,82820,5,0
256,192,82909,1,0
256,192,82997,1,0
256,192,83173,5,12
256,192,83526,1,12
256,192,83879,2,4,B|256:16|432:16,1,280
256,192,84761,1,12
256,192,84938,1,12
256,192,85291,5,4
256,192,85467,12,0,88291
