osu file format v9

[General]
AudioFilename: CHANGE!!!!.mp3
AudioLeadIn: 2000
PreviewTime: 56614
Countdown: 0
SampleSet: Soft
StackLeniency: 0.7
Mode: 0
LetterboxInBreaks: 0

[Editor]
DistanceSpacing: 1.1
BeatDivisor: 8
GridSize: 4

[Metadata]
Title:CHANGE!!!! (TV Size)
Artist:765PRO ALLSTARS
Creator:Netsukawa
Version:Vicho's Insane
Source:THE iDOLM@STER
Tags:Amami Haruka Kisaragi Chihaya Hagiwara Yukiho Takatsuki Yayoi Akiduki Ritsuko Minase Iori Miura Azusa Hutami Ami Mami Kikuchi Makoto Hoshii Miki Ganaha Hibiki Shijou Takane Suzully aabc271 S_i_R_i_R_u SiRiRu Vicho-kun opening

[Difficulty]
HPDrainRate:7
CircleSize:4
OverallDifficulty:7
ApproachRate:8
SliderMultiplier:1.7
SliderTickRate:1

[Events]
//Background and Video events
Video,0,"CHANGE!!!!.avi"
0,0,"BG.jpg"
//Break Periods
//Storyboard Layer 0 (Background)
//Storyboard Layer 1 (Fail)
//Storyboard Layer 2 (Pass)
//Storyboard Layer 3 (Foreground)
//Storyboard Sound Samples
//Background Colour Transformations
3,100,163,162,255

[TimingPoints]
204.753931523991,352.941176470588,4,2,0,80,1,0
762,352.941176470588,4,2,0,75,1,0
806,-100,4,2,1,75,0,0
1114,-100,4,2,0,75,0,0
1511,-100,4,2,1,75,0,0
1820,-100,4,2,0,75,0,0
2217,-100,4,2,1,75,0,0
2526,-100,4,2,0,75,0,0
3982,-100,4,2,1,75,0,0
4291,-100,4,2,0,75,0,0
5041,-100,4,2,1,75,0,0
5350,-100,4,2,0,75,0,0
5747,-100,4,2,1,75,0,0
5879,-100,4,2,0,75,0,0
5923,-100,4,2,1,75,0,0
6056,-100,4,2,0,75,0,0
6453,-100,4,2,1,75,0,0
6761,-100,4,2,0,75,0,0
7159,-100,4,2,1,75,0,0
7467,-100,4,2,0,75,0,0
7864,-100,4,2,1,75,0,0
7997,-100,4,2,0,75,0,0
8350,-100,4,2,1,75,0,0
8526,-100,4,2,0,75,0,0
9276,-100,4,2,1,75,0,0
9585,-100,4,2,0,75,0,0
9629,-100,4,2,1,75,0,0
9938,-100,4,2,0,75,0,0
10644,-100,4,2,1,85,0,0
47526,-100,4,1,0,40,0,0
48585,-100,4,2,1,65,0,0
54232,-100,4,2,1,85,0,0
57232,-100,4,2,1,85,0,1
67820,-100,4,2,1,85,0,0
68526,-100,4,2,1,85,0,1
79820,-100,4,2,1,85,0,0
85379,-100,4,2,1,5,0,0
88291,-100,4,2,1,5,0,0

[Colours]
Combo1 : 255,158,62
Combo2 : 196,248,86
Combo3 : 99,145,252
Combo4 : 255,94,174
Combo5 : 255,255,98
SliderBorder : 255,255,255

[HitObjects]
72,320,204,1,2
256,288,557,1,2
256,288,762,6,0,B|352:280|384:176,1,170,4|8
480,200,1291,1,0
480,200,1467,2,0,B|384:184|360:88,1,170,8|8
280,48,1997,1,0
264,144,2173,6,0,B|184:200|184:288,1,170,8|8
96,320,2703,1,0
40,240,2879,1,8
56,144,3056,1,0
128,80,3232,1,8
216,120,3409,5,0
216,120,3585,1,8
304,80,3761,1,0
304,80,3938,2,0,B|392:120|400:216,1,170,8|8
440,296,4467,1,0
360,348,4644,1,8
320,264,4820,1,0
244,320,4997,6,0,B|154:280|147:179,1,170,8|8
188,104,5526,1,0
116,44,5703,2,0,B|80:16|32:20,2,85,8|0|8
188,104,6232,1,0
264,160,6409,6,0,B|436:160,1,170,4|8
472,312,6938,1,0
472,312,7114,2,0,B|300:312,1,170,8|8
208,284,7644,1,0
144,216,7820,6,0,B|120:176|76:168,1,85,8|0
80,40,8173,1,8
80,40,8350,2,0,B|104:80|148:88,1,85,0|8
236,56,8703,1,0
268,144,8879,1,8
360,144,9056,1,0
360,144,9232,6,0,B|436:188|436:288,2,170,4|8|4
360,144,10114,1,4
124,184,10467,1,4
168,268,10644,6,0,B|232:340|336:316,1,170,0|2
448,144,11350,2,0,B|384:72|280:96,1,170,0|2
208,128,11879,1,0
120,92,12056,5,4
132,184,12232,1,0
132,184,12320,1,0
132,184,12409,1,8
164,272,12585,1,0
248,312,12761,5,0
272,320,12850,1,0
296,320,12938,1,0
320,312,13026,1,0
336,304,13114,1,8
352,280,13203,1,0
360,256,13291,1,0
360,232,13379,1,0
352,212,13467,1,0
344,120,13644,6,0,B|368:84|416:80,1,85,0|8
264,172,13997,2,0,B|228:148|224:100,1,85
144,40,14350,1,0
76,112,14526,1,8
80,204,14703,1,0
72,228,14791,1,0
76,252,14879,5,4
156,304,15056,2,0,B|200:316|240:292,1,85,0|8
312,352,15409,2,0,B|340:320|332:268,1,85
264,208,15761,1,0
264,208,15938,1,8
292,120,16114,1,0
292,120,16203,1,0
292,120,16291,1,0
468,56,16644,1,8
468,56,16820,1,8
464,148,16997,5,0
464,168,17085,1,0
460,188,17173,1,0
448,208,17261,1,0
432,224,17350,1,8
412,232,17438,1,0
396,248,17526,1,0
384,264,17614,1,0
376,284,17703,5,12
304,340,17879,1,12
220,172,18232,2,0,B|152:112|60:124,2,170,12|8|12
256,192,19026,12,2,20129
256,192,20350,5,0
256,192,20438,1,0
256,192,20526,1,4
264,284,20703,1,0
264,284,20879,1,8
356,300,21056,6,0,B|400:316|420:356,2,85,0|0|0
348,208,21585,1,8
312,120,21761,2,0,B|260:52|164:48,1,170
124,132,22291,2,0,B|116:176|72:204,1,85,8|0
28,280,22644,1,0
96,344,22820,5,0
96,344,22909,1,0
96,344,22997,1,8
148,264,23173,1,0
236,300,23350,2,0,B|284:300|312:332,1,85,0|0
404,356,23703,2,0,B|444:332|452:284,1,85,8|0
472,196,24056,5,0
408,128,24232,1,0
408,128,24320,1,0
408,128,24409,1,8
332,184,24585,2,0,B|252:152|236:48,1,170
144,52,25114,5,8
132,144,25291,2,0,B|56:188|44:292,1,170
96,360,25820,1,8
168,300,25997,1,0
256,328,26173,1,0
256,52,26526,5,8
380,192,26879,1,0
400,96,27056,2,0,B|424:56|472:48,2,85,2|8|4
396,284,27761,5,0
312,324,27938,2,0,B|264:316|240:276,1,85,8|0
92,296,28291,2,0,B|140:304|164:344,2,85,0|0|8
56,208,28820,1,0
56,208,28909,1,0
56,208,28997,6,0,B|144:184|168:88,1,170,4|8
368,76,29526,2,0,B|280:100|256:196,1,170
240,284,30056,1,8
316,340,30232,1,0
392,288,30409,2,0,B|436:296|464:336,2,85,0|0|8
352,204,30938,6,0,B|267:167|259:71,1,170,4|0
72,60,31467,2,0,B|156:96|164:192,1,170,4|4
168,288,31997,6,0,B|124:296|100:336,2,85,0|8|0
260,268,32526,1,0
332,328,32703,1,0
332,328,32791,1,0
332,328,32879,1,8
408,272,33056,2,0,B|476:208|452:104,1,170
324,40,33585,2,0,B|256:104|280:208,1,170,8|0
240,280,34114,6,0,B|168:324,1,85,0|8
40,284,34467,2,0,B|112:240,1,85
136,140,34820,1,0
208,68,34997,1,8
288,128,35173,2,0,B|312:164|360:172,1,85
392,300,35526,1,0
392,300,35614,1,0
392,300,35703,2,0,B|368:264|320:256,1,85,8|0
224,272,36056,6,0,B|176:352|76:344,1,170,0|8
56,252,36585,2,0,B|80:212|68:168,1,85
172,44,36938,2,0,B|148:84|160:128,1,85,0|8
236,180,37291,1,0
296,108,37467,6,0,B|364:48|460:76,1,170,4|0
496,292,37997,2,0,B|432:352|332:324,1,170,4|0
479,198,38526,2,0,B|388:172|320:232,1,170,4|0
248,296,39056,1,0
156,276,39232,1,0
120,188,39409,5,0
120,188,39497,1,0
120,188,39585,1,2
172,108,39761,2,0,B|216:88|232:44,1,85,0|2
368,44,40114,2,0,B|324:64|308:108,1,85,0|4
444,324,40644,1,8
444,324,40820,2,0,B|380:260|284:268,1,170
236,188,41350,2,0,B|284:112|384:104,1,170,8|4
192,80,42056,6,0,B|144:155|51:162,2,170,2|4|2
276,40,42938,1,0
276,40,43114,6,0,B|360:76|368:176,1,170,4|0
384,264,43644,2,0,B|444:328,1,85
308,340,43997,2,0,B|248:276,1,85,0|8
184,212,44350,1,0
92,232,44526,2,0,B|32:168|60:68,1,170
151,54,45056,2,0,B|211:118|183:218,1,170
220,300,45585,1,8
300,132,45938,6,0,B|391:132|442:209,1,170,0|0
368,344,46467,2,0,B|276:343|225:266,1,170,0|0
188,180,46997,1,8
96,192,47173,1,0
96,192,47261,1,0
96,192,47350,5,2
256,40,47703,1,0
416,192,48056,1,0
256,344,48409,1,0
55,350,48761,6,0,B|36:256|96:192,1,170,4|0
256,40,49291,2,0,B|275:134|215:198,1,170,4|0
256,284,49820,2,0,B|352:296|408:216,2,170,4|0|2
327,48,50879,2,0,B|232:36|180:112,1,170,0|2
88,276,51585,5,4
88,276,51761,1,0
168,324,51938,1,0
236,260,52114,2,0,B|324:244|396:316,1,170,4|0
480,280,52644,1,0
480,188,52820,1,0
388,164,52997,5,4
388,164,53173,2,0,B|296:156|244:72,2,170,0|4|0
480,188,54056,1,4
256,324,54409,5,8
80,64,55114,1,8
432,64,55820,5,8
348,104,55997,2,0,B|316:132|312:180,1,85,8|8
328,272,56350,1,8
256,332,56526,1,0
168,304,56703,2,0,B|88:256|96:152,1,170,2|2
32,88,57232,6,0,B|96:152|208:128,1,170,4|8
256,64,57761,1,0
256,64,57938,1,0
344,96,58114,1,0
344,96,58203,1,0
344,96,58291,1,8
384,184,58467,1,0
360,272,58644,6,0,B|312:344|208:328,1,170,0|8
80,192,59173,2,0,B|128:120|232:136,1,170,0|0
320,168,59703,1,8
340,260,59879,2,0,B|356:304|416:312,1,85
476,248,60232,5,0
476,248,60320,1,0
476,248,60409,1,8
416,176,60585,1,0
440,88,60761,1,0
416,176,60938,1,0
328,208,61114,1,8
256,272,61291,5,0
256,272,61467,1,8
160,288,61644,1,0
120,272,61732,1,0
96,232,61820,1,0
56,152,61997,2,0,B|84:56|183:42,1,170,8|0
256,96,62526,1,8
256,96,62703,1,0
337,43,62879,6,0,B|428:56|456:152,1,170,4|8
400,228,63409,1,0
304,216,63585,2,0,B|216:240|176:328,1,170,0|8
88,328,64114,1,0
80,232,64291,6,0,B|64:184|16:168,2,85,0|0|8
176,216,64820,2,0,B|244:152|216:48,1,170
304,24,65350,1,8
380,80,65526,1,0
380,80,65703,1,4
344,168,65879,1,0
344,168,65967,1,0
344,168,66056,1,8
372,256,66232,1,0
300,316,66409,2,0,B|268:344|220:336,1,85,0|8
152,272,66761,5,0
152,272,66938,2,0,B|136:184|44:140,1,170,12|0
56,48,67467,1,8
148,60,67644,2,0,B|220:12|320:44,1,170,8|0
400,68,68173,1,8
436,156,68350,1,0
436,156,68526,6,0,B|352:200|356:300,1,170,4|8
264,328,69056,1,0
208,252,69232,1,0
128,204,69409,1,0
116,184,69497,1,0
112,164,69585,1,8
144,76,69761,1,0
228,36,69938,5,0
260,124,70114,1,0
280,136,70203,1,0
300,140,70291,1,8
388,116,70467,6,0,B|456:172|436:276,1,170
412,360,70997,1,8
344,296,71173,2,0,B|276:236|184:252,1,170
96,280,71703,1,8
24,340,71879,1,0
96,280,72056,5,0
116,188,72232,1,0
116,188,72320,1,0
116,188,72409,1,8
160,104,72585,1,0
252,88,72761,6,0,B|332:40|416:88,2,170,4|8|0
220,176,73644,1,0
220,176,73732,1,0
220,176,73820,1,8
252,264,73997,1,0
252,264,74173,6,0,B|332:312|416:264,1,170,4|8
452,180,74703,1,0
432,84,74879,1,0
344,52,75056,1,0
344,52,75144,1,0
344,52,75232,1,8
284,124,75409,6,0,B|228:192|128:180,1,170,4|0
44,148,75938,1,8
116,88,76114,1,0
132,180,76291,2,0,B|192:244|172:348,2,170,4|8|4
116,88,77173,5,2
116,88,77261,1,0
116,88,77350,1,8
204,120,77526,1,2
204,120,77614,1,0
204,120,77703,1,2
280,68,77879,5,2
296,56,77967,1,0
316,48,78056,1,8
336,48,78144,1,0
356,52,78232,1,4
424,116,78409,6,0,B|360:172|368:276,1,170,0|2
312,348,78938,1,0
220,324,79114,2,0,B|124:320|76:236,1,170,0|8
72,152,79644,1,0
164,140,79820,6,0,B|256:128|296:32,1,170,4|8
444,116,80350,2,0,B|352:128|312:224,1,170
316,244,80791,1,0
324,272,80879,1,8
320,300,80967,1,0
304,324,81056,1,0
212,348,81232,5,0
144,284,81409,2,0,B|124:240|80:228,1,85,0|8
96,92,81761,2,0,B|116:136|160:148,1,85
204,152,82026,2,0,B|244:128,3,42.5,0|0|0|8
324,88,82467,5,2
416,96,82644,1,4
324,88,82820,1,4
256,268,83173,2,0,B|164:256|100:324,2,170,4|4|4
256,52,84761,5,8
256,52,84938,1,8
256,192,85291,1,4
256,192,85379,12,0,88291
