osu file format v9

[General]
AudioFilename: CHANGE!!!!.mp3
AudioLeadIn: 2000
PreviewTime: 56614
Countdown: 0
SampleSet: Soft
StackLeniency: 0.7
Mode: 0
LetterboxInBreaks: 0

[Editor]
DistanceSpacing: 0.8
BeatDivisor: 4
GridSize: 4

[Metadata]
Title:CHANGE!!!! (TV Size)
Artist:765PRO ALLSTARS
Creator:Netsukawa
Version:Suzully's Normal
Source:THE iDOLM@STER
Tags:Amami Haruka Kisaragi Chihaya Hagiwara Yukiho Takatsuki Yayoi Akiduki Ritsuko Minase Iori Miura Azusa Hutami Ami Mami Kikuchi Makoto Hoshii Miki Ganaha Hibiki Shijou Takane Suzully aabc271 S_i_R_i_R_u SiRiRu Vicho-kun opening

[Difficulty]
HPDrainRate:3
CircleSize:3
OverallDifficulty:3
ApproachRate:5
SliderMultiplier:1.1
SliderTickRate:1

[Events]
//Background and Video events
Video,0,"CHANGE!!!!.avi"
0,0,"BG.jpg"
//Break Periods
//Storyboard Layer 0 (Background)
//Storyboard Layer 1 (Fail)
//Storyboard Layer 2 (Pass)
//Storyboard Layer 3 (Foreground)
//Storyboard Sound Samples
//Background Colour Transformations
3,100,163,162,255

[TimingPoints]
204.753931523991,352.941176470588,4,2,0,80,1,0
762,352.941176470588,4,2,0,75,1,0
10644,-100,4,2,2,85,0,0
27761,-100,4,2,1,85,0,0
27938,-100,4,2,2,85,0,0
29350,-100,4,2,1,85,0,0
29526,-100,4,2,2,85,0,0
29703,-100,4,2,1,85,0,0
30056,-100,4,2,2,85,0,0
31291,-100,4,2,1,85,0,0
31467,-100,4,2,2,85,0,0
38173,-100,4,2,1,85,0,0
38526,-100,4,2,2,85,0,0
40997,-100,4,2,1,85,0,0
41350,-100,4,2,2,85,0,0
43467,-100,4,2,1,85,0,0
47703,-100,4,2,2,85,0,0
57232,-100,4,2,2,85,0,1
60761,-100,4,2,1,85,0,1
62879,-100,4,2,2,85,0,1
67820,-100,4,2,2,85,0,0
68526,-100,4,2,2,85,0,1
74879,-100,4,2,1,85,0,1
78232,-100,4,2,2,85,0,1
79820,-100,4,2,2,85,0,0
80173,-100,4,2,1,85,0,0
82644,-100,4,2,2,85,0,0
84232,-100,4,2,1,85,0,0
84761,-100,4,2,2,85,0,0
88291,-100,4,2,2,5,0,0

[Colours]
Combo1 : 255,158,62
Combo2 : 196,248,86
Combo3 : 99,145,252
Combo4 : 255,94,174
Combo5 : 255,255,98
SliderBorder : 255,255,255

[HitObjects]
0,200,204,2,0,B|132:200,1,110,2|0
132,244,762,2,0,B|264:288|316:164,1,220,4|0
256,104,1820,1,2
198,169,2173,2,0,B|248:288|380:244,1,220,0|0
424,168,3232,1,2
372,96,3585,6,0,B|152:96,2,220,0|2|0
424,168,5350,1,2
372,240,5703,2,0,B|260:240,1,110,0|2
180,276,6409,6,0,B|108:272|108:112|180:108,1,220,4|0
256,156,7467,1,2
328,108,7820,2,0,B|400:112|400:272|328:276,1,220
256,328,8879,1,2
184,276,9232,5,4
184,276,9409,1,0
184,144,9938,1,4
184,144,10114,2,0,B|184:120|184:120|176:100|176:100|192:72|192:72|184:40,1,110,0|4
256,192,10556,12,0,14526
252,72,14879,6,0,B|112:72|112:208,1,220,4|0
152,284,15938,1,8
208,216,16291,2,0,B|240:216|256:192|256:192|276:216|308:216,2,110,0|8|0
152,284,17350,1,8
208,352,17703,5,4
208,352,17879,1,0
296,352,18232,2,0,B|416:352,2,110,4|4|4
256,192,19026,12,0,20129
332,200,20526,6,0,B|332:264|256:284|176:260|180:192,1,220,4|0
128,128,21585,1,8
128,128,21938,2,0,B|72:228,2,110,0|8|0
172,52,22997,1,8
260,48,23350,6,0,B|492:48,2,220,2|0|2
172,48,25114,1,8
108,108,25467,1,0
108,196,25820,1,8
168,260,26173,6,0,B|168:376,2,110,2|8|2
292,312,27409,2,0,B|376:352|460:308,1,165,4|8
396,244,28291,2,0,B|360:188|400:136,1,110,2|8
451,71,28997,6,0,B|376:32|292:72,2,165,2|2|8
396,140,30409,2,0,B|432:190|396:242,1,110,2|8
396,288,30938,2,0,B|232:288,1,165,4|12
144,288,31820,6,0,B|72:284|72:124|144:120,1,220,4|0
232,120,32879,1,8
320,132,33232,2,0,B|320:204|248:204,2,110,2|8|0
392,80,34291,1,8
452,144,34644,6,0,B|424:192|424:192|456:244,1,110,2|8
488,320,35350,2,0,B|440:348|440:348|388:316,1,110,2|8
320,272,36056,2,0,B|272:244|272:244|220:276,1,110,2|8
148,316,36761,1,0
72,272,37114,1,8
72,184,37467,6,0,B|72:12,2,165,4|4|4
288,336,39585,2,0,B|288:224,1,110,2|8
376,224,40291,6,0,B|424:212|424:100|376:88,2,165,2|0|8
288,224,41703,1,4
216,272,42056,2,0,B|176:324|216:376,2,110,8|0|8
288,224,43114,6,0,B|360:220|360:60|288:56,1,220,4|0
228,120,44173,1,8
228,120,44526,2,0,B|224:192|64:192|60:120,1,220,2|0
144,92,45585,1,8
144,92,45938,6,0,B|144:208|144:208|144:272|212:300,1,220,2|0
280,316,46997,1,8
368,316,47350,1,0
452,292,47703,2,0,B|475:249|475:249|471:226|471:226|492:191,2,110,4|4|4
368,316,48761,6,0,B|252:316,1,110,4|0
256,272,49291,2,0,B|140:272,1,110,4|0
144,228,49820,2,0,B|28:228,1,110,4|2
32,140,50526,1,8
108,92,50879,1,0
184,140,51232,1,8
256,192,51585,12,4,54409
256,360,55114,5,4
256,184,55820,2,0,B|256:124,1,55,4|0
256,84,56173,2,0,B|256:28,2,55,0|0|4
404,180,57232,6,0,B|468:252|396:352|312:324,1,220,4|0
256,272,58291,1,8
186,327,58644,2,0,B|116:344|44:252|108:180,1,220,2|0
172,124,59703,1,8
248,80,60056,6,0,B|432:80,2,165,2|0|8
172,124,61467,2,0,B|108:208|184:288,1,165,2|0
248,324,62350,2,0,B|368:324,1,110,2|0
404,324,62879,6,0,B|476:320|476:160|404:156,1,220,4|0
316,156,63938,1,8
316,244,64291,2,0,B|312:316|152:316|148:244,1,220,2|0
148,156,65350,1,8
148,68,65703,6,0,B|376:68,2,220,2|0|2
88,132,67467,1,8
88,220,67820,1,2
148,284,68173,1,8
212,344,68526,6,0,B|316:392|432:340,1,220,4|0
464,264,69585,1,8
380,244,69938,2,0,B|392:180|464:176,2,110,2|8|0
296,264,70997,1,8
212,244,71350,6,0,B|184:120|52:120,1,220,2|0
4,192,72409,1,8
16,280,72761,2,0,B|84:280|104:352,1,110,2|8
188,344,73467,2,0,B|264:344|280:276,1,110,2|8
276,204,74173,5,4
200,160,74526,2,0,B|124:216|40:156,1,165,8|2
48,72,75409,2,0,B|124:16|208:76,1,165,2|8
280,116,76291,1,0
368,116,76644,1,8
256,192,76997,12,4,78232
256,288,79114,6,0,B|256:172,1,110,2|8
208,104,79820,2,0,B|136:40|52:92,2,165,4|0|8
304,104,81232,2,0,B|392:20|512:88,1,220,2|0
508,172,82291,1,8
468,248,82644,5,4
468,248,82820,2,0,B|340:248,2,110,4|4|4
440,332,83879,2,0,B|156:332,1,275,4|4
120,332,84938,1,4
256,192,85291,12,0,88291
