osu file format v9

[General]
AudioFilename: CHANGE!!!!.mp3
AudioLeadIn: 2000
PreviewTime: 56614
Countdown: 0
SampleSet: Soft
StackLeniency: 0.7
Mode: 0
LetterboxInBreaks: 0

[Editor]
DistanceSpacing: 1
BeatDivisor: 4
GridSize: 8

[Metadata]
Title:CHANGE!!!! (TV Size)
Artist:765PRO ALLSTARS
Creator:Netsukawa
Version:S i R i R u's Insane
Source:THE iDOLM@STER
Tags:Amami Haruka Kisaragi Chihaya Hagiwara Yukiho Takatsuki Yayoi Akiduki Ritsuko Minase Iori Miura Azusa Hutami Ami Mami Kikuchi Makoto Hoshii Miki Ganaha Hibiki Shijou Takane Suzully aabc271 S_i_R_i_R_u SiRiRu Vicho-kun opening

[Difficulty]
HPDrainRate:7
CircleSize:4
OverallDifficulty:7
ApproachRate:8
SliderMultiplier:1.8
SliderTickRate:2

[Events]
//Background and Video events
Video,0,"CHANGE!!!!.avi"
0,0,"RuRu.jpg"
//Break Periods
2,12256,19776
//Storyboard Layer 0 (Background)
//Storyboard Layer 1 (Fail)
//Storyboard Layer 2 (Pass)
//Storyboard Layer 3 (Foreground)
//Storyboard Sound Samples
//Background Colour Transformations
3,100,163,162,255

[TimingPoints]
204.753931523991,352.941176470588,4,2,0,80,1,0
762,352.941176470588,4,2,1,75,1,0
938,-153.846153846153,4,2,0,40,0,0
3409,-100,4,2,1,60,0,0
3761,-100,4,2,0,40,0,0
6409,-100,4,2,1,80,0,0
10644,-100,4,2,1,30,0,0
12056,-100,4,2,1,70,0,0
43114,-153.846153846153,4,2,1,60,0,0
47526,-153.846153846153,4,1,0,40,0,0
48761,-153.846153846153,4,2,1,40,0,0
55997,-153.846153846153,4,2,1,70,0,0
56703,-153.846153846153,4,2,1,80,0,0
57232,-100,4,2,1,80,0,1
62173,-153.846153846153,4,2,1,60,0,1
62879,-100,4,2,1,80,0,1
64556,-100,4,2,2,60,0,1
64732,-100,4,2,1,80,0,1
67644,-153.846153846153,4,2,1,80,0,1
67820,-153.846153846153,4,2,1,80,0,0
68526,-100,4,2,1,80,0,1
79820,-100,4,2,1,80,0,0
82644,-100,4,2,1,60,0,0
83703,-100,4,2,1,80,0,0
84056,-100,4,2,1,50,0,0
84761,-100,4,2,1,80,0,0
85467,-100,4,2,1,5,0,0

[Colours]
Combo1 : 255,158,62
Combo2 : 196,248,86
Combo3 : 99,145,252
Combo4 : 255,94,174
Combo5 : 255,255,98
SliderBorder : 255,255,255

[HitObjects]
456,312,762,1,8
376,272,1114,1,8
288,272,1467,1,8
288,272,1820,1,8
328,192,2173,6,8,B|328:136|328:136|328:88|280:72,1,116.999997907877
240,152,2879,1,8
240,152,3232,1,8
160,192,3409,5,8
160,192,3585,1,8
104,264,3938,1,8
160,336,4291,1,8
216,264,4644,1,8
216,264,4820,1,0
216,264,4997,2,0,B|408:264,1,180,8|8
396,264,5526,1,2
448,192,5879,1,2
448,192,6056,1,8
448,192,6232,1,2
224,96,6409,6,0,B|272:72|328:104|336:168|296:200,1,180,4|8
264,280,6938,1,0
208,208,7114,2,0,B|144:208|128:280,1,90
192,328,7467,1,8
264,280,7644,1,0
208,208,7820,1,0
336,96,7997,6,0,B|408:80|472:128|480:192,2,180,2|2|2
384,184,8879,1,8
384,184,9056,1,0
304,240,9232,5,2
144,320,9585,1,8
240,168,9938,1,2
152,144,10114,1,2
296,32,10467,1,2
256,192,10644,12,4,12056
56,104,20526,5,4
144,128,20703,2,0,B|224:48,2,90,0|8|0
160,216,21232,1,0
160,216,21320,1,0
160,216,21409,2,0,B|120:264|136:312|168:336|160:320,1,90,0|8
232,328,21761,1,0
248,240,21938,5,0
408,184,22114,1,0
240,152,22291,1,8
400,96,22467,1,0
328,152,22644,6,0,B|296:56,2,90,0|0|8
240,152,23173,1,0
168,208,23350,2,0,B|144:264|192:312,1,90
352,283,23703,2,0,B|296:264|264:296,1,90,8|0
416,344,24056,2,0,B|472:336|480:272,1,90
416,224,24409,1,8
416,224,24585,1,0
352,112,24761,6,0,B|280:48,1,90
248,136,25114,2,0,B|328:208,1,90,8|0
424,112,25467,2,0,B|352:48,1,90
176,136,25820,2,0,B|256:208,1,90,8|0
328,192,26173,6,0,B|376:216|368:312|320:336|288:328,1,180,4|8
160,240,26703,1,0
208,320,26879,2,0,B|152:352|96:304,1,90
122,322,27232,1,8
120,160,27409,6,0,B|160:136|232:160|248:200|248:248,1,180,4|0
72,240,27938,1,8
32,160,28114,2,0,B|32:96|96:72,2,90
120,160,28644,1,8
120,160,28820,1,0
192,88,28997,6,0,B|216:48|240:40|240:40|352:40,1,180,4|8
304,120,29526,2,0,B|400:120|400:120|440:136|448:168|448:192,1,180,4|2
360,208,30056,1,2
280,312,30232,1,2
224,192,30409,1,2
144,304,30585,1,2
280,312,30761,1,2
224,104,30938,5,4
224,104,31467,1,4
352,64,31820,5,4
424,120,31997,1,0
344,152,32173,2,0,B|360:208|432:208,2,90,8|0|0
280,216,32703,2,0,B|216:224|224:312,1,90,0|8
312,296,33056,2,0,B|408:296,2,90,0|0|0
312,296,33585,1,8
232,344,33761,5,0
152,272,33938,1,0
184,168,34114,1,0
120,80,34291,1,8
56,168,34467,1,0
208,88,34644,6,0,B|240:56|296:64|344:88|352:144,1,180,0|8
296,208,35173,1,0
376,314,35350,2,0,B|312:328|272:280,1,90
296,208,35703,1,8
296,208,35879,1,0
384,168,36056,6,0,B|448:104,1,90
128,216,36409,2,0,B|64:280,1,90,8|0
424,168,36762,2,0,B|488:104,1,90
88,216,37114,2,0,B|24:280,1,90,8|0
152,328,37467,6,0,B|224:328|224:328|256:312|256:312|344:312,1,180,4|8
288,232,37997,2,0,B|344:232|344:232|416:256|416:312|408:336|392:360,1,180,4|0
407,325,38526,1,4
448,152,38879,5,0
368,104,39056,1,0
288,56,39232,1,0
288,144,39409,1,2
208,96,39585,1,2
288,56,39762,1,2
288,144,39938,1,8
288,232,40114,5,0
288,232,40203,1,0
288,232,40291,2,0,B|264:288|184:296|144:288|120:272,1,180,4|0
184,200,40820,2,0,B|112:176|104:128|96:72|128:40,1,180,4|0
208,56,41350,5,4
296,56,41703,1,4
464,112,42056,5,2
432,112,42409,1,2
400,112,42762,1,2
256,216,43114,6,0,B|384:216,1,116.999997907877,4|0
448,184,43644,2,0,B|464:240|432:280|408:296,1,116.999997907877
336,304,44173,1,2
88,80,44526,2,0,B|88:144|88:144|104:184|128:192,1,116.999997907877
176,128,45056,1,0
200,208,45232,1,0
88,328,45585,1,2
352,72,45938,6,0,B|480:72,1,116.999997907877
376,152,46467,2,0,B|248:152,1,116.999997907877
200,208,46997,1,2
320,320,47350,1,0
88,64,47703,5,0
88,72,48056,1,0
88,80,48409,1,0
256,144,48762,6,0,B|328:152|352:208,1,116.999997907877,4|0
272,232,49291,2,0,B|216:272|248:352,1,116.999997907877,4|0
192,200,49820,2,0,B|128:224|80:184,2,116.999997907877,4|0|2
192,200,50879,1,2
192,200,51232,1,2
384,80,51585,5,4
144,128,52114,1,4
192,288,52467,1,0
264,248,52644,1,0
272,168,52820,1,0
352,160,52997,5,4
424,200,53173,2,0,B|448:256|416:312,2,116.999997907877,0|4|0
424,200,54056,1,4
464,72,54409,5,8
160,192,55114,1,8
464,312,55820,1,8
464,224,55997,6,8,B|400:192,1,58.4999989539385
360,136,56350,2,8,B|320:184,1,58.4999989539385
264,120,56703,1,2
264,120,57056,1,2
184,272,57232,6,0,B|136:296|80:264|72:200|112:168,1,180,4|8
264,232,57762,1,0
272,320,57938,2,0,B|336:320|352:248,1,90
264,232,58291,1,8
256,144,58467,1,0
336,96,58644,6,0,B|408:80|472:128|480:192,1,180,0|8
384,184,59173,2,0,B|416:232|400:304|368:328|328:352,1,180
384,184,59703,1,8
384,184,59879,1,0
304,240,60056,5,2
192,128,60232,1,2
112,272,60409,1,8
264,312,60585,1,2
152,200,60762,1,2
72,344,60938,1,2
160,344,61114,5,8
160,344,61291,2,0,B|216:248,2,90
112,272,61820,1,8
24,272,61997,1,4
256,104,62350,6,0,B|280:72|336:64|376:88,1,116.999997907877,2|2
328,168,62879,5,4
424,296,63056,1,0
344,256,63232,2,0,B|264:312,2,90,8|0|0
328,168,63762,2,0,B|384:144|432:216,1,90,0|8
344,256,64114,1,0
256,232,64291,1,0
216,152,64467,6,0,B|120:104|120:104|74:90|32:128,1,180,0|0
104,192,64997,1,0
64,272,65173,1,0
104,192,65350,2,0,B|176:248,1,90,8|0
136,328,65703,2,0,B|184:352|224:336|272:304|264:232,1,180,0|8
336,192,66232,5,0
432,96,66409,1,2
304,48,66585,1,2
360,280,66938,5,4
136,136,67291,1,2
80,208,67467,1,2
136,280,67644,6,0,B|200:280,1,58.4999989539385,2|0
208,200,67997,2,0,B|328:200,1,116.999997907877,2|2
392,136,68526,5,4
320,80,68703,1,0
232,72,68879,1,8
320,80,69056,1,0
392,136,69232,2,0,B|440:152|448:192|448:192|448:288,1,180,0|8
368,240,69762,1,0
368,328,69938,6,0,B|312:312|248:352|176:320,1,180,0|8
144,56,70467,2,0,B|200:72|264:32|336:64,1,180
288,240,70997,2,0,B|248:224|232:248|176:232,1,90,8|0
224,144,71350,2,0,B|264:160|280:136|336:152,1,90
376,208,71703,5,8
440,264,71879,1,0
456,176,72056,2,0,B|472:128|440:88,1,90
376,208,72409,2,0,B|344:248|360:304,1,90,8|0
440,264,72762,5,2
128,56,73114,1,8
384,328,73467,1,2
312,272,73644,1,2
224,272,73820,1,8
176,200,73997,1,2
264,192,74173,6,0,B|264:144|224:112|160:88|120:136,2,180,4|8|0
176,200,75056,2,0,B|128:224|80:192,1,90,0|8
224,272,75409,2,0,B|272:304|336:280|360:240|352:192,2,180,2|2|2
176,200,76291,1,2
448,56,76644,1,8
176,200,76997,1,4
288,72,77350,5,8
352,136,77526,1,0
352,224,77703,1,0
272,184,77879,2,0,B|248:280,1,90,0|8
168,312,78232,5,4
288,72,78762,1,0
288,72,79114,1,0
352,136,79291,1,0
440,120,79467,1,2
352,136,79644,1,2
272,176,79820,6,0,B|168:224|168:224|136:264|144:320,1,180,4|8
232,288,80350,2,0,B|400:208,1,180
424,352,80879,1,8
472,272,81056,2,0,B|504:232|504:160|496:128|472:96,1,180
392,128,81585,1,8
312,88,81762,1,0
232,128,81938,1,0
312,176,82114,1,0
384,272,82291,5,0
296,272,82467,1,0
216,312,82644,1,0
176,232,82820,1,0
176,48,83173,5,8
176,48,83526,1,8
296,184,83879,1,4
256,192,84056,12,8,84762
256,272,84938,5,4
256,104,85291,1,8
256,192,85467,12,0,88291
