osu file format v9

[General]
AudioFilename: CHANGE!!!!.mp3
AudioLeadIn: 2000
PreviewTime: 56614
Countdown: 0
SampleSet: Soft
StackLeniency: 0.7
Mode: 0
LetterboxInBreaks: 0

[Editor]
DistanceSpacing: 0.8
BeatDivisor: 4
GridSize: 8

[Metadata]
Title:CHANGE!!!! (TV Size)
Artist:765PRO ALLSTARS
Creator:Netsukawa
Version:Hard
Source:THE iDOLM@STER
Tags:Amami Haruka Kisaragi Chihaya Hagiwara Yukiho Takatsuki Yayoi Akiduki Ritsuko Minase Iori Miura Azusa Hutami Ami Mami Kikuchi Makoto Hoshii Miki Ganaha Hibiki Shijou Takane Suzully aabc271 S_i_R_i_R_u SiRiRu Vicho-kun opening

[Difficulty]
HPDrainRate:5
CircleSize:4
OverallDifficulty:5
ApproachRate:7
SliderMultiplier:1.3
SliderTickRate:1

[Events]
//Background and Video events
Video,0,"CHANGE!!!!.avi"
0,0,"BG.jpg"
//Break Periods
//Storyboard Layer 0 (Background)
//Storyboard Layer 1 (Fail)
//Storyboard Layer 2 (Pass)
//Storyboard Layer 3 (Foreground)
//Storyboard Sound Samples
//Background Colour Transformations
3,100,163,162,255

[TimingPoints]
204.753931523991,352.941176470588,4,2,0,80,1,0
762,352.941176470588,4,2,0,75,1,0
10644,-100,4,2,2,85,0,0
26173,-100,4,2,1,75,0,0
26526,-100,4,2,2,85,0,0
27409,-100,4,2,1,85,0,0
27761,-100,4,2,2,85,0,0
29350,-100,4,2,1,85,0,0
29526,-100,4,2,2,85,0,0
30938,-100,4,2,1,85,0,0
32350,-100,4,2,2,85,0,0
43997,-100,4,2,1,85,0,0
44173,-100,4,2,2,85,0,0
57232,-100,4,2,2,85,0,1
57585,-100,4,2,1,85,0,1
57761,-100,4,2,2,85,0,1
67820,-100,4,2,2,85,0,0
68526,-100,4,2,2,85,0,1
79820,-100,4,2,2,85,0,0
85379,-100,4,2,2,35,0,0
88291,-100,4,2,2,5,0,0

[Colours]
Combo1 : 255,158,62
Combo2 : 196,248,86
Combo3 : 99,145,252
Combo4 : 255,94,174
Combo5 : 255,255,98
SliderBorder : 255,255,255

[HitObjects]
408,192,204,1,2
280,192,557,1,2
280,192,762,6,0,B|208:208|144:240,1,130,12|8
192,136,1467,2,0,B|264:128|312:64,1,130,8|8
352,56,1997,1,2
400,64,2173,5,8
416,168,2526,1,8
376,200,2703,2,0,B|320:240|312:328,1,130,2|2
264,336,3232,2,0,B|200:368,2,65,8|2|8
224,240,3938,1,8
256,136,4291,1,8
176,64,4644,1,8
128,56,4820,6,0,B|56:48,1,65,2|8
112,144,5350,2,0,B|184:152,2,65,8|2|8
64,152,5879,1,0
24,184,6056,1,8
8,232,6232,6,0,B|16:272|0:312,1,65,2|12
88,352,6761,2,0,B|88:312|112:264,1,65,8|0
144,264,7114,2,0,B|216:240|240:176,1,130,8|8
264,136,7644,1,2
312,112,7820,5,12
360,104,7997,2,4,B|496:104,2,130,2|8|8
328,200,9056,2,0,B|368:200|416:216,1,65,2|12
312,280,9585,1,8
272,376,9938,2,0,B|248:352|232:312,1,65,12|4
224,216,10467,1,4
256,192,10644,12,4,12056
256,192,12585,12,4,14879
128,224,15232,6,0,B|80:272,2,65,8|0|2
176,200,15761,1,0
232,200,15938,1,8
280,216,16114,2,0,B|328:240,2,32.5,0|0|2
344,136,16644,6,8,B|368:160|416:168,1,65,8|0
488,136,16997,1,2
432,64,17173,2,0,B|400:40|352:40,1,65,0|8
320,40,17526,5,0
320,40,17703,2,4,B|256:64,1,65,4|12
160,40,18232,2,0,B|152:112|232:168,1,130,4|8
212,152,18938,1,12
256,192,19026,12,2,20129
416,248,20526,5,4
416,248,20703,2,0,B|376:240|336:256,1,65,0|8
304,280,21056,1,0
256,304,21232,1,2
208,304,21409,2,0,B|128:312|64:256,1,130,2|2
56,224,21938,1,2
56,224,22114,2,0,B|56:176|24:136,2,65,0|8|0
160,208,22820,5,0
160,208,22997,2,0,B|160:136|208:88,1,130,8|2
248,56,23526,1,0
296,40,23703,1,8
344,40,23879,1,0
392,48,24056,2,0,B|456:72,2,65,2|0|8
392,104,24585,2,0,B|448:160|448:232,1,130,2|2
448,272,25114,2,0,B|448:352,1,65,8|2
352,296,25644,6,0,B|352:232,2,65,2|8|0
352,296,26173,1,6
256,264,26526,2,0,B|240:192|304:128,1,130,12|2
232,56,27232,5,8
232,56,27409,2,0,B|232:128|160:176,1,130,4|2
144,208,27938,1,8
136,256,28114,1,0
152,304,28291,6,0,B|176:328|224:336,2,65,2|0|8
112,336,28820,1,0
56,336,28997,2,0,B|-16:256|32:128,1,195,4|8
120,120,29879,2,0,B|104:80|72:64,2,65,2|8|0
168,136,30409,2,0,B|240:144|288:88,1,130,2|8
336,88,30938,1,4
472,160,31467,1,4
360,176,31820,5,4
360,176,31997,2,0,B|360:248|448:288,1,130,2|0
400,320,32526,2,0,B|360:312|312:328,1,65,2|0
288,336,32879,1,8
240,344,33056,2,0,B|168:352|112:320,1,130,2|0
72,288,33585,1,8
104,192,33938,6,0,B|80:168|40:160,2,65,2|0|8
152,216,34467,1,0
200,208,34644,1,2
296,160,34997,1,8
344,136,35173,1,0
400,136,35350,2,0,B|472:136,2,65,2|0|8
416,184,35879,2,0,B|472:216|496:296,1,130,2|2
456,320,36409,2,0,B|384:312|328:240,1,130,8|2
296,240,36938,5,0
248,240,37114,1,8
248,240,37291,2,0,B|168:240,1,65,0|6
112,320,37820,2,0,B|184:320,1,65,8|4
112,240,38350,2,0,B|32:240,1,65,8|4
168,72,39232,6,0,B|208:88|232:120,1,65,8|0
256,144,39585,1,2
264,192,39761,1,0
296,232,39938,2,0,B|328:256|344:288,1,65,8|0
376,312,40291,2,0,B|360:208|416:120,1,195,6|4
256,152,41350,2,0,B|168:152,1,65,8|0
191,152,41703,1,6
160,248,42056,6,0,B|88:248|48:320,1,130,8|2
24,216,42761,2,0,B|88:192|104:112,1,130,8|4
192,56,43467,1,0
224,96,43644,2,0,B|304:152|424:104,1,195,2|8
496,176,44526,2,0,B|424:168|368:208,1,130,2|0
296,280,45232,1,2
200,248,45585,5,8
104,288,45938,1,4
104,288,46291,2,0,B|24:288,1,65,0|4
16,160,46997,1,8
120,192,47350,1,4
216,144,47703,2,4,B|264:200|344:208,2,130,4|4|4
232,40,48761,5,4
232,40,49114,2,0,B|296:40,1,65,8|4
368,120,49644,2,0,B|304:120,1,65,8|4
120,216,50526,5,4
120,216,50879,2,0,B|80:280|-8:280,2,130,2|12|4
256,192,51673,12,2,54409
112,192,55114,5,2
360,104,55820,2,0,B|408:112|440:144,1,65,4|0
440,176,56173,2,0,B|480:200|512:200,2,65,0|0|2
400,208,56703,6,0,B|328:176|264:224,1,130,8|8
240,184,57232,2,0,B|128:200|56:104,1,195,4|0
16,112,57938,2,0,B|0:184|40:248,1,130,2|8
64,280,58467,1,0
112,296,58644,5,4
216,296,58997,2,0,B|304:296,1,65,8|2
360,232,59526,1,0
312,224,59703,1,8
272,192,59879,2,0,B|232:136|256:64,1,130,2|0
200,72,60409,2,0,B|192:32|152:0,2,65,8|0|2
176,120,60938,1,0
176,168,61114,1,8
200,216,61291,5,0
240,248,61467,2,0,B|368:248,1,130,2|8
370,248,61997,1,0
424,160,62350,5,8
320,160,62703,1,8
320,160,62879,2,0,B|240:152|192:224,1,130,4|8
200,256,63409,1,0
184,304,63585,2,0,B|152:360|56:352,1,130,2|8
24,328,64114,6,0,B|24:288|0:248,2,65,0|2|8
96,256,64820,2,0,B|64:192|96:112,1,130,2|0
128,96,65350,2,0,B|144:176|216:208,1,130,8|4
248,200,65879,1,2
248,200,66056,2,0,B|320:200,1,65,8|0
408,160,66585,2,0,B|424:192|408:232,1,65,2|8
456,248,66938,6,0,B|432:312|480:376,1,130,4|0
424,384,67467,2,0,B|392:368|368:336,1,65,8|2
344,240,67997,5,8
344,240,68350,2,0,B|264:240,1,65,8|4
272,136,68879,1,8
224,144,69056,1,0
192,184,69232,2,0,B|152:248|208:328,1,130,2|8
144,320,69761,6,0,B|112:296|88:256,1,65,0|4
96,168,70291,1,8
96,168,70467,2,0,B|128:104|96:32,1,130,2|0
144,16,70997,2,0,B|176:48|232:48,1,65,8|0
248,64,71350,1,2
288,96,71526,1,0
312,144,71703,1,8
304,192,71879,2,0,B|280:256|304:320,1,130,2|2
352,336,72409,6,0,B|400:336|440:352,2,65,8|0|4
248,352,73114,1,8
168,280,73467,1,2
144,232,73644,1,0
144,184,73820,1,8
160,136,73997,1,2
280,240,74526,6,0,B|312:176|280:104,1,130,8|2
248,80,75056,1,8
152,40,75409,2,0,B|80:40|32:120,1,130,8|2
72,144,75938,2,0,B|80:184|64:224,1,65,8|0
48,256,76291,5,4
128,328,76644,1,8
216,272,76997,1,4
256,192,77085,12,4,78232
104,216,78761,5,8
104,216,79114,2,0,B|184:216|232:160,1,130,2|8
256,136,79644,1,2
304,128,79820,2,0,B|360:144|448:120,1,130,6|8
432,123,80350,1,2
256,192,80438,12,2,81938
272,280,82291,5,8
224,288,82467,1,2
176,280,82644,2,0,B|144:224|56:208,1,130,4|8
24,192,83173,2,0,B|8:120|64:64,1,130,4|8
128,152,83879,1,4
384,152,84761,5,8
384,152,84938,1,8
256,192,85291,1,4
256,192,85379,12,0,88291
