osu file format v9

[General]
AudioFilename: CHANGE!!!!.mp3
AudioLeadIn: 2000
PreviewTime: 56614
Countdown: 0
SampleSet: Soft
StackLeniency: 0.7
Mode: 0
LetterboxInBreaks: 0

[Editor]
Bookmarks: 12056
DistanceSpacing: 0.8
BeatDivisor: 4
GridSize: 8

[Metadata]
Title:CHANGE!!!! (TV Size)
Artist:765PRO ALLSTARS
Creator:Netsukawa
Version:Easy
Source:THE iDOLM@STER
Tags:Amami Haruka Kisaragi Chihaya Hagiwara Yukiho Takatsuki Yayoi Akiduki Ritsuko Minase Iori Miura Azusa Hutami Ami Mami Kikuchi Makoto Hoshii Miki Ganaha Hibiki Shijou Takane Suzully aabc271 S_i_R_i_R_u SiRiRu Vicho-kun opening

[Difficulty]
HPDrainRate:2
CircleSize:3
OverallDifficulty:2
ApproachRate:3
SliderMultiplier:0.7
SliderTickRate:1

[Events]
//Background and Video events
Video,0,"CHANGE!!!!.avi"
0,0,"BG.jpg"
//Break Periods
2,19137,19439
//Storyboard Layer 0 (Background)
//Storyboard Layer 1 (Fail)
//Storyboard Layer 2 (Pass)
//Storyboard Layer 3 (Foreground)
//Storyboard Sound Samples
//Background Colour Transformations
3,100,163,162,255

[TimingPoints]
204.753931523991,352.941176470588,4,2,0,80,1,0
762,352.941176470588,4,2,0,75,1,0
10644,-100,4,2,2,85,0,0
10644,-100,4,2,1,85,0,0
15938,-100,4,2,1,85,0,0
18585,-100,4,2,2,85,0,0
20879,-100,4,2,1,85,0,0
29350,-100,4,2,2,85,0,0
29703,-100,4,2,1,85,0,0
34644,-100,4,2,2,85,0,0
38879,-100,4,2,1,85,0,0
39232,-100,4,2,2,85,0,0
41173,-100,4,2,1,85,0,0
41703,-100,4,2,2,85,0,0
44173,-100,4,2,1,85,0,0
45232,-100,4,2,2,85,0,0
51232,-100,4,2,1,85,0,0
51585,-100,4,2,2,85,0,0
55467,-100,4,2,1,85,0,0
55820,-100,4,2,2,85,0,0
57232,-100,4,2,2,85,0,1
59173,-100,4,2,1,85,0,1
62879,-100,4,2,2,85,0,1
66409,-100,4,2,1,85,0,1
67820,-100,4,2,1,85,0,0
68526,-100,4,2,2,85,0,1
74879,-100,4,2,1,85,0,1
79820,-100,4,2,2,85,0,0
81938,-100,4,2,1,85,0,0
83879,-100,4,2,2,85,0,0
85114,-100,4,2,1,85,0,0
85291,-100,4,2,2,85,0,0
88291,-100,4,2,1,5,0,0

[Colours]
Combo1 : 255,158,62
Combo2 : 196,248,86
Combo3 : 99,145,252
Combo4 : 255,94,174
Combo5 : 255,255,98
SliderBorder : 255,255,255

[HitObjects]
144,208,762,1,12
224,288,1467,2,8,B|296:272|320:192,2,140
112,272,3585,5,8
64,168,4291,1,8
96,56,4997,2,8,B|240:56,2,140,8|8|12
160,152,7114,6,8,B|8:152,2,140
272,152,9232,2,8,B|424:152,2,140,12|8|4
256,192,11350,12,4,14879
352,224,15938,6,8,B|312:288|216:280,1,140
120,280,17350,1,8
72,152,18232,6,8,B|112:88|192:88,1,140,8|4
376,200,20879,6,8,B|376:352,2,140
280,144,22997,2,8,B|208:176|192:264,1,140
96,304,24409,1,8
96,192,25114,6,8,B|160:144|168:72,2,140
208,192,27232,1,8
240,192,27409,2,0,B|424:192,1,175,4|2
464,88,28997,2,0,B|240:88,1,210,2|8
128,152,30938,5,4
128,232,31467,1,4
224,296,32173,6,8,B|408:296,2,175,8|2|2
264,192,34644,2,0,B|184:192|128:144,2,140,6|2|2
224,88,36761,6,0,B|368:88,1,140,2|4
440,128,37997,1,4
480,200,38526,2,0,B|384:256|272:216,1,210,4|2
232,320,40291,5,4
152,312,40820,2,4,B|40:296|16:200,1,175
48,104,42409,6,0,B|120:128|144:208,1,140,2|4
224,216,43644,1,0
304,200,44173,2,0,B|448:200,2,140,8|2|2
200,104,46467,5,2
344,104,47350,2,0,B|488:104,2,140,4|4|4
272,144,49291,1,4
224,216,49820,1,4
336,224,50526,2,0,B|456:232|496:360,1,210,4|4
256,192,51673,12,2,54409
328,312,55114,6,2,B|176:312,1,140,2|4
64,240,56703,1,2
56,160,57232,5,4
152,104,57938,2,0,B|304:104,1,140,2|2
344,120,58997,6,0,B|424:120|472:56,2,140,8|8|8
288,128,60761,2,0,B|288:200,1,70,2|8
248,240,61467,2,0,B|96:240,1,140,2|2
8,192,62879,5,4
56,88,63585,1,2
168,88,64291,2,0,B|312:88,2,140,2|2|4
216,184,66409,2,0,B|104:184,2,105,2|8|2
384,184,68526,6,0,B|464:200|480:280,1,140,4|2
368,296,69938,2,0,B|288:288|264:216,1,140,0|2
160,256,71350,2,0,B|8:256,2,140,2|2|2
200,152,73467,5,2
280,72,74173,2,8,B|464:72,2,175,6|8|8
168,72,76644,1,8
256,192,76997,12,4,79820
192,320,80879,5,8
96,264,81585,2,8,B|152:208|136:120,1,140
184,32,82997,6,0,B|272:64|296:168,1,175,8|4
424,216,84761,2,0,B|424:96,1,105,8|4
256,192,85379,12,0,88291
