osu file format v9

[General]
AudioFilename: Sound Holic feat. 709.sec - Draw the Line.mp3
AudioLeadIn: 0
PreviewTime: 65189
Countdown: 0
SampleSet: Soft
StackLeniency: 0.7
Mode: 0
LetterboxInBreaks: 1

[Editor]
Bookmarks: 16294,46620,76212,78739
DistanceSpacing: 1.1
BeatDivisor: 4
GridSize: 8

[Metadata]
Title:Draw the Line
Artist:709sec.
Creator:Ch1ka
Version:Normal
Source:Touhou
Tags:yukari yakumo necrofantasia phantasm reiji-rj sound holic onosakihito

[Difficulty]
HPDrainRate:4
CircleSize:3
OverallDifficulty:4
ApproachRate:4
SliderMultiplier:0.9
SliderTickRate:1

[Events]
//Background and Video events
Video,0,"SOUND HOLIC feat. 709sec. - Draw the line.avi"
0,0,"BG.jpg"
//Break Periods
//Storyboard Layer 0 (Background)
//Storyboard Layer 1 (Fail)
//Storyboard Layer 2 (Pass)
//Storyboard Layer 3 (Foreground)
//Storyboard Sound Samples
//Background Colour Transformations
3,100,163,162,255

[TimingPoints]
2919,324.324324324324,4,2,0,51,1,0
11675,-100,4,1,0,60,0,0
12973,-100,4,1,0,50,0,0
54486,-100,4,2,0,62,0,0
57405,-100,4,1,0,50,0,0
59675,-100,4,1,0,50,0,0
63729,-100,4,1,0,51,0,0
65831,324.324324324324,4,1,0,51,1,1
86912,-100,4,2,0,50,0,0
90155,-100,4,1,0,50,0,0
110101,-100,4,1,0,0,0,0

[Colours]
Combo1 : 152,11,164
Combo2 : 240,0,0
Combo3 : 253,74,235

[HitObjects]
304,296,2918,2,0,B|365:292|357:226,1,90,4|0
360,140,3567,2,0,B|366:86|305:82,1,90,0|0
208,84,4216,2,0,B|146:87|154:153,1,90,2|0
152,244,4864,2,0,B|145:297|206:301,1,90
256,216,5513,5,4
304,304,5837,2,2,B|361:286|374:225,1,90
464,280,6486,2,2,B|501:240|483:175,1,90
400,144,7135,1,0
376,48,7459,2,2,B|329:19|279:48,1,90
256,136,8108,5,4
160,152,8432,2,0,B|121:195|174:244,1,90
216,320,9081,2,0,B|259:359|308:305,1,90
344,232,9729,2,0,B|385:195|346:151,1,90
256,112,10378,1,4
256,112,10702,5,4
184,184,11027,1,2
256,256,11351,1,2
328,184,11675,1,0
256,112,12000,5,8
184,240,12486,1,8
336,240,12973,1,8
400,160,13297,5,0
376,64,13621,2,0,C|328:32,1,45,0|8
240,24,14108,1,0
184,104,14432,1,8
184,200,14756,2,0,B|232:232,3,45,0|0|0|8
360,336,15891,5,0
424,256,16216,2,0,C|424:200,1,45,0|8
368,128,16702,1,0
272,152,17027,1,8
200,216,17351,2,0,B|144:216,3,45,0|0|0|8
104,24,18486,6,0,B|168:24,1,45,4|0
160,64,18810,2,0,B|224:64,1,45,0|8
256,144,19297,2,0,B|256:208,1,45
256,240,19621,1,8
256,336,19946,2,0,B|301:336,1,45,0|0
256,336,20270,2,0,B|208:336,1,45,0|8
128,280,20756,5,0
128,232,20918,1,8
256,40,21891,1,0
256,40,22054,1,8
256,40,22216,1,0
440,200,23027,1,0
440,296,23351,1,4
256,192,23675,12,8,25946
256,192,26270,12,4,28540
64,168,28864,5,8
120,88,29189,1,8
168,80,29351,2,0,B|208:48|272:80,1,90,0|0
240,168,30000,2,0,B|280:200|336:168,1,90,0|0
416,80,30648,1,0
416,176,30973,1,0
416,176,31135,1,0
344,248,31459,5,8
248,248,31783,2,0,B|192:248,1,45,8|0
152,160,32270,2,0,B|152:104|216:104,1,90,0|0
304,104,32918,2,0,B|360:112|360:168,1,90,0|0
408,248,33567,2,0,B|408:296,1,45
328,344,34054,5,8
256,272,34378,1,8
256,224,34540,1,0
256,128,34864,1,0
224,24,35189,2,0,C|184:64,1,45,0|0
288,24,35675,2,0,C|328:56,1,45,0|0
256,128,36162,2,0,B|256:183,1,45,0|0
192,248,36648,5,8
128,176,36973,2,0,B|87:190|55:237|77:292|127:314,1,180,8|0
224,320,37946,1,8
320,312,38270,2,0,B|368:290|390:235|358:188|318:173,1,180,8|0
248,112,39243,6,0,B|231:74|190:58|154:82|143:113,1,135,8|0
192,248,40216,1,0
104,288,40540,2,0,B|96:224|168:224,1,90
232,168,41189,2,0,B|168:160|168:232,1,90
232,288,41837,6,8,B|304:336|368:280,1,135,8|0
296,152,42810,1,0
376,96,43135,2,0,B|288:40|200:104,1,180,0|2
56,192,44432,38,8,C|208:192,1,135,8|0
384,160,45567,2,0,C|416:128,1,45,0|8
384,224,46054,2,0,C|416:264,1,45,0|8
336,192,46540,2,0,C|288:192,1,45,0|8
256,288,47027,5,8
168,248,47351,2,0,B|168:184,1,45,8|0
360,48,48324,1,8
448,96,48648,2,0,B|448:160,1,45,8|0
448,288,49297,6,0,B|400:304|360:240,1,90,8|8
256,160,50108,1,0
120,112,50594,5,8
208,72,50918,1,0
256,160,51243,1,8
304,72,51567,1,0
392,112,51891,1,8
384,208,52216,5,0
256,128,52702,1,0
128,208,53189,2,0,B|248:288|400:200,1,270
312,104,54810,6,0,B|256:32|192:112,1,135,0|2
256,240,55783,1,0
312,320,56108,2,0,B|256:392|200:320,1,135,0|2
256,184,57081,1,0
256,88,57405,5,12
368,192,57891,1,12
256,296,58378,1,0
144,192,58864,2,8,L|88:192,3,45,0|0|4|2
256,64,60000,5,8
256,160,60324,2,0,B|256:312,1,135
288,328,60973,1,4
384,328,61297,5,8
384,232,61621,2,0,B|384:80,1,135
344,64,62270,1,4
248,64,62594,5,8
152,64,62918,2,0,B|152:208,1,135
184,232,63567,1,4
256,280,63891,5,12
184,152,64378,1,12
336,152,64864,1,4
256,24,65831,6,0,B|256:176,1,135,4|0
208,248,66641,1,0
304,248,66966,1,0
400,360,67452,1,8
304,360,67776,1,8
408,192,68425,5,8
280,264,68912,1,0
232,176,69236,1,0
328,176,69560,1,0
280,88,69885,2,0,B|280:32,3,45,8|0|0|8
128,168,71020,6,0,L|128:112,3,45,0|0|0|0
208,168,71830,1,0
304,168,72155,1,0
400,168,72479,2,0,L|400:213,3,45,8|0|0|8
496,200,73290,5,0
488,248,73452,2,0,B|352:384|200:240,1,315
184,208,74749,1,0
256,32,75560,5,4
408,160,76209,5,4
432,256,76533,2,0,L|368:256,1,55,8|0
376,344,77020,1,0
280,344,77344,1,0
256,200,77830,1,8
256,104,78155,1,8
256,296,78803,5,8
168,256,79128,1,0
56,160,79614,1,8
136,104,79939,1,0
216,160,80263,2,0,L|216:208,3,45,8|0|0|8
384,96,81398,6,0,L|384:51,3,45,4|0|0|0
384,152,82209,1,0
368,200,82371,1,0
336,232,82533,1,0
256,288,82858,2,0,L|200:304,3,45,8|0|0|8
56,208,83668,6,4,L|104:208,1,45,0|4
448,208,84966,6,4,L|400:208,1,45,0|4
208,56,85939,5,0
160,144,86263,1,0
256,144,86587,1,4
248,240,86912,6,2,B|304:240,2,45
208,272,87398,2,2,B|208:328,2,45
168,240,87885,2,2,B|112:240,2,45
208,208,88371,2,2,B|208:160,3,45
236,134,89020,2,4,B|243:36|339:4|435:36|440:152,1,315,4|2
456,184,90317,1,2
456,280,90641,1,2
456,280,90803,1,2
264,336,91452,6,8,B|336:264,1,90,0|2
328,176,92101,2,8,B|264:112,1,90,0|2
168,112,92749,2,8,B|104:175,1,90,0|8
104,272,93398,2,8,B|167:335,1,90,0|8
256,296,94047,1,8
256,296,94209,1,8
208,152,94695,1,4
304,152,95020,1,4
256,296,95506,5,8
256,200,95830,1,8
256,104,96155,2,8,B|256:40,3,45,0|0|0|2
336,120,96966,6,0,B|416:248,1,135,0|8
456,144,97776,2,0,B|408:64,1,90,0|8
256,48,98587,5,8
256,144,98912,1,8
256,240,99236,1,8
312,320,99560,6,4,B|208:320,1,90,4|8
200,272,100047,2,4,B|112:272,1,90,4|8
32,192,100695,1,4
128,192,101020,6,8,L|360:192,1,225
352,96,102155,2,4,B|347:-9|251:-41|155:-9|149:88,1,315,4|8
256,312,104101,1,4
448,272,104749,6,4,B|448:184,1,90,4|0
408,152,105236,1,0
328,88,105560,1,0
256,152,105885,1,4
112,192,106371,5,8
64,280,106695,1,0
160,280,107020,1,8
256,304,107344,2,4,L|391:304,1,135,4|0
256,192,108155,12,4,110101
