osu file format v9

[General]
AudioFilename: Sound Holic feat. 709.sec - Draw the Line.mp3
AudioLeadIn: 0
PreviewTime: 65189
Countdown: 0
SampleSet: Normal
StackLeniency: 0.7
Mode: 0
LetterboxInBreaks: 1

[Editor]
DistanceSpacing: 1.2
BeatDivisor: 4
GridSize: 8

[Metadata]
Title:Draw the Line
Artist:709sec.
Creator:Ch1ka
Version:Hard
Source:Touhou
Tags:yukari yakumo necrofantasia phantasm reiji-rj sound holic onosakihito

[Difficulty]
HPDrainRate:6
CircleSize:4
OverallDifficulty:7
ApproachRate:7
SliderMultiplier:1.4
SliderTickRate:1

[Events]
//Background and Video events
Video,0,"SOUND HOLIC feat. 709sec. - Draw the line.avi"
0,0,"BG.jpg"
//Break Periods
//Storyboard Layer 0 (Background)
//Storyboard Layer 1 (Fail)
//Storyboard Layer 2 (Pass)
//Storyboard Layer 3 (Foreground)
//Storyboard Sound Samples
//Background Colour Transformations
3,100,163,162,255

[TimingPoints]
2919,324.324324324324,4,1,0,51,1,0
12973,-100,4,1,0,51,0,0
28054,-200,4,1,0,50,0,0
28540,-100,4,1,0,0,0,0
28621,-100,4,1,0,42,0,0
54810,-100,4,2,0,60,0,0
65831,324.324324324324,4,1,0,46,1,1
87885,-200,4,1,0,46,0,0
90479,-100,4,1,0,46,0,0
110102,-100,4,1,0,0,0,0

[Colours]
Combo1 : 152,11,164
Combo2 : 240,0,0
Combo3 : 253,74,235

[HitObjects]
256,192,2918,5,4
240,272,3243,1,0
176,328,3567,1,0
96,312,3891,1,0
80,232,4216,1,0
112,160,4540,1,8
192,136,4864,1,0
256,192,5189,1,0
256,192,5513,5,4
272,272,5837,1,0
336,328,6162,1,0
416,312,6486,1,0
432,232,6810,1,0
400,160,7135,1,8
320,136,7459,1,0
256,192,7783,1,0
256,192,8108,5,4
176,224,8432,1,0
144,144,8756,1,0
176,64,9081,1,0
256,40,9405,1,0
336,64,9729,1,8
368,144,10054,1,0
336,224,10378,1,0
256,256,10702,5,4
192,192,11027,1,8
256,128,11351,1,0
320,192,11675,1,0
320,280,12000,2,2,B|312:344|256:392|196:344|191:280,1,210
256,88,12973,1,4
144,312,13297,6,0,L|192:256,1,70,4|0
256,224,13621,1,0
256,224,13783,1,8
368,312,14108,2,0,L|320:256,1,70
256,224,14432,1,8
256,88,14756,2,8,L|184:88,1,70,0|8
256,88,15081,2,8,L|328:88,1,70,0|8
176,224,15891,5,8
128,272,16054,1,0
80,224,16216,1,8
128,176,16378,1,0
256,232,16702,1,0
256,160,16864,1,8
256,88,17027,1,0
384,176,17351,1,0
336,224,17513,1,8
384,272,17675,1,0
432,224,17837,1,8
256,264,18486,6,0,L|256:344,3,70,8|0|8|0
192,208,19297,1,0
256,176,19459,1,8
320,208,19621,1,0
256,48,19946,2,0,L|176:48,3,70,0|8|0|8
104,192,20756,5,4
176,192,20918,1,4
400,192,21891,5,4
328,192,22054,1,4
256,192,22216,1,4
32,176,23027,5,4
40,192,23351,1,4
48,208,23675,2,0,B|76:264|132:313|202:320|259:320|315:320|385:313|435:264|480:192,1,490
400,104,25135,2,0,B|320:48,2,70,0|8|0
112,104,25621,2,0,B|192:48,2,70,4|8|4
160,192,26270,5,4
256,96,26594,1,0
256,96,26756,1,4
352,192,27081,1,4
256,288,27405,1,4
160,192,27729,1,2
160,192,27891,1,2
160,192,28054,2,2,B|272:192,1,105
256,88,28864,5,8
160,192,29189,1,8
160,192,29351,1,0
256,288,29675,1,0
360,192,30000,1,0
256,88,30324,1,0
160,192,30648,1,0
256,288,30973,1,0
256,288,31135,1,8
256,144,31459,5,8
392,192,31783,1,8
392,192,31946,1,0
256,240,32270,1,0
120,192,32594,1,0
256,144,32918,1,0
392,192,33243,1,0
384,328,33567,1,0
384,328,33729,1,8
424,192,34054,5,4
424,56,34378,1,0
352,56,34540,1,8
96,64,35189,5,0
96,136,35351,1,8
232,136,35675,1,0
232,64,35837,1,8
368,96,36162,2,0,C|440:96,1,70,0|8
440,232,36648,5,8
304,200,36973,1,0
304,272,37135,1,8
56,136,37783,5,0
128,136,37946,1,8
128,272,38270,1,0
56,272,38432,1,8
256,200,38918,5,8
370,119,39243,2,0,B|506:199|361:279,1,210
256,120,40216,1,8
256,256,40540,1,0
136,192,40864,1,8
256,120,41189,1,0
376,192,41513,1,8
256,192,41837,5,8
256,48,42162,1,0
328,48,42324,1,8
264,176,42648,2,0,C|336:176,2,70,0|0|8
416,176,43621,1,0
416,176,43783,1,8
256,336,44432,5,4
256,192,44756,1,8
256,192,44918,1,2
400,304,45567,2,8,B|400:234,1,70,0|2
256,240,46054,2,8,B|256:170,1,70,0|2
120,144,46540,2,0,C|120:64,1,70,8|2
256,56,47027,5,8
224,192,47351,2,8,B|304:192,1,70,0|2
312,328,48162,2,8,B|312:258,1,70,0|2
158,250,48648,2,0,C|158:180,1,70,8|2
352,104,49297,5,2
352,240,49621,2,0,B|264:320|144:232,1,210
160,96,50594,1,8
159,243,50918,1,0
304,231,51243,2,0,B|376:171|300:115,2,140,8|0|8
160,168,52216,5,8
232,288,52540,1,0
304,288,52702,1,8
448,288,53027,1,8
448,216,53189,1,0
448,144,53351,2,0,B|424:105|389:71|339:66|299:66|259:66|209:71|170:105|150:145,1,350
256,192,54810,5,4
112,192,55135,2,2,C|184:192,1,70
280,88,55621,2,2,C|184:88,1,93.3333333333333
256,192,56108,5,4
400,192,56432,2,2,C|330:192,1,70
232,88,56918,2,2,C|302:88,1,70
256,272,57405,5,0
360,88,57891,1,4
152,88,58378,1,0
184,296,58864,2,2,B|256:296,1,70
325,296,59189,2,4,B|253:296,1,70,0|4
256,192,60000,5,8
208,64,60324,2,2,C|272:120,1,70
168,208,60810,2,2,C|112:160,1,70
256,192,61297,5,8
304,64,61621,2,2,C|240:120,1,70
352,208,62108,2,2,C|408:160,1,70
312,272,62594,5,8
176,304,62918,2,2,B|32:184|184:72,1,280
96,56,63891,5,4
408,56,64378,1,4
256,328,64864,1,4
88,304,65189,2,0,B|64:264,1,35
56,232,65351,1,0
72,192,65432,2,0,B|104:152,1,35,0|4
184,88,65831,6,8,B|256:88,1,70,8|8
323,88,66155,2,8,B|251:88,1,70,8|2
184,208,66641,1,8
256,208,66803,1,0
328,208,66966,1,2
256,328,67290,2,8,B|326:328,1,70,0|8
256,328,67614,2,4,B|186:328,1,70
136,120,68425,6,8,B|136:190,1,70,8|8
137,260,68749,2,8,B|137:190,1,70,8|2
272,224,69236,1,8
272,152,69398,1,0
336,184,69560,1,2
472,192,69885,2,8,B|472:122,1,70,0|8
472,192,70209,2,4,B|472:262,1,70
200,344,71020,5,8
256,304,71182,1,0
200,264,71344,1,8
144,304,71506,1,2
200,176,71830,1,0
128,176,71993,1,8
56,176,72155,1,2
128,56,72479,2,8,B|56:56,1,70,0|8
128,56,72803,2,4,B|198:56,1,70
328,112,73290,6,4,B|368:128|368:184,1,70
256,296,73776,2,0,B|256:224,1,70,0|8
184,112,74263,1,8
184,112,74425,2,4,B|144:128|144:184,2,70
328,192,75074,2,0,B|416:192,2,70,0|8|0
256,192,75560,1,8
184,296,76209,6,8,B|256:296,1,70,8|8
324,295,76533,2,8,B|252:295,1,70,8|2
184,176,77020,1,8
256,176,77182,1,0
328,176,77344,1,2
256,56,77668,2,0,B|326:56,1,70,0|8
256,56,77993,2,4,B|186:56,1,70,4|4
376,120,78803,6,8,B|374:192,1,70,8|8
374,260,79128,2,8,B|374:190,1,70,8|2
240,224,79614,1,8
240,152,79776,1,0
176,184,79939,1,2
40,192,80263,2,8,B|40:122,1,70,8|8
40,192,80587,2,4,B|40:262,1,70,8|4
144,232,81398,5,8
88,192,81560,1,0
144,152,81722,1,8
200,192,81885,1,2
336,192,82209,1,0
408,192,82371,1,8
480,192,82533,1,2
408,72,82858,2,8,B|478:72,1,70
408,72,83182,2,4,B|338:72,1,70
80,96,83668,5,0
80,96,83830,1,4
256,128,84155,2,0,B|184:56,1,70,0|8
256,128,84479,2,0,B|320:64,1,70,0|8
424,96,84966,5,0
424,96,85128,1,4
256,128,85452,2,0,B|256:224,1,70,0|4
256,312,85939,5,4
424,312,86263,1,4
256,192,86587,12,4,87885
144,40,88858,5,4
144,40,89020,2,6,B|296:0|344:136,1,245,4|4
342,131,90317,1,4
216,192,90641,2,4,B|296:192,1,70
184,120,91776,6,0,B|128:64,2,70,2|0|0
328,120,92425,2,0,B|384:72,2,70,2|0|0
256,240,93074,2,0,B|256:320,2,70,4|0|4
256,104,93722,2,0,B|352:104,1,70,2|2
256,104,94047,2,4,B|160:104,1,70
392,80,94695,6,4,B|392:160,2,70,6|4|4
344,280,95506,2,10,B|320:352|184:352|176:264,1,210,8|8
64,192,96317,2,2,B|152:192,2,70
144,72,96966,5,8
216,192,97290,2,0,B|304:192,1,70,0|2
392,288,97776,2,0,B|248:288,1,140,4|4
112,288,98425,5,2
112,288,98587,2,0,B|216:195,1,140,2|2
251,132,99074,1,2
288,192,99236,1,2
373,81,99560,5,0
288,192,99885,2,0,B|200:192,1,70,2|2
120,288,100371,2,0,B|264:288,1,140,4|4
160,192,101020,2,2,B|184:120|256:80|336:112|336:112,1,210,0|0
384,160,101668,2,0,B|408:184,2,35
392,304,102155,6,0,B|240:304,1,140,4|0
252,304,102641,1,0
200,264,102803,1,0
216,192,102966,1,0
288,192,103128,1,0
304,264,103290,1,0
296,48,104101,2,0,B|336:64|336:64|296:72|296:72|336:88|336:88|296:96|296:96|336:112|336:112|296:120|296:120|336:136|336:136,1,280
384,288,105074,6,4,B|480:288,1,70
464,120,105560,1,12
296,120,105885,1,4
384,288,106209,5,2
323,253,106371,1,8
323,325,106533,1,0
264,288,106695,1,2
205,326,106858,1,8
205,254,107020,1,8
142,286,107182,2,0,B|57:287,2,70,0|0|4
143,216,107668,2,4,B|143:138,1,70
256,192,108155,12,0,110101
