osu file format v9

[General]
AudioFilename: Sound Holic feat. 709.sec - Draw the Line.mp3
AudioLeadIn: 0
PreviewTime: 65189
Countdown: 0
SampleSet: Normal
StackLeniency: 0.7
Mode: 0
LetterboxInBreaks: 1

[Editor]
Bookmarks: 16294
DistanceSpacing: 0.9
BeatDivisor: 4
GridSize: 8

[Metadata]
Title:Draw the Line
Artist:709sec.
Creator:Ch1ka
Version:Easy
Source:Touhou
Tags:yukari yakumo necrofantasia phantasm reiji-rj sound holic onosakihito

[Difficulty]
HPDrainRate:2
CircleSize:3
OverallDifficulty:2
ApproachRate:3
SliderMultiplier:0.70000000596046
SliderTickRate:1

[Events]
//Background and Video events
Video,0,"SOUND HOLIC feat. 709sec. - Draw the line.avi"
0,0,"BG.jpg"
//Break Periods
//Storyboard Layer 0 (Background)
//Storyboard Layer 1 (Fail)
//Storyboard Layer 2 (Pass)
//Storyboard Layer 3 (Foreground)
//Storyboard Sound Samples
//Background Colour Transformations
3,100,163,162,255

[TimingPoints]
2919,324.324324324324,4,1,0,50,1,0
34054,-100,4,2,0,51,0,0
45729,-100,4,2,0,81,0,0
46702,-100,4,2,0,51,0,0
54162,-100,4,1,0,41,0,0
59675,-100,4,2,0,61,0,0
63567,-100,4,1,0,45,0,0
65831,324.324324324324,4,1,0,51,1,1
87885,-100,4,1,0,46,0,0
101749,-100,4,1,0,52,0,0
101912,-100,4,1,0,49,0,0
104344,-100,4,1,0,0,0,0
104506,-100,4,1,0,50,0,0
110101,-100,4,1,0,0,0,0

[Colours]
Combo1 : 152,11,164
Combo2 : 240,0,0
Combo3 : 253,74,235

[HitObjects]
256,56,2918,1,4
392,304,4216,1,8
120,304,5513,1,4
384,192,6810,1,8
128,192,8108,5,4
336,328,9405,1,8
336,56,10702,1,4
232,288,12000,5,8
176,368,12486,1,8
120,288,12973,1,8
88,240,13297,6,8,L|88:56,2,175.000001490115,8|0|0
144,264,15243,1,2
160,136,15891,6,8,L|405:136,1,245.000002086161,8|0
456,288,17837,1,2
360,208,18486,6,0,L|112:208,1,245.000002086161,4|0
72,56,20432,1,2
128,80,20756,6,4,B|176:80,1,35.000000298023,0|0
352,80,21891,2,0,B|392:80,2,35.000000298023,0|8|0
256,240,23027,1,4
256,240,23351,1,0
256,192,23675,12,8,25946
256,192,26270,12,4,28540
176,272,28864,6,0,B|144:304|112:304|80:264|80:264,2,105.000000894069
232,248,30162,1,0
280,208,30486,1,8
232,168,30810,1,0
288,136,31135,1,8
344,104,31459,6,0,B|376:72|408:72|440:112|440:112,2,105.000000894069
304,56,32756,2,0,B|256:0,1,70.000000596046,0|8
208,32,33405,2,0,B|136:32,1,70.000000596046,0|12
164,107,34054,6,2,C|260:219,1,140.000001192092
256,72,35351,2,2,C|256:216,1,140.000001192092
348,107,36648,2,2,C|252:219,1,140.000001192092
151,283,37946,2,4,B|263:331|367:275,1,210.000001788138
356,218,39243,6,4,B|253:288|145:215,1,210.000001788138
120,173,40540,2,4,B|120:101,3,70.000000596046,4|2|8|4
152,48,41837,5,8
212,66,42162,2,0,B|273:25|344:66|344:66,1,140.000001192092,2|2
403,41,43135,2,0,B|443:102|403:173|403:173,1,140.000001192092,2|2
408,280,44432,6,4,B|440:360|368:416|280:368,1,210.000001788138
224,368,45729,2,0,B|144:416|56:352|96:272,1,210.000001788138,4|2
72,224,47027,5,2
120,184,47351,2,0,B|104:144|96:112|112:72|128:40,1,140.000001192092,2|8
184,72,48324,2,0,B|196:103|202:128|190:160|177:185,1,105.000000894069,2|8
224,264,49297,6,0,B|216:304|280:304,1,70.000000596046,8|8
328,232,50108,1,4
272,152,50594,1,8
240,96,50918,2,0,B|176:64,1,70.000000596046,0|8
160,128,51567,2,0,B|80:144,1,70.000000596046,0|12
120,200,52216,5,8
24,200,52702,1,0
72,280,53189,2,4,B|176:328|288:280,1,210.000001788138,0|0
408,136,54810,6,0,B|440:56|368:0|280:48,1,210.000001788138,4|0
224,48,56108,2,0,B|144:0|56:64|96:144,1,210.000001788138,0|0
88,192,57405,5,4
160,256,57891,1,4
232,192,58378,1,4
448,224,60000,6,0,B|408:344|280:328,1,210.000001788138
224,328,61297,2,0,B|104:344|64:224,1,210.000001788138,0|0
64,160,62594,2,4,B|96:48|240:48,1,210.000001788138,0|0
256,104,63891,5,4
256,200,64378,1,4
256,296,64864,1,4
72,248,65831,5,4
72,152,66317,1,0
192,120,66966,2,0,B|215:66|255:49|301:66|324:129,1,175.000001490115
216,192,68425,6,0,B|230:224|254:234|282:224|295:186,1,105.000000894069,4|0
256,72,69560,1,8
416,72,70371,1,2
416,200,71020,5,8
384,288,71506,2,0,B|365:330|332:344|296:330|278:280,1,140.000001192092
280,128,72966,1,2
280,32,73452,5,4
376,232,74587,2,4,B|288:306|183:234,1,210.000001788138
168,112,76209,6,8,B|56:112,1,105.000000894069,4|8
64,240,77344,1,8
224,240,78155,1,2
256,120,78803,5,8
312,200,79290,2,8,B|312:344,1,140.000001192092
464,368,80749,1,2
464,240,81398,5,8
392,176,81885,1,8
272,136,82533,2,0,B|265:85|210:58|160:81|149:147,1,175.000001490115,8|0
56,128,83830,6,0,B|104:88|160:136,1,105.000000894069,0|8
128,256,84966,2,0,B|190:307|262:245,1,140.000001192092,0|8
296,200,85939,1,4
200,120,86587,2,0,B|480:120,1,280.000002384184
424,296,89182,6,0,B|352:328,1,70.000000596046,12|0
320,280,89830,2,0,B|240:256,1,70.000000596046
216,312,90479,2,0,B|144:344,1,70.000000596046,8|0
104,296,91128,1,8
64,192,91776,5,2
192,192,92425,1,2
320,192,93074,1,2
448,192,93722,1,2
400,112,94209,5,2
312,80,94695,1,8
248,80,95020,1,4
248,176,95506,2,4,B|152:304|48:176,1,245.000002086161,4|6
80,120,96966,6,4,B|95:77|151:69|207:77|225:122,1,175.000001490115
256,176,98101,1,4
256,272,98587,1,8
192,272,98912,1,8
128,272,99236,1,8
136,336,99560,6,4,B|312:336,1,175.000001490115
352,288,100695,1,4
368,224,101020,2,0,B|350:179|294:171|238:179|216:235,1,175.000001490115,0|4
224,288,102155,6,4,B|48:288,1,175.000001490115
48,224,103290,1,4
136,88,104101,2,4,B|168:56|207:97,1,70.000000596046
240,136,104749,6,4,B|222:181|166:189|110:181|88:125,1,175.000001490115
96,72,105885,1,4
192,64,106371,2,8,B|272:64,1,70.000000596046
312,96,107020,1,8
336,160,107344,6,4,B|440:160,1,105.000000894069
256,192,108155,12,0,110101
