osu file format v12

[General]
AudioFilename: ReRe Hello ~Oware sou ni nai Natsu~.mp3
AudioLeadIn: 1000
PreviewTime: 73305
Countdown: 0
SampleSet: Soft
StackLeniency: 0.7
Mode: 0
LetterboxInBreaks: 1
WidescreenStoryboard: 1

[Editor]
DistanceSpacing: 0.6
BeatDivisor: 4
GridSize: 4

[Metadata]
Title:ReReHello ~Oware sou ni nai Natsu~
TitleUnicode:ReReハロ~終われそうにない夏~
Artist:7!!
ArtistUnicode:7!!
Creator:Azure
Version:ReRe
Source:
Tags:seven oops Sebun Uppusu Minami Touko summer vacation NANAE KEITA
BeatmapID:293934
BeatmapSetID:113287

[Difficulty]
HPDrainRate:7
CircleSize:4
OverallDifficulty:7
ApproachRate:8
SliderMultiplier:1.7
SliderTickRate:2

[Events]
//Background and Video events
0,0,"BG01.jpg",0,0
//Break Periods
//Storyboard Layer 0 (Background)
//Storyboard Layer 1 (Fail)
//Storyboard Layer 2 (Pass)
//Storyboard Layer 3 (Foreground)
//Storyboard Sound Samples
//Background Colour Transformations
3,100,163,162,255

[TimingPoints]
-695,500,4,2,1,30,1,0
1305,-133.333333333333,4,2,1,30,0,0
9305,-100,4,2,1,30,0,0
21305,-100,4,2,1,50,0,1
21430,-100,4,2,1,50,0,0
29305,-133.333333333333,4,2,1,40,0,0
45305,-100,4,2,1,55,0,0
61305,-133.333333333333,4,2,1,45,0,0
73305,-83.3333333333333,4,2,1,60,0,1
97305,-83.3333333333333,4,2,1,50,0,0
101305,-133.333333333333,4,2,1,45,0,0
117305,-100,4,2,1,45,0,0
133305,-133.333333333333,4,2,1,45,0,0
145305,-200,4,2,1,50,0,1
145555,-200,4,2,1,50,0,0
153305,-133.333333333333,4,2,2,50,0,0
153805,-100,4,2,2,50,0,0
154305,-80,4,2,2,50,0,0
154805,-66.6666666666667,4,2,2,50,0,0
155305,-100,4,2,2,50,0,0
168555,-100,4,2,1,50,0,0
169305,-83.3333333333333,4,2,1,65,0,1
193305,-83.3333333333333,4,2,1,60,0,0

[Colours]
Combo1 : 255,223,125
Combo2 : 245,146,175
Combo3 : 142,193,255
Combo4 : 181,218,165
SliderBorder : 255,255,255

[HitObjects]
328,212,1305,2,0,P|360:208|396:196,2,63.7500024318696,0|0|2,0:0|0:0|0:0,0:0:0:0:
232,220,2055,1,0,0:0:0:0:
232,220,2180,2,0,P|208:260|240:300,1,95.6250036478044
232,220,2805,1,2,0:0:0:0:
276,144,3055,1,0,0:0:0:0:
356,104,3305,6,0,P|420:88|456:32,1,127.500004863739,0|2,0:0|0:0,0:0:0:0:
268,80,4055,2,0,P|272:136|320:184,1,127.500004863739,0|0,0:0|0:0,0:0:0:0:
464,264,4805,2,0,L|428:316,1,63.7500024318696,2|0,0:0|0:0,0:0:0:0:
344,344,5305,5,0,0:0:0:0:
280,280,5555,1,0,0:0:0:0:
208,332,5805,1,2,0:0:0:0:
160,256,6055,1,0,0:0:0:0:
160,256,6180,2,0,P|156:208|132:164,1,95.6250036478044
56,120,6805,2,0,P|36:88|28:56,1,63.7500024318696,2|0,0:0|0:0,0:0:0:0:
120,56,7305,6,0,L|248:36,1,127.500004863739,0|2,0:0|0:0,0:0:0:0:
260,124,8055,2,0,P|312:96|336:32,1,127.500004863739,0|0,0:0|0:0,0:0:0:0:
352,192,8805,2,0,L|360:256,1,63.7500024318696,2|0,0:0|0:0,0:0:0:0:
412,340,9305,6,0,P|452:324|500:328,1,85,4|0,1:0|0:0,0:0:0:0:
312,344,9805,2,0,P|272:360|224:356,1,85,0|0,1:0|0:0,0:0:0:0:
204,352,10180,1,0,0:0:0:0:
184,336,10305,2,0,L|136:256,1,85,0|0,1:0|0:0,0:0:0:0:
76,172,10805,1,0,1:0:0:0:
184,204,11055,1,0,0:0:0:0:
88,264,11305,6,0,P|52:284|8:292,2,85,0|0|0,1:0|0:0|1:0,0:0:0:0:
184,112,12055,2,0,L|268:100,1,85,0|0,0:0|1:0,0:0:0:0:
380,128,12555,1,0,0:0:0:0:
464,56,12805,1,0,1:0:0:0:
360,20,13055,1,0,0:0:0:0:
380,128,13305,6,0,L|396:212,1,85,4|0,1:0|0:0,0:0:0:0:
288,104,13805,2,0,L|304:188,1,85,0|0,1:0|0:0,0:0:0:0:
196,64,14305,2,0,L|212:148,1,85,0|0,1:0|0:0,0:0:0:0:
244,300,14805,2,0,P|272:328|324:344,2,85,0|0|4,1:0|0:0|1:0,0:0:0:0:
172,216,15555,1,0,0:0:0:0:
68,180,15805,1,0,1:0:0:0:
88,288,16055,1,0,0:0:0:0:
172,216,16305,2,0,L|256:208,1,85,0|0,1:0|0:0,0:0:0:0:
208,108,16805,2,0,L|292:100,1,85,0|0,1:0|0:0,0:0:0:0:
452,172,17305,6,0,L|368:180,1,85,4|0,1:0|0:0,0:0:0:0:
344,188,17680,1,0,0:0:0:0:
320,200,17805,2,0,P|284:224|240:232,1,85,0|0,1:0|0:0,0:0:0:0:
128,204,18305,1,0,1:0:0:0:
208,108,18555,1,0,0:0:0:0:
216,100,18680,1,0,0:0:0:0:
224,92,18805,2,0,L|296:32,1,85,0|4,1:0|3:0,0:0:0:0:
424,20,19305,5,8,0:0:0:0:
445,197,19555,1,8,0:0:0:0:
323,66,19805,1,8,0:0:0:0:
499,100,20055,1,8,0:0:0:0:
337,176,20305,1,8,0:0:0:0:
337,176,21305,6,0,P|308:208|268:232,1,85
232,120,21805,2,0,P|188:128|140:116,1,85,8|0,0:0|0:0,0:0:0:0:
328,64,22305,2,0,P|372:56|420:68,1,85
500,140,22805,1,8,0:0:0:0:
468,280,23055,1,0,0:0:0:0:
468,280,23305,6,0,P|428:296|384:296,1,85
300,144,23805,2,0,L|328:64,1,85,8|0,0:0|0:0,0:0:0:0:
188,196,24305,2,0,L|216:116,1,85
328,64,24805,1,8,0:0:0:0:
284,232,25055,1,8,0:0:0:0:
284,232,25180,1,0,1:0:0:0:
284,232,25305,6,0,P|264:272|224:292,2,85,0|0|8,0:0|0:0|0:0,0:0:0:0:
216,116,26055,1,0,0:0:0:0:
328,64,26305,2,0,P|364:72|404:124,2,85,0|0|8,0:0|0:0|0:0,0:0:0:0:
216,116,27055,2,0,P|124:116|44:96,1,170,4|0,0:0|0:0,0:0:0:0:
124,4,27805,1,8,0:0:0:0:
148,120,28055,1,0,0:0:0:0:
72,212,28305,2,0,L|56:252,3,42.5,8|8|8|8,0:0|0:0|0:0|0:0,0:0:0:0:
68,280,28805,2,0,L|80:320,3,42.5,4|4|4|4,3:0|1:0|1:0|1:0,0:0:0:0:
96,336,29305,6,0,P|156:344|224:336,1,127.500004863739,4|0,1:0|0:0,0:0:0:0:
272,268,30055,2,0,P|335:260|398:268,1,127.500004863739,0|0,1:0|0:0,0:0:0:0:
468,312,30805,2,0,P|480:276|476:244,1,63.7500024318696,8|0,1:0|0:0,0:0:0:0:
464,148,31305,2,0,P|412:108|376:56,1,127.500004863739,0|0,1:0|0:0,0:0:0:0:
292,104,32055,2,0,P|344:144|380:196,1,127.500004863739,0|0,1:0|0:0,0:0:0:0:
432,276,32805,1,8,3:0:0:0:
348,320,33055,1,0,0:0:0:0:
300,236,33305,6,0,L|168:224,1,127.500004863739,0|0,1:0|0:0,0:0:0:0:
64,176,34055,2,0,L|0:184,2,63.7500024318696,0|0|0,1:0|0:0|0:0,0:0:0:0:
176,132,34805,2,0,L|240:124,1,63.7500024318696,8|0,1:0|0:0,0:0:0:0:
296,40,35305,2,0,P|336:88|336:156,1,127.500004863739,0|0,1:0|0:0,0:0:0:0:
218,242,36055,2,0,P|178:194|178:126,1,127.500004863739,0|0,1:0|0:0,0:0:0:0:
260,120,36805,1,8,3:0:0:0:
344,216,37055,1,0,0:0:0:0:
219,242,37305,6,0,L|156:256,2,63.7500024318696,0|0|0,1:0|0:0|0:0,0:0:0:0:
344,216,38055,2,0,P|404:196|440:144,1,127.500004863739,0|0,1:0|0:0,0:0:0:0:
460,34,38805,2,0,P|481:58|492:88,1,63.7500024318696,8|0,1:0|0:0,0:0:0:0:
388,76,39305,2,0,L|256:64,1,127.500004863739,0|0,1:0|0:0,0:0:0:0:
188,140,40055,2,0,L|314:151,1,127.500004863739,0|0,1:0|0:0,0:0:0:0:
420,184,40805,1,8,3:0:0:0:
492,264,41055,1,0,0:0:0:0:
388,288,41305,1,0,1:0:0:0:
232,356,41805,6,0,L|168:340,1,63.7500024318696,0|0,0:0|1:0,0:0:0:0:
96,268,42305,2,0,L|32:252,1,63.7500024318696
176,200,42805,2,0,L|240:184,1,63.7500024318696,8|0,1:0|0:0,0:0:0:0:
96,124,43305,2,0,L|-28:88,1,127.500004863739,0|0,1:0|0:0,0:0:0:0:
64,28,44055,2,0,L|188:64,1,127.500004863739,0|0,1:0|0:0,0:0:0:0:
256,84,44680,1,8,0:0:0:0:
256,84,44805,2,0,P|240:116|212:132,1,63.7500024318696,8|0,0:0|0:0,0:0:0:0:
112,272,45305,6,0,L|184:220,1,85,4|0,1:0|0:0,0:0:0:0:
296,248,45805,2,0,L|224:300,1,85,8|0,0:0|0:0,0:0:0:0:
396,308,46305,1,0,0:0:0:0:
476,248,46555,1,0,0:0:0:0:
376,184,46805,2,0,P|340:160|296:148,1,85,8|0,0:0|1:0,0:0:0:0:
408,108,47305,2,0,P|452:112|492:108,2,85,0|0|8,1:0|0:0|0:0,0:0:0:0:
272,160,48055,2,0,P|204:208|112:208,1,170
20,148,48805,1,8,0:0:0:0:
24,28,49055,1,0,1:0:0:0:
136,64,49305,6,0,L|224:84,2,85,0|0|8,1:0|0:0|0:0,0:0:0:0:
20,148,50055,2,0,L|56:232,1,85,0|0,0:0|0:0,0:0:0:0:
168,256,50555,2,0,L|132:172,1,85,0|8,0:0|0:0,0:0:0:0:
116,368,51055,1,0,1:0:0:0:
252,344,51305,2,0,P|336:344|420:320,1,170,0|8,1:0|0:0,0:0:0:0:
496,232,52055,2,0,P|488:276|500:320,2,85
464,116,52805,1,8,0:0:0:0:
364,52,53055,1,0,1:0:0:0:
356,172,53305,6,0,P|330:208|296:232,1,85,0|0,1:0|0:0,0:0:0:0:
244,72,53805,2,0,L|272:152,1,85,8|0,0:0|0:0,0:0:0:0:
332,308,54305,2,0,P|372:320|416:320,2,85,0|0|8,0:0|0:0|0:0,0:0:0:0:
224,260,55055,1,0,1:0:0:0:
112,296,55305,2,0,P|72:312|20:316,1,85,0|0,1:0|0:0,0:0:0:0:
56,200,55805,2,0,P|96:184|148:180,1,85,8|0,0:0|0:0,0:0:0:0:
224,260,56305,1,0,0:0:0:0:
138,180,56555,1,0,0:0:0:0:
212,88,56805,1,8,0:0:0:0:
136,0,57055,1,0,1:0:0:0:
212,88,57305,6,0,P|284:124|376:120,1,170,0|8,1:0|0:0,0:0:0:0:
136,180,58305,2,0,L|44:184,1,85
212,88,58805,2,0,L|120:92,1,85,8|0,0:0|1:0,0:0:0:0:
304,76,59305,1,0,1:0:0:0:
396,152,59555,5,0,0:0:0:0:
396,152,59680,1,0,0:0:0:0:
396,152,59805,2,0,P|412:192|412:236,2,85,8|0|0,0:0|1:0|0:0,0:0:0:0:
292,212,60555,1,4,3:0:0:0:
292,212,60680,1,0,1:0:0:0:
292,212,60805,1,4,3:0:0:0:
192,276,61055,1,0,1:0:0:0:
88,324,61305,6,0,L|52:264,1,63.7500024318696,4|0,0:0|0:0,0:0:0:0:
64,244,61680,1,0,0:0:0:0:
64,244,61805,2,0,L|40:184,1,63.7500024318696,0|0,0:0|1:0,0:0:0:0:
48,160,62180,1,0,0:0:0:0:
48,160,62305,2,0,L|40:96,1,63.7500024318696,0|8,0:0|0:0,0:0:0:0:
120,28,62805,6,0,L|128:92,1,63.7500024318696,8|0,0:0|1:0,0:0:0:0:
136,116,63180,1,0,0:0:0:0:
148,136,63305,2,0,P|184:168|278:173,1,127.500004863739,0|0,1:0|0:0,0:0:0:0:
420,88,64055,2,0,L|356:88,1,63.7500024318696,0|0,1:0|0:0,0:0:0:0:
268,64,64555,1,0,0:0:0:0:
352,164,64805,1,8,0:0:0:0:
416,224,65055,6,0,L|492:224,2,63.7500024318696,0|0|0,0:0|1:0|0:0,0:0:0:0:
332,248,65805,1,0,0:0:0:0:
256,296,66055,2,0,P|192:288|128:296,1,127.500004863739,0|0,1:0|0:0,0:0:0:0:
52,336,66805,1,8,0:0:0:0:
36,236,67055,1,0,0:0:0:0:
124,188,67305,6,0,P|184:196|252:184,1,127.500004863739,0|0,1:0|0:0,0:0:0:0:
72,120,68055,2,0,L|4:116,2,63.7500024318696,0|0|8,1:0|0:0|0:0,0:0:0:0:
160,112,68805,1,8,0:0:0:0:
248,96,69055,1,0,0:0:0:0:
336,72,69305,6,0,L|400:92,1,63.7500024318696,4|0,0:0|0:0,0:0:0:0:
360,172,69805,2,0,L|424:192,1,63.7500024318696,0|0,0:0|1:0,0:0:0:0:
308,244,70305,1,8,0:0:0:0:
154,261,70555,1,0,1:0:0:0:
269,157,70805,1,0,1:0:0:0:
236,308,71055,1,0,1:0:0:0:
174,167,71305,1,8,0:0:0:0:
256,192,71430,12,4,72805,3:0:0:0:
272,156,73305,6,0,P|320:152|364:120,1,101.999996887207,4|0,0:0|0:0,0:0:0:0:
280,32,73805,2,0,L|180:64,1,101.999996887207,8|0,0:0|0:0,0:0:0:0:
156,76,74180,1,0,0:0:0:0:
132,92,74305,2,0,P|116:140|80:180,1,101.999996887207,0|0,1:0|0:0,0:0:0:0:
8,80,74805,1,8,0:0:0:0:
116,140,75055,1,0,0:0:0:0:
224,196,75305,6,0,L|328:188,2,101.999996887207,0|0|8,1:0|0:0|0:0,0:0:0:0:
116,248,76055,1,2,0:0:0:0:
16,316,76305,1,2,0:0:0:0:
132,360,76555,1,2,0:0:0:0:
232,288,76805,1,10,0:0:0:0:
204,168,77055,1,2,0:0:0:0:
252,372,77305,5,0,1:0:0:0:
360,296,77555,1,0,0:0:0:0:
360,296,77680,1,0,0:0:0:0:
360,296,77805,2,0,P|408:272|432:232,1,101.999996887207,8|0,0:0|0:0,0:0:0:0:
440,200,78180,2,0,B|452:168|448:136|448:136|400:128|376:92,1,152.999995330811
260,144,78805,2,0,P|308:156|348:188,1,101.999996887207,8|0,0:0|0:0,0:0:0:0:
200,240,79305,6,0,L|160:144,1,101.999996887207,0|0,1:0|0:0,0:0:0:0:
260,144,79805,2,0,L|220:48,2,101.999996887207,8|0|0,0:0|0:0|1:0,0:0:0:0:
340,324,80555,1,0,0:0:0:0:
216,316,80805,1,8,0:0:0:0:
100,352,81055,1,0,0:0:0:0:
136,236,81305,6,0,P|96:200|40:192,1,101.999996887207,0|0,1:0|0:0,0:0:0:0:
49,191,81680,1,0,0:0:0:0:
48,192,81805,2,0,P|92:160|104:112,1,101.999996887207,8|0,0:0|0:0,0:0:0:0:
96,88,82180,2,0,P|156:136|232:136,1,152.999995330811
136,236,82805,2,0,P|124:284|144:340,1,101.999996887207,8|0,0:0|0:0,0:0:0:0:
244,232,83305,6,0,B|280:264|324:256|324:256|360:196|424:196,1,203.999993774414,0|8,1:0|0:0,0:0:0:0:
428,320,84055,1,2,0:0:0:0:
324,256,84305,2,0,P|304:208|308:148,1,101.999996887207,0|2,1:0|0:0,0:0:0:0:
448,64,84805,2,0,P|468:112|464:172,1,101.999996887207,10|2,0:0|0:0,0:0:0:0:
324,256,85305,6,0,L|220:284,1,101.999996887207,0|0,1:0|0:0,0:0:0:0:
350,92,85805,2,0,L|454:64,1,101.999996887207,8|0,0:0|0:0,0:0:0:0:
268,160,86305,2,0,L|164:132,1,101.999996887207,0|0,1:0|0:0,0:0:0:0:
60,80,86805,1,8,0:0:0:0:
160,12,87055,1,0,0:0:0:0:
169,133,87305,6,0,P|144:176|96:204,2,101.999996887207,0|0|8,1:0|0:0|0:0,0:0:0:0:
188,252,88055,2,0,L|160:352,1,101.999996887207,0|0,0:0|1:0,0:0:0:0:
100,202,88555,1,8,0:0:0:0:
188,252,88805,1,8,0:0:0:0:
216,260,88930,1,8,0:0:0:0:
248,264,89055,1,8,0:0:0:0:
280,260,89180,1,8,0:0:0:0:
308,248,89305,1,4,0:0:0:0:
400,168,89555,5,0,0:0:0:0:
280,180,89805,1,8,0:0:0:0:
376,100,90055,1,0,0:0:0:0:
256,112,90305,1,0,1:0:0:0:
348,32,90555,2,0,L|416:8,2,50.9999984436036,0|0|8,0:0|0:0|0:0,0:0:0:0:
256,112,91055,1,0,0:0:0:0:
144,68,91305,6,0,P|92:44|44:40,2,101.999996887207,0|0|8,1:0|0:0|0:0,0:0:0:0:
176,188,92055,1,0,0:0:0:0:
84,268,92305,1,4,3:0:0:0:
80,272,92430,1,4,3:0:0:0:
76,276,92555,2,0,L|24:280,2,50.9999984436036,4|0|4,3:0|0:0|3:0,0:0:0:0:
200,308,93055,1,4,3:0:0:0:
228,324,93180,1,4,3:0:0:0:
256,332,93305,6,0,L|360:324,1,101.999996887207,4|0,0:0|0:0,0:0:0:0:
424,220,93805,2,0,L|320:228,1,101.999996887207,8|0,0:0|0:0,0:0:0:0:
240,136,94305,2,0,L|344:128,1,101.999996887207,0|0,1:0|0:0,0:0:0:0:
156,112,94805,1,8,0:0:0:0:
82,50,95055,1,8,0:0:0:0:
68,184,95305,6,0,L|36:284,2,101.999996887207,0|0|8,1:0|0:0|0:0,0:0:0:0:
82,49,96055,2,0,P|126:69|158:113,1,101.999996887207,0|0,0:0|1:0,0:0:0:0:
292,108,96555,2,0,P|280:164|256:204,1,101.999996887207,0|8,0:0|0:0,0:0:0:0:
160,280,97055,1,8,0:0:0:0:
160,280,97180,1,4,3:0:0:0:
160,280,97305,6,0,L|260:300,1,101.999996887207,4|0,0:0|0:0,0:0:0:0:
152,172,97805,2,0,L|52:152,1,101.999996887207,8|0,0:0|0:0,0:0:0:0:
232,172,98305,1,0,1:0:0:0:
340,116,98555,1,0,0:0:0:0:
392,228,98805,1,8,0:0:0:0:
284,284,99055,1,4,0:0:0:0:
252,92,99555,5,0,0:0:0:0:
364,20,99805,1,8,0:0:0:0:
428,140,100055,1,8,0:0:0:0:
312,200,100305,1,0,1:0:0:0:
296,212,100430,1,0,1:0:0:0:
280,224,100555,1,0,1:0:0:0:
264,236,100680,1,4,3:0:0:0:
244,232,100805,5,4,3:0:0:0:
224,240,100930,1,4,3:0:0:0:
204,248,101055,1,4,3:0:0:0:
184,256,101180,1,4,3:0:0:0:
164,260,101305,6,0,P|104:292|40:304,1,127.500004863739,4|0,1:0|0:0,0:0:0:0:
164,352,102055,2,0,P|224:320|288:308,1,127.500004863739
364,316,102805,2,0,P|384:293|395:261,1,63.7500024318696,8|0,0:0|0:0,0:0:0:0:
352,132,103305,2,0,L|460:204,1,127.500004863739,0|0,1:0|0:0,0:0:0:0:
336,212,104055,2,0,L|228:140,1,127.500004863739,0|0,1:0|0:0,0:0:0:0:
148,68,104805,1,8,0:0:0:0:
72,144,105055,5,0,0:0:0:0:
60,156,105180,1,0,0:0:0:0:
48,168,105305,2,0,L|-16:168,2,63.7500024318696
180,144,106055,1,0,1:0:0:0:
188,228,106305,2,0,P|192:260|184:300,1,63.7500024318696,0|0,0:0|0:0,0:0:0:0:
256,176,106805,2,0,P|288:172|328:180,1,63.7500024318696,8|0,0:0|0:0,0:0:0:0:
180,144,107305,6,0,P|128:104|116:40,1,127.500004863739,0|0,1:0|0:0,0:0:0:0:
256,176,108055,2,0,P|308:216|320:280,1,127.500004863739,0|0,1:0|0:0,0:0:0:0:
212,280,108805,2,0,P|184:292|148:296,1,63.7500024318696,8|0,0:0|0:0,0:0:0:0:
128,300,109180,1,0,0:0:0:0:
108,304,109305,2,0,L|42:310,1,63.7500024318696,0|0,1:0|0:0,0:0:0:0:
212,280,109805,5,0,0:0:0:0:
280,328,110055,1,0,1:0:0:0:
336,268,110305,2,0,L|464:256,1,127.500004863739,0|8,0:0|0:0,0:0:0:0:
332,188,111055,2,0,L|266:194,1,63.7500024318696,0|0,0:0|1:0,0:0:0:0:
188,184,111555,1,0,0:0:0:0:
116,140,111805,2,0,P|120:104|112:65,1,63.7500024318696,0|0,0:0|1:0,0:0:0:0:
112,224,112305,2,0,P|108:260|116:299,2,63.7500024318696,0|0|8,0:0|0:0|0:0,0:0:0:0:
188,184,113055,5,0,0:0:0:0:
204,168,113180,1,0,0:0:0:0:
220,152,113305,2,0,L|328:84,1,127.500004863739,0|0,1:0|0:0,0:0:0:0:
420,28,114055,1,0,1:0:0:0:
448,132,114305,2,0,L|524:148,1,63.7500024318696
420,236,114805,2,0,L|344:252,1,63.7500024318696,8|0,0:0|0:0,0:0:0:0:
224,264,115305,6,0,L|152:264,2,63.7500024318696,0|0|0,1:0|0:0|0:0,0:0:0:0:
288,208,116055,2,0,P|312:191|336:156,1,63.7500024318696,0|0,1:0|0:0,0:0:0:0:
360,60,116555,1,8,0:0:0:0:
440,136,116805,1,8,0:0:0:0:
332,164,117055,1,8,0:0:0:0:
312,172,117180,1,8,0:0:0:0:
292,180,117305,6,0,L|200:194,1,85,4|0,0:0|1:0,0:0:0:0:
80,308,117805,2,0,L|172:294,1,85,8|0,0:0|0:0,0:0:0:0:
264,284,118305,1,0,0:0:0:0:
344,348,118555,1,0,0:0:0:0:
292,180,118805,1,8,0:0:0:0:
264,284,119055,1,0,1:0:0:0:
292,180,119305,6,0,L|400:193,2,85,0|0|8,1:0|0:0|0:0,0:0:0:0:
256,84,120055,2,0,L|364:97,2,85
176,20,120805,1,8,0:0:0:0:
156,120,121055,1,0,1:0:0:0:
124,216,121305,6,0,P|104:260|72:280,1,85,0|0,1:0|0:0,0:0:0:0:
32,188,121805,1,8,0:0:0:0:
104,260,122055,1,0,0:0:0:0:
184,320,122305,2,0,L|272:332,1,85
240,132,122805,2,0,L|152:120,1,85,8|0,0:0|1:0,0:0:0:0:
252,216,123305,6,0,P|324:152|312:88,1,170,0|8,1:0|0:0,0:0:0:0:
172,184,124055,2,0,P|168:228|188:272,1,85
276,304,124555,1,0,0:0:0:0:
192,364,124805,2,0,L|86:345,1,85,8|0,0:0|1:0,0:0:0:0:
108,248,125305,6,0,P|96:324|16:312,1,170,0|8,1:0|0:0,0:0:0:0:
12,212,126055,1,0,0:0:0:0:
88,144,126305,2,0,L|180:156,1,85
276,156,126805,1,8,0:0:0:0:
276,156,127055,6,0,L|360:145,2,85,0|0|0,1:0|1:0|0:0,0:0:0:0:
368,72,127805,2,0,P|424:112|404:204,1,170,8|0,0:0|0:0,0:0:0:0:
224,120,128555,2,0,P|260:84|296:76,2,85,0|8|0,0:0|0:0|1:0,0:0:0:0:
208,220,129305,1,0,1:0:0:0:
208,220,129805,5,8,0:0:0:0:
224,120,130055,1,0,0:0:0:0:
208,220,130305,2,0,P|168:240|128:248,2,85,0|0|8,0:0|0:0|0:0,0:0:0:0:
304,184,131055,1,0,1:0:0:0:
376,112,131305,6,0,P|360:72|356:28,1,85,0|0,1:0|0:0,0:0:0:0:
304,184,131805,1,8,0:0:0:0:
404,212,132055,2,0,P|420:252|424:296,1,85,0|0,0:0|1:0,0:0:0:0:
472,136,132555,1,0,1:0:0:0:
404,212,132805,2,0,L|368:236,1,42.5,8|0,0:0|1:0,0:0:0:0:
304,184,133055,2,0,L|340:160,1,42.5,4|4,3:0|3:0,0:0:0:0:
328,72,133305,6,0,L|272:108,1,63.7500024318696,4|0,0:0|0:0,0:0:0:0:
248,100,133680,1,0,0:0:0:0:
248,100,133805,2,0,L|224:160,1,63.7500024318696,0|0,0:0|1:0,0:0:0:0:
200,172,134180,1,0,0:0:0:0:
200,172,134305,2,0,L|220:236,1,63.7500024318696,0|8,0:0|0:0,0:0:0:0:
268,312,134805,5,8,0:0:0:0:
352,280,135055,1,0,1:0:0:0:
352,280,135180,1,0,0:0:0:0:
352,280,135305,2,0,P|412:272|436:212,1,127.500004863739,0|0,1:0|0:0,0:0:0:0:
416,108,136055,1,0,1:0:0:0:
352,44,136305,2,0,P|332:76|324:104,1,63.7500024318696
360,184,136805,1,8,0:0:0:0:
325,101,137055,6,0,L|260:112,1,63.7500024318696,0|0,0:0|1:0,0:0:0:0:
152,48,137555,2,0,L|217:37,1,63.7500024318696
160,136,138055,2,0,L|97:146,1,63.7500024318696,0|0,1:0|0:0,0:0:0:0:
4,76,138555,2,0,L|69:65,1,63.7500024318696,0|8,0:0|0:0,0:0:0:0:
160,136,139055,1,0,0:0:0:0:
156,224,139305,6,0,P|104:264|40:268,1,127.500004863739,0|0,1:0|0:0,0:0:0:0:
236,184,140055,2,0,P|288:144|352:140,1,127.500004863739,0|8,1:0|0:0,0:0:0:0:
460,188,140805,1,8,0:0:0:0:
364,260,141055,1,0,0:0:0:0:
364,260,141180,1,0,0:0:0:0:
364,260,141305,6,0,P|352:228|356:192,1,63.7500024318696,4|0,0:0|0:0,0:0:0:0:
272,272,141805,2,0,P|284:304|280:340,1,63.7500024318696,0|0,0:0|1:0,0:0:0:0:
184,260,142305,1,8,0:0:0:0:
84,190,142555,1,8,0:0:0:0:
120,74,142805,1,8,0:0:0:0:
241,72,143055,1,8,0:0:0:0:
280,187,143305,1,8,0:0:0:0:
256,192,143430,12,0,144805,0:0:0:0:
88,192,145305,6,0,L|40:208,1,42.5,4|2,0:0|0:0,0:0:0:0:
136,128,145805,2,0,L|176:116,1,42.5,0|2,0:0|0:0,0:0:0:0:
220,120,146180,2,0,P|248:136|296:136,1,63.75,0|2,0:0|0:0,0:0:0:0:
364,120,146805,1,0,0:0:0:0:
424,60,147055,1,2,0:0:0:0:
420,216,147305,6,0,L|448:248,2,42.5,0|2|0,0:0|0:0|0:0,0:0:0:0:
364,120,148055,1,2,0:0:0:0:
261,27,148305,1,2,0:0:0:0:
290,162,148555,1,2,0:0:0:0:
346,36,148805,1,2,0:0:0:0:
227,105,149055,1,2,0:0:0:0:
96,72,149305,6,0,L|108:128,1,42.5,0|2,0:0|0:0,0:0:0:0:
64,188,149805,2,0,L|76:244,1,42.5,0|2,0:0|0:0,0:0:0:0:
100,264,150180,2,0,P|116:292|120:324,1,63.75,0|2,0:0|0:0,0:0:0:0:
56,376,150805,1,0,0:0:0:0:
8,304,151055,1,2,0:0:0:0:
204,328,151305,6,0,L|252:332,1,42.5,0|2,0:0|0:0,0:0:0:0:
312,192,151805,1,0,0:0:0:0:
312,192,152055,2,0,L|264:188,1,42.5,2|0,0:0|0:0,0:0:0:0:
428,240,152555,1,2,0:0:0:0:
428,240,152805,2,0,P|436:216|440:192,1,42.5,0|2,0:0|0:0,0:0:0:0:
348,56,153305,6,0,P|304:56|272:72,1,63.7500024318696,8|2,0:0|0:0,0:0:0:0:
172,20,153805,6,0,P|160:68|164:104,1,85,8|2,0:0|0:0,0:0:0:0:
108,200,154305,6,0,P|156:212|216:204,1,106.25,8|2,0:0|0:0,0:0:0:0:
280,276,154805,6,0,P|304:216|292:144,1,127.500004863739,8|2,0:0|0:0,0:0:0:0:
400,152,155305,6,0,L|488:172,2,85,8|2|8,0:0|0:0|0:0,0:0:0:0:
268,128,156055,1,2,0:0:0:0:
112,72,156305,1,8,0:0:0:0:
205,209,156555,1,2,0:0:0:0:
210,44,156805,1,8,0:0:0:0:
109,174,157055,1,2,0:0:0:0:
60,272,157305,6,0,P|92:292|144:304,1,85,8|2,0:0|0:0,0:0:0:0:
205,209,157805,2,0,P|252:208|296:184,1,85,8|2,0:0|0:0,0:0:0:0:
288,80,158305,2,0,P|328:64|360:20,1,85,8|2,0:0|0:0,0:0:0:0:
210,44,158805,2,0,P|170:60|138:104,1,85,8|2,0:0|0:0,0:0:0:0:
204,208,159305,5,8,0:0:0:0:
204,208,159555,1,2,0:0:0:0:
288,280,159805,1,8,0:0:0:0:
288,280,160055,1,2,0:0:0:0:
388,232,160305,2,0,L|428:152,1,85,8|2,0:0|0:0,0:0:0:0:
340,44,160805,2,0,L|300:124,1,85,8|2,0:0|0:0,0:0:0:0:
260,224,161305,5,8,0:0:0:0:
188,308,161555,1,2,0:0:0:0:
152,204,161805,1,8,0:0:0:0:
260,224,162055,1,2,0:0:0:0:
152,204,162305,1,8,0:0:0:0:
224,120,162555,1,2,0:0:0:0:
224,120,162680,1,0,0:0:0:0:
224,120,162805,1,8,0:0:0:0:
260,224,163055,1,2,0:0:0:0:
224,120,163305,5,8,0:0:0:0:
332,140,163555,1,2,0:0:0:0:
260,224,163805,1,8,0:0:0:0:
332,140,164055,1,2,0:0:0:0:
368,244,164305,1,8,0:0:0:0:
296,328,164555,1,2,0:0:0:0:
188,308,164805,1,8,0:0:0:0:
144,204,165055,1,2,0:0:0:0:
256,192,165180,12,0,168055,0:0:0:0:
364,148,168555,5,8,0:0:0:0:
384,160,168680,1,8,0:0:0:0:
400,180,168805,1,8,0:0:0:0:
408,204,168930,1,8,0:0:0:0:
404,228,169055,1,8,0:0:0:0:
388,248,169180,1,8,0:0:0:0:
364,256,169305,6,0,L|260:280,1,101.999996887207,4|0,0:0|0:0,0:0:0:0:
240,168,169805,2,0,L|136:192,1,101.999996887207,8|0,0:0|0:0,0:0:0:0:
104,204,170180,1,0,0:0:0:0:
96,244,170305,2,0,P|60:280|4:288,1,101.999996887207
128,328,170805,1,8,0:0:0:0:
244,368,171055,1,0,0:0:0:0:
356,320,171305,6,0,P|408:320|456:296,2,101.999996887207,0|0|8,1:0|0:0|0:0,0:0:0:0:
260,244,172055,1,2,0:0:0:0:
191,75,172305,1,0,1:0:0:0:
303,67,172555,1,2,0:0:0:0:
164,184,172805,1,10,0:0:0:0:
345,171,173055,1,2,0:0:0:0:
260,244,173305,6,0,P|220:272|168:288,1,101.999996887207
164,184,173805,2,0,P|112:180|56:144,1,101.999996887207,8|0,0:0|0:0,0:0:0:0:
56,124,174180,1,0,0:0:0:0:
76,96,174305,2,0,L|184:108,1,101.999996887207,0|0,1:0|0:0,0:0:0:0:
304,68,174805,1,8,0:0:0:0:
348,172,175055,1,0,0:0:0:0:
380,264,175305,6,0,P|352:224|348:172,1,101.999996887207,0|0,1:0|0:0,0:0:0:0:
232,132,175805,2,0,P|260:88|304:68,1,101.999996887207,8|0,0:0|0:0,0:0:0:0:
124,152,176305,2,0,P|96:196|52:216,2,101.999996887207,0|0|8,1:0|0:0|0:0,0:0:0:0:
152,260,177055,1,0,0:0:0:0:
156,268,177180,1,0,0:0:0:0:
160,276,177305,2,0,P|192:312|244:328,1,101.999996887207,0|0,1:0|0:0,0:0:0:0:
340,252,177805,6,0,L|448:236,1,101.999996887207,8|0,0:0|0:0,0:0:0:0:
468,200,178180,1,0,0:0:0:0:
468,200,178305,2,0,P|444:160|448:100,1,101.999996887207,0|0,1:0|0:0,0:0:0:0:
328,56,178805,2,0,P|352:96|348:156,1,101.999996887207,8|0,0:0|0:0,0:0:0:0:
236,200,179305,2,0,L|128:216,2,101.999996887207,0|0|8,1:0|0:0|0:0,0:0:0:0:
360,196,180055,5,2,0:0:0:0:
382,15,180305,1,0,1:0:0:0:
305,97,180555,1,2,0:0:0:0:
483,63,180805,1,10,0:0:0:0:
470,174,181055,1,2,0:0:0:0:
436,292,181305,6,0,P|384:304|336:300,1,101.999996887207,0|0,1:0|0:0,0:0:0:0:
176,224,181805,2,0,P|228:212|276:216,1,101.999996887207,8|0,0:0|0:0,0:0:0:0:
96,272,182305,1,0,1:0:0:0:
108,160,182555,1,0,0:0:0:0:
276,216,182805,1,8,0:0:0:0:
264,328,183055,1,0,0:0:0:0:
172,264,183305,6,0,P|168:212|196:156,1,101.999996887207,0|0,1:0|0:0,0:0:0:0:
124,72,183805,2,0,P|72:76|16:48,1,101.999996887207,8|0,0:0|0:0,0:0:0:0:
224,84,184305,1,0,1:0:0:0:
332,108,184555,1,0,1:0:0:0:
432,60,184805,1,8,0:0:0:0:
456,60,184930,1,8,0:0:0:0:
480,68,185055,1,8,0:0:0:0:
496,88,185180,1,8,0:0:0:0:
504,112,185305,6,0,L|460:204,1,101.999996887207,4|0,0:0|0:0,0:0:0:0:
288,200,185805,2,0,L|332:108,2,101.999996887207,8|0|0,0:0|0:0|1:0,0:0:0:0:
228,296,186555,1,0,0:0:0:0:
228,296,186680,1,0,0:0:0:0:
228,296,186805,2,0,P|180:268|152:224,1,101.999996887207,8|0,0:0|0:0,0:0:0:0:
48,116,187305,5,8,0:0:0:0:
64,144,187430,1,8,0:0:0:0:
72,172,187555,1,8,0:0:0:0:
68,204,187680,1,8,0:0:0:0:
56,232,187805,1,8,0:0:0:0:
4,340,188055,1,0,1:0:0:0:
124,328,188305,5,4,3:0:0:0:
152,316,188430,1,4,3:0:0:0:
184,312,188555,1,4,3:0:0:0:
216,316,188680,1,4,3:0:0:0:
244,328,188805,1,4,3:0:0:0:
360,360,189055,2,0,L|424:344,1,50.9999984436036
432,320,189305,6,0,P|416:272|424:216,1,101.999996887207,4|0,0:0|0:0,0:0:0:0:
320,120,189805,2,0,P|336:168|328:224,1,101.999996887207,8|0,0:0|0:0,0:0:0:0:
412,144,190305,2,0,L|516:120,1,101.999996887207,0|0,1:0|0:0,0:0:0:0:
336,296,190805,2,0,L|232:320,2,101.999996887207,8|8|0,0:0|0:0|1:0,0:0:0:0:
164,280,191555,5,0,0:0:0:0:
64,180,191805,1,8,0:0:0:0:
28,56,192055,1,0,0:0:0:0:
152,76,192305,1,0,1:0:0:0:
196,200,192555,2,0,P|240:192|292:160,1,101.999996887207,0|8,0:0|0:0,0:0:0:0:
360,76,193055,1,8,0:0:0:0:
360,76,193180,1,8,0:0:0:0:
360,76,193305,6,0,P|368:124|408:172,1,101.999996887207,4|0,1:0|0:0,0:0:0:0:
456,260,193805,2,0,L|352:292,1,101.999996887207,8|0,0:0|0:0,0:0:0:0:
196,200,194305,2,0,L|300:168,2,101.999996887207,0|0|8,1:0|0:0|0:0,0:0:0:0:
88,236,195055,1,0,0:0:0:0:
88,236,195180,1,8,0:0:0:0:
88,236,195305,2,0,P|56:280|84:316,1,101.999996887207,0|0,1:0|0:0,0:0:0:0:
196,200,195805,2,0,P|228:156|200:120,1,101.999996887207,8|0,0:0|0:0,0:0:0:0:
168,284,196305,6,0,L|232:368,2,101.999996887207,0|0|8,1:0|0:0|0:0,0:0:0:0:
128,180,197055,1,8,0:0:0:0:
128,180,197180,1,0,0:0:0:0:
128,180,197305,2,0,P|96:136|96:80,1,101.999996887207,4|0,0:0|0:0,0:0:0:0:
204,100,197805,2,0,L|300:144,1,101.999996887207,8|0,0:0|0:0,0:0:0:0:
404,168,198305,1,0,1:0:0:0:
468,260,198555,1,0,0:0:0:0:
380,328,198805,1,8,0:0:0:0:
312,240,199055,6,0,P|296:188|300:136,1,101.999996887207,8|0,0:0|1:0,0:0:0:0:
204,84,199555,2,0,P|236:48|288:32,1,101.999996887207,0|8,0:0|0:0,0:0:0:0:
299,142,200055,2,0,P|267:178|215:194,1,101.999996887207,0|0,0:0|1:0,0:0:0:0:
112,156,200555,1,0,0:0:0:0:
112,156,200805,1,8,0:0:0:0:
144,264,201055,1,8,0:0:0:0:
156,292,201180,1,0,1:0:0:0:
168,320,201305,2,0,L|272:336,1,101.999996887207,0|0,0:0|0:0,0:0:0:0:
296,320,201680,1,8,0:0:0:0:
296,320,201805,2,0,L|400:308,1,101.999996887207,8|0,0:0|0:0,0:0:0:0:
460,204,202305,5,8,0:0:0:0:
305,126,202555,1,8,0:0:0:0:
422,88,202805,1,8,0:0:0:0:
343,242,203055,1,4,0:0:0:0:
