osu file format v12

[General]
AudioFilename: ReRe Hello ~Oware sou ni nai Natsu~.mp3
AudioLeadIn: 1000
PreviewTime: 73305
Countdown: 0
SampleSet: Soft
StackLeniency: 0.7
Mode: 0
LetterboxInBreaks: 1
WidescreenStoryboard: 0

[Editor]
DistanceSpacing: 1
BeatDivisor: 4
GridSize: 4

[Metadata]
Title:ReReHello ~Oware sou ni nai Natsu~
TitleUnicode:ReReハロ~終われそうにない夏~
Artist:7!!
ArtistUnicode:7!!
Creator:Azure
Version:Hello
Source:
Tags:seven oops Sebun Uppusu Minami Touko summer vacation NANAE KEITA
BeatmapID:293933
BeatmapSetID:113287

[Difficulty]
HPDrainRate:3
CircleSize:3
OverallDifficulty:4
ApproachRate:5
SliderMultiplier:1.2
SliderTickRate:2

[Events]
//Background and Video events
0,0,"BG01.jpg",0,0
//Break Periods
2,25505,28105
2,97505,100105
//Storyboard Layer 0 (Background)
//Storyboard Layer 1 (Fail)
//Storyboard Layer 2 (Pass)
//Storyboard Layer 3 (Foreground)
//Storyboard Sound Samples
//Background Colour Transformations
3,100,163,162,255

[TimingPoints]
-695,500,4,2,1,40,1,0
21305,-100,4,2,1,40,0,1
21430,-100,4,2,1,40,0,0
45305,-100,4,2,1,45,0,0
73305,-100,4,2,1,60,0,1
97305,-100,4,2,1,45,0,0
145305,-100,4,2,1,40,0,1
145555,-100,4,2,1,40,0,0
153305,-100,4,2,2,50,0,0
169305,-100,4,2,1,60,0,1
193305,-100,4,2,1,40,0,0

[Colours]
Combo1 : 255,223,125
Combo2 : 245,146,175
Combo3 : 142,193,255
Combo4 : 181,218,165
SliderBorder : 255,255,255

[HitObjects]
372,88,1305,2,0,P|384:144|372:208,1,120,0|2,0:0|0:0,0:0:0:0:
272,268,2305,2,0,P|212:260|148:268,1,120,0|2,0:0|0:0,0:0:0:0:
60,344,3305,2,0,P|32:296|40:228,1,120,0|2,0:0|0:0,0:0:0:0:
128,152,4305,1,0,0:0:0:0:
44,68,4805,1,2,0:0:0:0:
164,56,5305,6,0,L|288:56,1,120,0|2,0:0|0:0,0:0:0:0:
224,160,6305,2,0,L|348:160,1,120,0|2,0:0|0:0,0:0:0:0:
432,244,7305,2,0,P|468:164|432:76,2,180
332,292,9305,6,0,L|212:312,1,120
128,224,10305,2,0,L|248:204,1,120
364,176,11305,2,0,P|404:128|412:68,1,120
292,76,12305,2,0,P|252:124|244:184,1,120
308,280,13305,6,0,L|356:316,2,60
188,260,14305,2,0,P|152:264|124:260,1,60
76,232,14805,2,0,P|72:200|76:168,1,60
84,112,15305,2,0,P|144:48|232:40,2,180
196,156,17305,5,4,1:0:0:0:
316,152,17805,2,0,P|364:192|380:248,1,120,0|0,1:0|1:0,0:0:0:0:
260,260,18805,1,0,0:0:0:0:
156,316,19305,2,0,P|96:332|36:332,1,120,8|8,0:0|0:0,0:0:0:0:
20,212,20305,2,0,P|80:196|140:196,1,120,8|0,0:0|0:0,0:0:0:0:
256,192,21305,12,0,25305,0:0:0:0:
36,312,29305,6,0,P|92:320|160:312,1,120,0|0,1:0|0:0,0:0:0:0:
208,284,30055,2,0,P|268:276|328:288,1,120,0|0,1:0|0:0,0:0:0:0:
376,320,30805,1,8,1:0:0:0:
488,276,31305,6,0,L|488:156,1,120,0|0,1:0|0:0,0:0:0:0:
432,172,32055,2,0,L|432:52,1,120,0|0,1:0|0:0,0:0:0:0:
380,80,32805,1,8,3:0:0:0:
260,76,33305,6,0,P|208:48|160:76,1,120,0|0,1:0|0:0,0:0:0:0:
128,128,34055,2,0,P|76:156|28:128,1,120,0|0,1:0|0:0,0:0:0:0:
28,68,34805,1,8,1:0:0:0:
28,188,35305,6,0,B|28:252|28:252|32:292|56:312,1,120,0|0,1:0|0:0,0:0:0:0:
104,324,36055,2,0,P|164:316|228:324,1,120,0|0,1:0|0:0,0:0:0:0:
276,348,36805,2,0,P|332:356|396:348,1,120,8|0,1:0|1:0,0:0:0:0:
492,276,37805,5,0,0:0:0:0:
432,264,38055,1,0,1:0:0:0:
380,232,38305,2,0,P|364:176|376:112,1,120,0|8,0:0|1:0,0:0:0:0:
476,52,39305,6,0,P|492:108|480:172,1,120,0|0,1:0|0:0,0:0:0:0:
424,148,40055,2,0,L|304:148,1,120,0|0,1:0|0:0,0:0:0:0:
248,128,40805,1,8,1:0:0:0:
156,208,41305,6,0,L|112:324,1,120,0|0,1:0|0:0,0:0:0:0:
52,320,42055,2,0,L|8:204,1,120,0|0,1:0|0:0,0:0:0:0:
4,148,42805,1,8,0:0:0:0:
56,40,43305,6,0,P|112:48|176:40,1,120,0|0,1:0|0:0,0:0:0:0:
236,40,44055,2,0,P|296:32|356:40,1,120,0|0,1:0|0:0,0:0:0:0:
416,40,44805,1,8,0:0:0:0:
412,160,45305,6,0,P|424:216|384:268,1,120,4|8,1:0|0:0,0:0:0:0:
272,292,46305,2,0,P|260:236|300:184,1,120,0|8,0:0|0:0,0:0:0:0:
328,136,47055,1,0,1:0:0:0:
360,84,47305,2,0,L|244:40,1,120,0|0,1:0|0:0,0:0:0:0:
188,44,48055,2,0,P|140:76|72:88,1,120
20,84,48805,2,0,L|24:152,1,60,0|0,0:0|1:0,0:0:0:0:
56,196,49305,6,0,L|44:316,1,120,0|8,1:0|0:0,0:0:0:0:
152,364,50305,2,0,P|212:368|276:356,1,120,0|8,0:0|0:0,0:0:0:0:
328,336,51055,2,0,P|356:320|392:312,1,60,0|0,1:0|1:0,0:0:0:0:
496,348,51805,1,8,0:0:0:0:
456,236,52305,1,0,0:0:0:0:
488,120,52805,1,0,0:0:0:0:
488,120,53055,1,0,1:0:0:0:
488,120,53305,6,0,P|424:120|368:156,1,120,0|8,1:0|0:0,0:0:0:0:
336,260,54305,2,0,P|280:272|208:264,1,120,0|8,0:0|0:0,0:0:0:0:
160,252,55055,1,0,1:0:0:0:
160,252,55305,2,0,P|116:208|104:148,1,120,0|8,0:0|0:0,1:0:0:0:
168,52,56305,2,0,P|212:96|224:156,1,120,0|8,0:0|0:0,0:0:0:0:
264,196,57055,2,0,L|324:196,1,60,0|0,1:0|1:0,0:0:0:0:
444,196,57805,5,8,0:0:0:0:
384,92,58305,1,0,0:0:0:0:
268,60,58805,2,0,L|268:-4,2,60,8|0|0,1:0|1:0|1:0,0:0:0:0:
152,92,59805,1,8,0:0:0:0:
152,92,60055,1,0,1:0:0:0:
152,92,60305,2,0,P|96:116|64:164,1,120,2|4,3:0|3:0,0:0:0:0:
8,268,61305,6,0,P|68:280|124:264,1,120,4|0,0:0|0:0,0:0:0:0:
236,228,62305,2,0,P|296:216|352:232,1,120,0|8,0:0|0:0,0:0:0:0:
364,352,63305,2,0,P|456:296|456:172,1,240,0|0,1:0|0:0,0:0:0:0:
360,104,64805,1,8,0:0:0:0:
324,220,65305,6,0,P|268:188|244:136,1,120,0|0,1:0|0:0,0:0:0:0:
240,80,66055,2,0,P|192:120|136:132,1,120,0|0,1:0|0:0,0:0:0:0:
76,136,66805,1,8,0:0:0:0:
16,240,67305,2,0,B|80:276|144:240|144:240|200:252|228:316,1,240,0|0,1:0|0:0,0:0:0:0:
248,360,68555,1,8,0:0:0:0:
248,360,68805,1,8,0:0:0:0:
368,344,69305,6,0,P|428:336|476:296,1,120,4|0,1:0|0:0,0:0:0:0:
380,224,70305,2,0,P|432:188|456:132,1,120,8|0,0:0|0:0,0:0:0:0:
336,112,71305,2,0,L|272:100,1,60
216,92,71805,2,0,L|152:80,2,60
248,200,72805,1,4,3:0:0:0:
128,220,73305,6,0,L|4:220,1,120,4|8,1:0|0:0,0:0:0:0:
80,316,74305,2,0,L|204:316,1,120,0|8,0:0|0:0,0:0:0:0:
320,316,75305,2,0,B|408:316|408:316|448:276|416:212,2,180,0|0|8,1:0|0:0|0:0,0:0:0:0:
308,196,77305,6,0,P|292:136|308:76,1,120,0|8,1:0|0:0,0:0:0:0:
188,108,78305,2,0,P|204:168|188:228,1,120,0|8,1:0|0:0,0:0:0:0:
88,288,79305,2,0,P|56:200|84:120,2,180,0|0|8,1:0|0:0|0:0,0:0:0:0:
180,364,81305,5,0,1:0:0:0:
272,288,81805,1,8,0:0:0:0:
364,364,82305,1,0,1:0:0:0:
456,288,82805,1,8,0:0:0:0:
364,212,83305,2,0,L|364:92,1,120,0|8,1:0|0:0,0:0:0:0:
312,64,84055,2,0,P|281:58|252:64,1,60,2|2,0:0|0:0,0:0:0:0:
196,84,84555,2,0,P|165:89|136:84,1,60,2|10,0:0|0:0,0:0:0:0:
80,64,85055,1,2,0:0:0:0:
80,64,85305,6,0,L|24:172,1,120,0|8,1:0|0:0,0:0:0:0:
144,164,86305,2,0,L|88:272,1,120,0|8,0:0|0:0,0:0:0:0:
0,352,87305,2,0,B|84:276|84:276|108:344|184:352,1,240,0|0,1:0|0:0,0:0:0:0:
236,340,88555,1,8,0:0:0:0:
236,340,88805,2,0,L|300:340,1,60,8|8,0:0|0:0,0:0:0:0:
352,324,89305,6,0,P|412:312|472:328,1,120,4|8,1:0|0:0,0:0:0:0:
448,208,90305,2,0,P|436:148|452:88,1,120,0|8,1:0|0:0,0:0:0:0:
332,120,91305,2,0,P|272:132|212:116,1,120,0|8,1:0|0:0,0:0:0:0:
108,64,92305,2,0,L|72:116,1,60,4|4,3:0|3:0,0:0:0:0:
88,172,92805,2,0,L|124:224,1,60,8|8,0:0|0:0,0:0:0:0:
256,192,93305,12,4,97305,0:0:0:0:
148,136,101305,6,0,P|128:192|148:248,1,120,0|0,1:0|0:0,0:0:0:0:
196,284,102055,2,0,L|320:284,1,120,0|0,1:0|0:0,0:0:0:0:
368,312,102805,1,8,1:0:0:0:
480,268,103305,6,0,P|464:208|480:148,1,120,0|0,1:0|0:0,0:0:0:0:
512,120,104055,2,0,L|384:120,1,120,0|0,1:0|0:0,0:0:0:0:
360,68,104805,1,8,3:0:0:0:
360,68,105055,1,0,0:0:0:0:
300,72,105305,6,0,P|240:84|184:68,1,120,0|0,1:0|0:0,0:0:0:0:
128,48,106055,2,0,P|76:76|60:152,1,120,0|0,1:0|0:0,0:0:0:0:
88,184,106805,1,8,1:0:0:0:
192,244,107305,6,0,P|140:288|76:304,1,120,0|0,1:0|0:0,0:0:0:0:
68,356,108055,2,0,P|128:348|192:356,1,120,0|0,1:0|0:0,0:0:0:0:
248,356,108805,2,0,P|304:364|368:356,1,120,8|0,1:0|1:0,0:0:0:0:
476,304,109805,5,0,0:0:0:0:
476,304,110055,1,0,1:0:0:0:
476,304,110305,2,0,L|364:256,1,120,0|8,0:0|1:0,0:0:0:0:
464,188,111305,2,0,L|344:140,1,120,0|0,1:0|0:0,0:0:0:0:
296,124,112055,2,0,P|236:112|176:124,1,120,0|0,1:0|0:0,0:0:0:0:
124,144,112805,1,8,1:0:0:0:
184,248,113305,6,0,P|124:264|68:252,1,120,0|0,1:0|0:0,0:0:0:0:
32,204,114055,2,0,P|12:148|28:92,1,120,0|0,1:0|0:0,0:0:0:0:
68,48,114805,1,8,1:0:0:0:
176,100,115305,6,0,L|296:100,1,120,0|0,1:0|0:0,0:0:0:0:
356,92,116055,2,0,P|412:100|448:160,1,120,0|0,1:0|0:0,0:0:0:0:
452,208,116805,1,8,0:0:0:0:
368,292,117305,6,0,L|248:320,1,120,4|8,1:0|0:0,0:0:0:0:
156,248,118305,2,0,L|276:220,1,120,0|8,0:0|0:0,0:0:0:0:
332,208,119055,1,0,1:0:0:0:
352,152,119305,2,0,P|316:104|256:100,1,120,0|0,1:0|0:0,0:0:0:0:
208,68,120055,2,0,P|160:100|92:112,1,120
40,112,120805,2,0,P|36:144|44:180,1,60,0|0,0:0|1:0,0:0:0:0:
88,204,121305,6,0,P|96:264|68:320,1,120,0|8,1:0|0:0,0:0:0:0:
188,296,122305,2,0,L|316:268,1,120,0|8,0:0|0:0,0:0:0:0:
364,256,123055,2,0,P|392:256|428:232,1,60,0|0,1:0|1:0,0:0:0:0:
492,148,123805,1,8,0:0:0:0:
372,128,124305,1,0,0:0:0:0:
448,36,124805,1,0,0:0:0:0:
448,36,125055,1,0,1:0:0:0:
448,36,125305,6,0,L|328:36,1,120,0|8,1:0|0:0,0:0:0:0:
208,36,126305,2,0,L|80:36,1,120,0|8,0:0|0:0,0:0:0:0:
44,76,127055,1,0,1:0:0:0:
24,132,127305,2,0,P|68:176|80:236,1,120,0|8,0:0|0:0,1:0:0:0:
80,352,128305,2,0,P|140:336|184:296,1,120,0|8,0:0|0:0,0:0:0:0:
220,252,129055,2,0,P|252:248|280:252,1,60,0|0,1:0|1:0,0:0:0:0:
372,328,129805,5,8,0:0:0:0:
484,280,130305,1,0,0:0:0:0:
388,208,130805,2,0,L|388:144,2,60,8|0|0,1:0|1:0|1:0,0:0:0:0:
484,136,131805,1,8,0:0:0:0:
476,76,132055,1,0,1:0:0:0:
424,44,132305,2,0,L|300:44,1,120,2|4,3:0|3:0,0:0:0:0:
184,44,133305,6,0,P|192:104|172:160,1,120,4|0,0:0|0:0,0:0:0:0:
68,96,134305,2,0,P|48:160|64:212,1,120,0|8,0:0|0:0,0:0:0:0:
136,304,135305,2,0,P|228:348|356:292,1,240,0|0,1:0|0:0,0:0:0:0:
384,248,136555,2,0,P|408:220|448:196,1,60,0|8,0:0|0:0,0:0:0:0:
480,180,137055,1,0,0:0:0:0:
480,180,137305,6,0,P|424:148|400:96,1,120,0|0,1:0|0:0,0:0:0:0:
396,40,138055,2,0,L|280:80,1,120,0|0,1:0|0:0,0:0:0:0:
224,96,138805,1,8,0:0:0:0:
104,96,139305,2,0,P|120:160|168:208,1,120,0|0,1:0|0:0,0:0:0:0:
212,220,140055,1,0,1:0:0:0:
296,308,140555,2,0,L|360:316,2,60,8|8|0,0:0|0:0|1:0,0:0:0:0:
236,312,141305,6,0,P|176:316|116:336,1,120,4|0,1:0|0:0,0:0:0:0:
60,340,142055,1,0,1:0:0:0:
24,292,142305,2,0,P|56:244|64:180,1,120,8|0,0:0|0:0,0:0:0:0:
60,124,143055,1,8,0:0:0:0:
120,124,143305,2,0,B|164:104|208:124|208:124|256:144|296:128,2,180,8|0|0,0:0|0:0|0:0,0:0:0:0:
152,240,145305,6,0,L|124:360,1,120,4|2,0:0|0:0,0:0:0:0:
240,324,146305,2,0,L|268:204,1,120,0|2,0:0|0:0,0:0:0:0:
380,164,147305,2,0,L|340:340,2,180
400,44,149305,1,0,0:0:0:0:
288,88,149805,1,2,0:0:0:0:
184,28,150305,1,0,0:0:0:0:
72,72,150805,1,2,0:0:0:0:
164,152,151305,2,0,P|168:212|144:276,1,120,0|2,0:0|0:0,0:0:0:0:
104,308,152055,2,0,P|168:260|264:280,1,180,0|2,0:0|0:0,0:0:0:0:
368,332,153305,5,8,0:0:0:0:
368,332,153805,1,2,0:0:0:0:
476,280,154305,1,8,0:0:0:0:
476,280,154805,1,2,0:0:0:0:
444,164,155305,2,0,L|392:52,1,120,8|2,0:0|0:0,0:0:0:0:
272,44,156305,2,0,L|324:156,1,120,8|2,0:0|0:0,0:0:0:0:
372,264,157305,6,0,P|312:276|256:256,1,120,8|2,0:0|0:0,0:0:0:0:
144,296,158305,2,0,P|136:236|164:184,1,120,8|2,0:0|0:0,0:0:0:0:
256,112,159305,1,8,0:0:0:0:
256,112,159805,1,2,0:0:0:0:
164,36,160305,1,8,0:0:0:0:
164,36,160805,1,2,0:0:0:0:
56,88,161305,6,0,B|28:120|28:160|28:160|76:196|64:256,2,180,8|0|2,0:0|0:0|0:0,0:0:0:0:
156,152,163305,2,0,P|172:216|168:280,1,120,8|2,0:0|0:0,0:0:0:0:
104,368,164305,2,0,P|156:388|224:376,1,120,8|2,0:0|0:0,0:0:0:0:
256,192,165305,12,0,168805,0:0:0:0:
364,144,169305,6,0,P|400:192|408:252,1,120,4|8,1:0|0:0,0:0:0:0:
288,236,170305,2,0,P|248:180|248:128,1,120,0|8,0:0|0:0,0:0:0:0:
316,32,171305,2,0,P|224:12|152:56,2,180,0|0|8,1:0|0:0|0:0,0:0:0:0:
400,116,173305,6,0,P|456:136|520:116,1,120,0|8,1:0|0:0,0:0:0:0:
448,224,174305,2,0,P|432:284|448:344,1,120,0|8,1:0|0:0,0:0:0:0:
328,360,175305,2,0,P|300:280|336:192,2,180,0|0|8,1:0|0:0|0:0,0:0:0:0:
208,352,177305,5,0,1:0:0:0:
88,344,177805,1,8,0:0:0:0:
152,244,178305,1,0,1:0:0:0:
32,232,178805,1,8,0:0:0:0:
104,136,179305,6,0,P|88:80|104:20,1,120,0|8,1:0|0:0,0:0:0:0:
164,12,180055,2,0,L|228:12,1,60,2|2,0:0|0:0,0:0:0:0:
272,48,180555,2,0,L|332:48,1,60,2|10,0:0|0:0,0:0:0:0:
392,48,181055,1,2,0:0:0:0:
392,48,181305,6,0,P|376:104|392:164,1,120,0|8,1:0|0:0,0:0:0:0:
440,200,182055,1,0,0:0:0:0:
440,200,182305,2,0,P|456:256|436:316,1,120,0|8,0:0|0:0,0:0:0:0:
332,256,183305,2,0,B|312:316|236:316|236:316|196:252|136:264,1,240,0|0,1:0|0:0,0:0:0:0:
84,288,184555,1,8,0:0:0:0:
20,280,184805,2,0,L|20:220,1,60,8|8,0:0|0:0,0:0:0:0:
20,160,185305,6,0,B|20:116|20:116|20:72|64:36,1,120,4|8,1:0|0:0,0:0:0:0:
148,120,186305,2,0,P|204:128|268:120,1,120,0|8,1:0|0:0,0:0:0:0:
268,240,187305,2,0,P|212:248|148:240,1,120,0|8,1:0|0:0,0:0:0:0:
32,224,188305,2,0,P|36:256|32:284,1,60,4|4,3:0|3:0,0:0:0:0:
32,344,188805,2,0,P|60:348|92:344,1,60,8|8,0:0|0:0,0:0:0:0:
256,192,189305,12,4,193305,0:0:0:0:
208,164,193805,6,0,P|160:200|100:208,2,120,8|0|8,0:0|1:0|0:0,0:0:0:0:
252,124,195055,1,8,0:0:0:0:
292,80,195305,2,0,L|412:56,1,120,0|8,1:0|0:0,0:0:0:0:
484,152,196305,2,0,L|364:176,1,120,0|8,1:0|0:0,0:0:0:0:
260,228,197305,5,4,1:0:0:0:
364,288,197805,1,8,0:0:0:0:
260,344,198305,1,0,1:0:0:0:
152,288,198805,2,0,L|80:288,1,60,8|8,0:0|0:0,0:0:0:0:
68,232,199305,2,0,P|84:176|68:112,1,120,0|8,1:0|0:0,0:0:0:0:
176,60,200305,2,0,P|160:116|176:180,1,120,0|8,1:0|0:0,0:0:0:0:
228,204,201055,1,0,1:0:0:0:
284,224,201305,6,0,P|340:236|400:224,1,120,4|8,1:0|0:0,0:0:0:0:
488,140,202305,2,0,L|436:108,1,60,8|8,0:0|0:0,0:0:0:0:
376,112,202805,2,0,L|324:80,1,60,0|4,1:0|1:0,0:0:0:0:
