osu file format v14

[General]
AudioFilename: ShiED2.mp3
AudioLeadIn: 2000
PreviewTime: 54681
Countdown: 0
SampleSet: Soft
StackLeniency: 0.7
Mode: 0
LetterboxInBreaks: 0
WidescreenStoryboard: 0

[Editor]
Bookmarks: 1,5582,11163,16745,22326,27907,39070,47442,52849,55814,66977,80931
DistanceSpacing: 1.6
BeatDivisor: 8
GridSize: 4
TimelineZoom: 1.7

[Metadata]
Title:Orange(Anime Ver.)
TitleUnicode:オレンジ(アニメVer.)
Artist:7!!
ArtistUnicode:7!!
Creator:LixRei
Version:Sincerity
Source:四月は君の嘘
Tags:Shigatsu wa Kimi no Uso Your Lie in April Orenji Ending ED2 TV Size Version NANAE MAIKO MICHIRU KEITA 鈴木 俊介 Shunsuke Suzuki Keiko 中西 康晴 Yasuharu Nakanishi 漆原 直美 Naomi Urushibara 高橋 祐子 Yuko Takahashi シライシ 紗トリ Satori Shiraishi
BeatmapID:624471
BeatmapSetID:275353

[Difficulty]
HPDrainRate:6.5
CircleSize:5
OverallDifficulty:7.6
ApproachRate:7.5
SliderMultiplier:2
SliderTickRate:1

[Events]
//Background and Video events
0,0,"Background.jpg",0,0
Video,0,"Usotsuki.avi"
//Break Periods
//Storyboard Layer 0 (Background)
//Storyboard Layer 1 (Fail)
//Storyboard Layer 2 (Pass)
//Storyboard Layer 3 (Foreground)
//Storyboard Sound Samples

[TimingPoints]
0,697.674418604651,4,2,1,15,1,0
697,-100,4,2,1,35,0,0
5232,-100,4,2,1,25,0,0
5581,-100,4,2,1,15,0,0
6279,-100,4,2,1,35,0,0
11075,-100,4,2,1,15,0,0
11511,-100,4,2,1,35,0,0
13953,-100,4,2,1,15,0,0
14302,-100,4,2,1,35,0,0
16744,-100,4,2,1,15,0,0
17441,-100,4,2,1,35,0,0
27558,-100,4,2,1,10,0,0
27790,-100,4,2,1,35,0,0
53023,-100,4,2,0,35,0,0
53982,-100,4,2,0,15,0,0
54069,-100,4,2,0,35,0,0
54767,-100,4,3,0,30,0,0
55029,-100,4,2,0,15,0,0
55116,-100,4,3,0,30,0,0
55377,-100,4,2,0,15,0,0
55465,-100,4,3,0,30,0,0
55726,-100,4,2,0,15,0,0
55813,-89.2857142857143,4,3,0,35,0,1
80930,-100,4,2,0,35,0,0

[Colours]
Combo1 : 226,193,3
Combo2 : 64,140,255
Combo3 : 143,143,143
Combo4 : 113,198,249

[HitObjects]
80,68,0,5,6,0:0:0:0:
284,196,697,2,0,P|320:228|376:232,1,100,8|0,0:0|0:0,0:0:0:0:
353,154,1220,2,0,P|423:137|485:70,1,150
381,56,1918,2,0,P|310:72|248:139,1,150
133,73,2790,5,2,0:0:0:0:
105,271,3488,1,8,0:0:0:0:
133,73,4186,1,0,0:0:0:0:
344,270,4883,2,0,P|389:249|424:213,1,100,2|0,0:0|0:0,0:0:0:0:
330,39,5581,5,6,0:0:0:0:
105,271,6279,2,0,P|148:300|196:316,1,100,8|0,0:0|0:0,0:0:0:0:
196,240,6802,2,0,P|247:243|352:208,1,150
432,136,7674,1,2,0:0:0:0:
340,60,8023,2,0,P|316:52|280:52,1,50
216,76,8372,5,2,0:0:0:0:
46,245,9069,1,8,0:0:0:0:
216,76,9767,1,2,0:0:0:0:
414,274,10465,1,0,0:0:0:0:
260,236,10813,2,0,P|228:216|184:208,1,75
144,260,11162,6,0,P|184:288|240:300,1,100,6|0,0:0|0:0,0:0:0:0:
312,324,11686,1,0,0:0:0:0:
388,352,11860,1,8,0:0:0:0:
312,324,12034,2,0,P|308:252|238:219,1,150,0|2,0:0|0:0,0:0:0:0:
76,176,13430,2,0,P|64:144|64:120,1,50
144,132,13779,1,0,0:0:0:0:
108,60,13953,6,0,P|168:56|208:84,1,100,6|0,0:0|0:0,0:0:0:0:
256,136,14476,1,0,0:0:0:0:
312,192,14651,1,8,0:0:0:0:
256,136,14825,2,0,P|232:196|292:268,1,150,0|2,0:0|0:0,0:0:0:0:
432,320,16395,2,0,L|456:276,1,50
399,219,16744,6,0,P|336:140|244:104,1,200,6|8,0:0|0:0,0:0:0:0:
132,136,17790,2,0,P|80:120|44:92,2,100,2|0|0,0:0|0:0|0:0,0:0:0:0:
240,188,18837,2,0,P|292:204|328:232,1,100
388,336,19534,6,0,P|460:268|492:164,1,200,2|8,0:0|0:0,0:0:0:0:
488,92,20406,1,0,0:0:0:0:
456,16,20581,2,0,P|432:32|416:52,1,50,2|0,0:0|0:0,0:0:0:0:
416,128,20930,2,0,P|341:193|245:216,1,200
20,136,22325,5,2,0:0:0:0:
189,305,23023,1,8,0:0:0:0:
309,305,23372,1,2,0:0:0:0:
20,136,24069,1,0,0:0:0:0:
104,51,24418,1,2,0:0:0:0:
152,184,25116,6,0,P|244:224|344:224,1,200,2|8,0:0|0:0,0:0:0:0:
364,108,26162,2,0,P|409:126|443:163,2,100,2|0|0,0:0|0:0|0:0,0:0:0:0:
72,128,27209,2,0,P|106:165|152:184,1,100
252,224,27790,6,0,L|280:232,2,16.6666666666667,0|0|4,0:0|0:0|0:0,0:0:0:0:
236,104,28255,2,0,L|288:88,1,50
360,60,28604,2,0,P|420:88|476:156,1,150,10|0,0:0|0:0,0:0:0:0:
392,160,29302,2,0,P|416:192|424:208,1,50,2|0,0:0|0:0,0:0:0:0:
452,276,29651,1,0,0:0:0:0:
332,265,29999,1,2,0:0:0:0:
260,228,30174,2,0,P|216:200|168:192,1,100
144,188,30610,1,0,0:0:0:0:
120,184,30697,6,0,P|71:175|29:147,1,100,2|0,0:0|0:0,0:0:0:0:
36,68,31220,1,0,0:0:0:0:
116,64,31395,2,0,P|184:56|264:80,1,150,10|0,0:0|0:0,0:0:0:0:
328,124,32093,1,2,0:0:0:0:
384,180,32267,1,0,0:0:0:0:
328,124,32441,1,0,0:0:0:0:
300,212,32616,1,0,0:0:0:0:
328,124,32790,1,2,0:0:0:0:
228,140,32965,2,0,P|180:143|128:172,1,100
105,241,33488,6,0,P|152:237|205:209,1,100,2|0,0:0|0:0,0:0:0:0:
272,246,34011,1,0,0:0:0:0:
351,235,34186,2,0,P|391:215|403:203,1,50,8|0,0:0|0:0,0:0:0:0:
336,154,34534,1,0,0:0:0:0:
412,130,34709,1,0,0:0:0:0:
412,130,34796,1,0,0:0:0:0:
412,130,34883,2,0,P|452:102|480:50,2,100,2|0|0,0:0|0:0|0:0,0:0:0:0:
292,150,35930,1,0,0:0:0:0:
284,268,36279,6,0,P|240:292|191:297,1,100,2|0,0:0|0:0,0:0:0:0:
112,300,36802,1,0,0:0:0:0:
148,220,36976,2,0,P|98:219|53:198,1,100,8|0,0:0|0:0,0:0:0:0:
24,124,37499,1,0,0:0:0:0:
48,48,37674,1,2,0:0:0:0:
48,48,38023,1,0,0:0:0:0:
296,156,38372,2,0,L|320:172,2,16.6666666666667,2|0|2,0:0|0:0|0:0,0:0:0:0:
204,104,38720,1,0,0:0:0:0:
204,104,39069,6,0,P|168:140|144:184,1,100,4|0,0:0|0:0,0:0:0:0:
108,256,39593,1,0,0:0:0:0:
56,316,39767,2,0,P|84:332|112:336,1,50,10|0,0:0|0:0,0:0:0:0:
174,302,40116,2,0,P|206:301|232:291,1,50,2|0,0:0|0:0,0:0:0:0:
288,248,40465,1,0,0:0:0:0:
288,248,40639,1,0,0:0:0:0:
356,204,40813,1,0,0:0:0:0:
356,204,40988,2,0,L|436:140,2,100,2|0|0,0:0|0:0|0:0,0:0:0:0:
336,220,41773,1,0,0:0:0:0:
316,236,41860,6,0,P|260:260|216:252,1,100,2|0,0:0|0:0,0:0:0:0:
144,236,42383,1,0,0:0:0:0:
156,156,42558,2,0,P|212:132|256:140,1,100,8|0,0:0|0:0,0:0:0:0:
434,141,43081,1,0,0:0:0:0:
424,220,43255,2,0,L|390:257,1,50,2|0,0:0|0:0,0:0:0:0:
320,220,43604,1,0,0:0:0:0:
268,280,43779,1,0,0:0:0:0:
320,220,43953,2,0,L|353:182,2,50,2|0|0,0:0|0:0|0:0,0:0:0:0:
240,204,44476,1,0,0:0:0:0:
240,204,44563,1,0,0:0:0:0:
240,204,44651,6,0,L|312:124,1,100
356,64,45174,1,0,0:0:0:0:
356,64,45348,1,10,0:0:0:0:
236,64,45697,2,0,P|204:68|184:76,1,50,0|2,0:0|0:0,0:0:0:0:
116,112,46046,1,0,0:0:0:0:
40,204,46395,2,0,P|76:240|124:256,1,100,0|2,0:0|0:0,0:0:0:0:
200,240,46918,1,0,0:0:0:0:
256,296,47093,1,2,0:0:0:0:
312,239,47267,1,0,0:0:0:0:
368,295,47441,6,0,P|440:256|496:148,1,200,4|8,0:0|0:0,0:0:0:0:
439,98,48313,1,0,0:0:0:0:
382,42,48488,1,0,0:0:0:0:
439,98,48662,2,0,P|384:140|288:160,1,150,2|0,0:0|0:0,0:0:0:0:
188,168,49534,1,0,0:0:0:0:
188,168,49709,1,2,0:0:0:0:
117,238,49883,1,0,0:0:0:0:
117,238,50058,1,0,0:0:0:0:
213,266,50232,5,2,0:0:0:0:
256,192,50406,12,4,53023,0:2:0:0:
256,192,53372,6,0,L|420:260,1,175,4|0,0:0|0:0,0:0:0:0:
440,268,54069,1,4,0:0:0:0:
332,100,54767,2,0,P|368:80|412:68,1,75,8|0,0:0|0:0,0:0:0:0:
424,64,55116,2,0,P|444:96|456:136,1,75,2|0,0:0|0:0,0:0:0:0:
448,156,55465,2,0,P|408:164|378:183,1,75,8|0,0:0|0:0,0:0:0:0:
356,196,55813,6,0,P|248:240|136:220,1,224.000002734375,4|0,0:2|1:0,0:0:0:0:
36,144,56860,1,0,0:0:0:0:
92,76,57034,2,0,P|152:52|252:72,1,168.000002050781
356,156,57906,1,0,1:0:0:0:
404,352,58255,1,2,0:2:0:0:
404,352,58430,1,0,0:0:0:0:
324,273,58604,6,0,P|276:240|212:241,1,112.000001367188,4|0,0:0|0:0,0:0:0:0:
251,323,59127,1,0,0:0:0:0:
251,323,59302,1,0,1:0:0:0:
336,235,59476,2,0,P|291:203|236:200,1,112.000001367188
148,224,59999,1,2,0:2:0:0:
74,111,60348,1,0,0:0:0:0:
187,38,60697,1,0,1:0:0:0:
260,150,61046,1,0,0:0:0:0:
323,86,61220,1,0,0:0:0:0:
293,255,61395,6,0,P|341:230|365:175,2,112.000001367188,4|0|0,0:2|0:0|1:0,0:0:0:0:
184,332,62441,2,0,P|156:320|140:300,1,56.0000006835938
104,220,62790,1,2,0:2:0:0:
184,112,63139,1,0,0:0:0:0:
104,220,63488,1,0,1:0:0:0:
268,144,63837,1,0,0:0:0:0:
184,112,64011,1,0,0:0:0:0:
248,56,64186,6,0,P|308:40|364:48,1,112.000001367188,4|0,0:0|0:0,0:0:0:0:
436,72,64709,1,0,0:0:0:0:
496,132,64883,1,0,1:0:0:0:
416,156,65058,2,0,L|362:172,2,56.0000006835938,0|2|0,0:0|0:2|0:0,0:0:0:0:
472,212,65581,1,0,0:0:0:0:
164,208,65930,1,0,0:0:0:0:
259,303,66279,2,0,L|308:272,1,56.0000006835938,0|0,1:0|2:0,0:0:0:0:
353,153,66627,2,0,L|306:183,1,56.0000006835938
284,200,66889,1,0,0:0:0:0:
260,216,66976,6,0,B|220:240|220:240|200:240|200:240|152:272,1,112.000001367188,4|0,0:2|0:0,0:0:0:0:
208,140,67674,2,0,B|248:116|248:116|268:116|268:116|316:84,1,112.000001367188,0|0,1:0|0:0,0:0:0:0:
384,44,68197,1,2,0:2:0:0:
384,44,68284,1,0,0:0:0:0:
384,44,68372,2,0,P|392:108|368:160,1,112.000001367188,2|0,0:2|0:0,0:0:0:0:
276,300,69069,1,0,1:0:0:0:
96,164,69418,2,0,P|108:136|128:120,1,56.0000006835938
180,192,69767,6,0,P|228:160|288:160,1,112.000001367188,4|0,0:2|0:0,0:0:0:0:
368,180,70290,1,0,0:0:0:0:
452,212,70465,2,0,P|416:256|361:271,2,112.000001367188,0|0|2,1:0|0:0|0:2,0:0:0:0:
456,76,71511,1,0,0:0:0:0:
270,292,71860,1,0,1:0:0:0:
216,168,72209,2,0,P|204:196|184:212,1,56.0000006835938,2|0,0:0|0:0,0:0:0:0:
132,140,72558,6,0,P|168:92|224:80,2,112.000001367188,4|0|0,0:2|0:0|1:0,0:0:0:0:
52,300,73604,1,0,0:0:0:0:
128,348,73779,1,0,0:0:0:0:
204,300,73953,2,0,P|264:280|312:248,1,112.000001367188,2|0,0:2|0:0,0:0:0:0:
225,211,74476,1,0,0:0:0:0:
225,211,74651,2,0,P|240:188|272:168,1,56.0000006835938,0|0,1:0|0:0,0:0:0:0:
304,92,74999,2,0,P|327:107|347:139,1,56.0000006835938
405,293,75348,6,0,P|358:263|304:252,2,112.000001367188,4|0|0,0:0|0:0|1:0,0:0:0:0:
172,276,76395,1,0,0:0:0:0:
344,141,76744,2,0,P|288:138|236:156,2,112.000001367188,2|0|0,0:2|0:0|1:0,0:0:0:0:
172,276,77790,1,0,0:0:0:0:
141,58,78139,6,0,P|111:105|100:160,2,112.000001367188,4|0|0,0:2|0:0|1:0,0:0:0:0:
172,276,79186,1,2,0:2:0:0:
360,88,79883,1,0,0:0:0:0:
470,198,80232,1,0,1:0:0:0:
360,88,80581,1,0,0:0:0:0:
233,214,80930,5,4,0:0:0:0:
237,218,81627,1,4,0:0:0:0:
76,100,81976,2,0,P|92:76|112:64,1,50
148,136,82325,2,0,P|188:104|236:92,1,100
220,172,82848,2,0,P|270:164|318:177,2,100
154,217,83720,5,2,0:0:0:0:
256,192,83895,12,2,86744,0:0:0:0:
