osu file format v14

[General]
AudioFilename: ShiED2.mp3
AudioLeadIn: 2000
PreviewTime: 54681
Countdown: 0
SampleSet: Soft
StackLeniency: 0.8
Mode: 0
LetterboxInBreaks: 0
WidescreenStoryboard: 0

[Editor]
Bookmarks: 1,5582,11162,16745,22326,27907,39070,47442,52849,55814,66977,80931
DistanceSpacing: 1.2
BeatDivisor: 8
GridSize: 4
TimelineZoom: 1.7

[Metadata]
Title:Orange(Anime Ver.)
TitleUnicode:オレンジ(アニメVer.)
Artist:7!!
ArtistUnicode:7!!
Creator:LixRei
Version:Normal
Source:四月は君の嘘
Tags:Shigatsu wa Kimi no Uso Your Lie in April Orenji Ending ED2 TV Size Version NANAE MAIKO MICHIRU KEITA 鈴木 俊介 Shunsuke Suzuki Keiko 中西 康晴 Yasuharu Nakanishi 漆原 直美 Naomi Urushibara 高橋 祐子 Yuko Takahashi シライシ 紗トリ Satori Shiraishi
BeatmapID:627029
BeatmapSetID:275353

[Difficulty]
HPDrainRate:4
CircleSize:3.5
OverallDifficulty:5
ApproachRate:4
SliderMultiplier:1.5
SliderTickRate:1

[Events]
//Background and Video events
0,0,"Background.jpg",0,0
Video,0,"Usotsuki.avi"
//Break Periods
//Storyboard Layer 0 (Background)
//Storyboard Layer 1 (Fail)
//Storyboard Layer 2 (Pass)
//Storyboard Layer 3 (Foreground)
//Storyboard Sound Samples

[TimingPoints]
0,697.674418604651,4,2,1,15,1,0
697,-100,4,2,1,35,0,0
5581,-100,4,2,1,15,0,0
6279,-100,4,2,1,35,0,0
11162,-100,4,2,1,15,0,0
11860,-100,4,2,1,35,0,0
13953,-100,4,2,1,15,0,0
14651,-100,4,2,1,35,0,0
16744,-100,4,2,1,15,0,0
17441,-100,4,2,1,35,0,0
21453,-100,4,2,2,5,0,0
21497,-100,4,2,1,35,0,0
53023,-100,4,2,0,35,0,0
54767,-100,4,3,0,30,0,0
55813,-100,4,3,0,35,0,1
80930,-100,4,2,0,35,0,0

[Colours]
Combo1 : 226,193,3
Combo2 : 64,140,255
Combo3 : 143,143,143
Combo4 : 113,198,249

[HitObjects]
88,92,0,5,6,0:0:0:0:
164,256,697,2,0,P|220:292|268:304,2,112.5,8|0|0,0:0|0:0|0:0,0:0:0:0:
120,264,1918,2,0,P|81:223|57:172,1,112.5
44,84,2790,5,2,0:0:0:0:
214,28,3488,1,8,0:0:0:0:
320,173,4185,1,0,0:0:0:0:
214,318,4883,1,2,0:0:0:0:
43,263,5581,5,6,0:0:0:0:
214,318,6279,2,0,P|288:352|360:356,2,150,8|0|2,0:0|0:0|0:0,0:0:0:0:
92,184,8372,5,2,0:0:0:0:
235,75,9069,1,8,0:0:0:0:
257,254,9767,1,2,0:0:0:0:
400,148,10465,1,0,0:0:0:0:
235,75,11162,6,0,P|162:56|89:66,2,150,6|8|2,0:0|0:0|0:0,0:0:0:0:
152,236,13255,1,0,0:0:0:0:
228,284,13604,1,0,0:0:0:0:
308,240,13953,6,0,P|383:259|463:247,2,150,6|8|2,0:0|0:0|0:0,0:0:0:0:
144,168,16046,1,0,0:0:0:0:
164,80,16395,2,0,L|204:64,1,37.5,0|0,0:0|0:0,0:0:0:0:
244,56,16744,6,0,P|320:56|384:104,1,150,6|8,0:0|0:0,0:0:0:0:
391,188,17790,2,0,P|427:175|453:148,2,75,2|0|0,0:0|0:0|0:0,0:0:0:0:
308,154,18837,2,0,P|272:166|246:193,1,75,0|0,0:0|0:0,0:0:0:0:
254,282,19534,6,0,P|178:254|158:190,1,150,2|8,0:0|0:0,0:0:0:0:
160,148,20406,2,0,L|176:100,1,37.5,0|2,0:0|0:0,0:0:0:0:
196,76,20755,2,0,P|304:52|368:92,1,187.5,0|0,0:0|0:0,0:0:0:0:
484,228,22325,5,2,0:0:0:0:
356,355,23023,1,8,0:0:0:0:
356,355,23372,1,2,0:0:0:0:
228,227,24069,1,0,0:0:0:0:
228,227,24418,1,2,0:0:0:0:
100,99,25116,6,0,P|168:56|240:48,1,150,2|8,0:0|0:0,0:0:0:0:
320,80,26162,2,0,P|356:96|396:100,2,75,2|0|0,0:0|0:0|0:0,0:0:0:0:
235,47,27209,1,0,0:0:0:0:
120,188,27906,5,4,0:0:0:0:
168,264,28255,1,0,0:0:0:0:
168,264,28604,2,0,L|308:208,1,150,10|2,0:0|0:0,0:0:0:0:
388,168,29651,2,0,P|436:152|460:136,2,75,0|2|0,0:0|0:0|0:0,0:0:0:0:
312,124,30697,6,0,P|264:140|240:156,1,75,2|0,0:0|0:0,0:0:0:0:
208,184,31220,1,0,0:0:0:0:
176,216,31395,2,0,P|143:234|107:245,2,75,10|0|2,0:0|0:0|0:0,0:0:0:0:
110,154,32441,2,0,P|128:121|154:94,2,75,0|2|0,0:0|0:0|0:0,0:0:0:0:
31,199,33488,6,0,P|22:235|22:272,1,75,2|0,0:0|0:0,0:0:0:0:
84,336,34186,1,8,0:0:0:0:
147,272,34534,1,0,0:0:0:0:
210,335,34883,2,0,P|248:352|292:356,2,75,2|0|0,0:0|0:0|0:0,0:0:0:0:
147,272,35930,1,0,0:0:0:0:
104,192,36279,6,0,P|66:175|22:171,2,75,2|0|8,0:0|0:0|0:0,0:0:0:0:
196,192,37325,1,0,0:0:0:0:
272,240,37674,1,2,0:0:0:0:
316,320,38023,1,0,0:0:0:0:
376,252,38372,2,0,P|414:269|458:271,1,75,2|0,0:0|0:0,0:0:0:0:
434,184,39069,5,4,0:0:0:0:
392,104,39418,2,0,P|368:60|344:40,2,75,0|10|2,0:0|0:0|0:0,0:0:0:0:
304,120,40465,2,0,P|261:93|230:88,1,75,0|0,0:0|0:0,0:0:0:0:
192,88,40988,2,0,P|155:78|125:56,2,75,2|0|0,0:0|0:0|0:0,0:0:0:0:
220,52,41860,5,2,0:0:0:0:
360,164,42558,2,0,P|389:187|422:204,2,75,8|0|2,0:0|0:0|0:0,0:0:0:0:
284,112,43604,2,0,P|313:88|346:71,2,75,0|2|0,0:0|0:0|0:0,0:0:0:0:
252,200,44651,6,0,P|232:232|200:260,1,75,0|0,0:0|0:0,0:0:0:0:
168,284,45174,1,0,0:0:0:0:
128,304,45348,1,10,0:0:0:0:
56,248,45697,2,0,P|32:220|16:180,1,75,0|0,0:0|0:0,0:0:0:0:
108,172,46395,2,0,P|136:148|176:132,1,75,0|2,0:0|0:0,0:0:0:0:
256,104,47093,1,2,0:0:0:0:
341,133,47441,6,0,P|416:172|464:216,1,150,4|8,0:0|0:0,0:0:0:0:
436,304,48488,1,0,0:0:0:0:
396,324,48662,2,0,P|340:340|280:336,1,112.5,2|0,0:0|0:0,0:0:0:0:
200,316,49534,1,0,0:0:0:0:
128,260,49883,6,0,L|96:236,2,37.5,0|0|2,0:0|0:0|0:0,0:0:0:0:
256,192,50406,12,4,53023,0:0:0:0:
316,264,54069,5,4,0:0:0:0:
184,140,54767,2,0,P|148:120|116:112,2,75,8|2|8,0:0|0:0|0:0,0:0:0:0:
256,192,55813,6,0,P|316:236|388:260,1,150,4|0,0:2|1:0,0:0:0:0:
392,168,56860,2,0,P|428:180|460:204,2,75,0|2|0,0:0|0:2|0:0,0:0:0:0:
316,124,57906,1,0,1:0:0:0:
228,112,58255,2,0,L|192:120,1,37.5,2|0,0:2|0:0,0:0:0:0:
148,136,58604,6,0,P|116:156|76:168,2,75,4|0|0,0:0|0:0|1:0,0:0:0:0:
160,48,59651,1,0,0:0:0:0:
160,48,59999,1,2,0:2:0:0:
248,36,60348,2,0,P|288:44|328:60,1,75,0|0,0:0|1:0,0:0:0:0:
388,112,61046,1,0,0:0:0:0:
376,200,61395,6,0,P|318:244|249:276,1,150,4|0,0:2|1:0,0:0:0:0:
164,312,62441,1,0,0:0:0:0:
120,304,62616,2,0,P|88:264|68:204,1,112.5,0|0,0:0|0:0,0:0:0:0:
68,116,63488,1,0,1:0:0:0:
144,64,63837,2,0,L|180:48,1,37.5,0|0,0:0|0:0,0:0:0:0:
220,68,64186,6,0,P|260:48|300:36,2,75,4|0|0,0:0|0:0|1:0,0:0:0:0:
208,156,65232,2,0,P|168:176|128:188,2,75,2|0|0,0:2|0:0|0:0,0:0:0:0:
292,120,66279,2,0,L|324:100,2,37.5,0|0|0,1:0|2:0|0:0,0:0:0:0:
280,208,66976,6,0,P|255:245|226:275,2,75,4|0|0,0:2|0:0|1:0,0:0:0:0:
192,188,68023,1,0,0:0:0:0:
192,188,68372,1,2,0:2:0:0:
104,168,68720,2,0,P|128:130|157:100,2,75,0|0|0,0:0|1:0|0:0,0:0:0:0:
76,204,69593,1,0,0:0:0:0:
56,244,69767,6,0,P|96:304|172:340,1,150,4|0,0:2|1:0,0:0:0:0:
252,360,70813,2,0,P|292:340|320:308,2,75,0|2|0,0:0|0:2|0:0,0:0:0:0:
237,270,71860,1,0,1:0:0:0:
164,220,72209,2,0,L|192:188,1,37.5,2|0,0:0|0:0,0:0:0:0:
224,164,72558,6,0,P|256:140|288:112,2,75,4|0|0,0:2|0:0|1:0,0:0:0:0:
140,136,73604,1,0,0:0:0:0:
80,204,73953,2,0,P|48:228|16:256,2,75,2|0|0,0:2|0:0|1:0,0:0:0:0:
140,136,74999,1,0,0:0:0:0:
228,112,75348,6,0,P|268:104|312:104,1,75,4|0,0:0|0:0,0:0:0:0:
388,124,76046,1,0,1:0:0:0:
328,192,76395,2,0,L|280:260,2,75,0|2|0,0:0|0:2|0:0,0:0:0:0:
416,216,77441,2,0,L|368:284,1,75,0|0,1:0|0:0,0:0:0:0:
304,336,78139,6,0,P|264:336|232:320,1,75,4|0,0:2|0:0,0:0:0:0:
172,252,78837,1,0,1:0:0:0:
172,252,79186,1,2,0:2:0:0:
108,84,79883,2,0,P|80:52|44:40,2,75,0|0|0,0:0|1:0|0:0,0:0:0:0:
180,136,80930,5,4,0:0:0:0:
320,248,81627,1,4,0:0:0:0:
280,328,81976,2,0,L|240:320,1,37.5,0|0,0:0|0:0,0:0:0:0:
200,308,82325,2,0,P|164:300|132:280,1,75,0|0,0:0|0:0,0:0:0:0:
128,236,82848,2,0,P|95:218|69:191,2,75
172,228,83720,5,2,0:0:0:0:
256,192,83895,12,2,86744,0:0:0:0:
