osu file format v14

[General]
AudioFilename: 7!! Orange.mp3
AudioLeadIn: 0
PreviewTime: 54983
Countdown: 0
SampleSet: Soft
StackLeniency: 0.7
Mode: 3
LetterboxInBreaks: 0
SpecialStyle: 0
WidescreenStoryboard: 0

[Editor]
DistanceSpacing: 0.8
BeatDivisor: 8
GridSize: 32
TimelineZoom: 1

[Metadata]
Title:Orange (TV Size)
TitleUnicode:Orange (TV Size)
Artist:7!!
ArtistUnicode:7!!
Creator:Kenny-sama
Version:7K NM
Source:四月は君の嘘
Tags:Shigatsu wa Kimi no Uso Your Lie In April 7!! Orange
BeatmapID:796688
BeatmapSetID:362056

[Difficulty]
HPDrainRate:7
CircleSize:7
OverallDifficulty:7
ApproachRate:5
SliderMultiplier:1.4
SliderTickRate:1

[Events]
//Background and Video events
0,0,"Shigatsu wa Kimi no Uso.jpg",0,0
Video,0,"Shigatsu_wa_Kimi_no_Uso_Ending_2.avi"
//Break Periods
//Storyboard Layer 0 (Background)
//Storyboard Layer 1 (Fail)
//Storyboard Layer 2 (Pass)
//Storyboard Layer 3 (Foreground)
//Storyboard Sound Samples

[TimingPoints]
472,697.674418604651,4,2,1,40,1,0
56285,-100,4,2,1,40,0,1
82099,-100,4,2,1,40,0,0

[HitObjects]
256,192,472,128,0,3262:0:0:0:20:
320,192,1169,1,0,0:0:0:0:
109,192,3262,128,0,6053:0:0:0:20:
256,192,3960,1,0,0:0:0:0:
182,192,4309,1,0,0:0:0:0:
256,192,5006,1,0,0:0:0:0:
329,192,5355,1,0,0:0:0:0:
402,192,5704,1,0,0:0:0:0:
448,192,6053,128,0,8146:0:0:0:20:
256,192,6751,1,0,0:0:0:0:
109,192,8146,128,0,8844:0:0:0:0:
192,192,8844,128,0,10239:0:0:0:40:
475,192,9541,1,0,0:0:0:0:
402,192,10239,128,0,11634:0:0:0:20:
320,192,11634,128,0,13030:0:0:0:40:
256,192,12332,1,0,0:0:0:0:
402,192,13030,128,0,14425:0:0:0:40:
109,192,14425,128,0,15820:0:0:0:40:
256,192,15123,1,0,0:0:0:0:
182,192,15820,128,0,17216:0:0:0:40:
329,192,16867,1,0,0:0:0:0:
402,192,17041,1,0,0:0:0:0:
448,192,17216,128,0,20006:0:0:0:40:
182,192,17565,1,0,0:0:0:0:
256,192,17913,1,0,0:0:0:0:
109,192,18262,128,0,19309:0:0:0:0:
36,192,19309,128,0,20006:0:0:0:0:
192,192,20006,128,0,22099:0:0:0:20:
256,192,20704,1,0,0:0:0:0:
402,192,21053,128,0,22099:0:0:0:40:
256,192,22099,128,0,22797:0:0:0:20:
329,192,22797,128,0,23495:0:0:0:13:
182,192,23495,1,0,0:0:0:0:
329,192,23844,128,0,24541:0:0:0:13:
182,192,24541,128,0,24890:0:0:0:13:
329,192,24890,128,0,25588:0:0:0:13:
182,192,25588,128,0,26285:0:0:0:13:
109,192,26285,1,0,0:0:0:0:
475,192,26634,128,0,26983:0:0:0:0:
329,192,26983,128,0,27332:0:0:0:0:
182,192,27332,128,0,27681:0:0:0:0:
36,192,27681,128,0,28030:0:0:0:0:
192,192,28335,1,0,0:0:0:40:
256,192,28378,1,0,0:0:0:0:
329,192,28422,1,0,0:0:0:0:
36,192,28727,1,0,0:0:0:0:
109,192,28902,1,0,0:0:0:0:
192,192,29076,1,0,0:0:0:20:
256,192,29251,1,0,0:0:0:0:
182,192,29730,1,0,0:0:0:0:
256,192,29774,1,0,0:0:0:0:
329,192,29817,1,0,0:0:0:0:
475,192,30471,1,0,0:0:0:0:
329,192,31126,1,0,0:0:0:0:
402,192,31169,1,0,0:0:0:0:
475,192,31213,1,0,0:0:0:0:
256,192,31344,1,0,0:0:0:0:
182,192,31518,1,0,0:0:0:0:
109,192,31692,1,0,0:0:0:0:
475,192,31867,1,0,0:0:0:0:
36,192,32521,1,0,0:0:0:0:
109,192,32565,1,0,0:0:0:0:
182,192,32608,1,0,0:0:0:0:
109,192,33262,1,0,0:0:0:0:
182,192,33611,128,0,33960:0:0:0:0:
329,192,33916,1,0,0:0:0:0:
402,192,33960,1,0,0:0:0:0:
475,192,34003,1,0,0:0:0:0:
256,192,34658,1,0,0:0:0:0:
329,192,35006,1,0,0:0:0:0:
36,192,35312,1,0,0:0:0:0:
109,192,35355,1,0,0:0:0:0:
182,192,35399,1,0,0:0:0:0:
329,192,35704,1,0,0:0:0:0:
256,192,35878,1,0,0:0:0:0:
329,192,36053,1,0,0:0:0:0:
256,192,36227,1,0,0:0:0:0:
329,192,36402,1,0,0:0:0:0:
109,192,36751,128,0,37971:0:0:0:0:
182,192,37448,1,0,0:0:0:0:
256,192,38146,128,0,39541:0:0:0:13:
402,192,38146,1,0,0:0:0:0:
329,192,38495,1,0,0:0:0:0:
182,192,38844,1,0,0:0:0:0:
109,192,39192,1,0,0:0:0:0:
329,192,39498,1,0,0:0:0:0:
402,192,39541,1,0,0:0:0:0:
475,192,39585,1,0,0:0:0:0:
182,192,40239,1,0,0:0:0:0:
256,192,40413,1,0,0:0:0:0:
329,192,40588,1,0,0:0:0:0:
402,192,40762,1,0,0:0:0:0:
256,192,40893,1,0,0:0:0:0:
182,192,40937,1,0,0:0:0:0:
109,192,40980,1,0,0:0:0:0:
329,192,41460,1,0,0:0:0:0:
402,192,41809,1,0,0:0:0:0:
256,192,42288,1,0,0:0:0:0:
329,192,42332,1,0,0:0:0:0:
402,192,42376,1,0,0:0:0:0:
182,192,43030,1,0,0:0:0:0:
475,192,43727,1,0,0:0:0:0:
256,192,43727,128,0,45123:0:0:0:0:
402,192,43902,1,0,0:0:0:0:
329,192,44076,1,0,0:0:0:0:
182,192,44251,1,0,0:0:0:0:
109,192,44425,1,0,0:0:0:0:
36,192,44599,1,0,0:0:0:0:
475,192,44774,1,0,0:0:0:0:
402,192,44948,1,0,0:0:0:0:
192,192,45123,128,0,46169:0:0:0:13:
329,192,45123,128,0,46169:0:0:0:0:
256,192,45820,1,0,0:0:0:0:
256,192,46169,1,0,0:0:0:0:
256,192,46344,1,0,0:0:0:0:
182,192,47216,1,0,0:0:0:0:
256,192,47390,1,0,0:0:0:0:
329,192,47565,1,0,0:0:0:0:
402,192,47913,128,0,48611:0:0:0:20:
475,192,48611,1,0,0:0:0:0:
109,192,48960,128,0,49658:0:0:0:13:
256,192,48960,1,0,0:0:0:13:
256,192,49134,1,0,0:0:0:0:
64,192,49658,1,0,0:0:0:20:
256,192,50355,1,0,0:0:0:0:
448,192,50704,128,0,53495:0:0:0:20:
36,192,50704,128,0,53495:0:0:0:0:
109,192,51402,1,0,0:0:0:0:
256,192,51751,1,0,0:0:0:0:
402,192,52448,1,0,0:0:0:0:
256,192,52797,1,0,0:0:0:0:
402,192,53146,1,0,0:0:0:0:
182,192,53495,1,0,0:0:0:0:
329,192,53495,1,0,0:0:0:0:
109,192,53844,128,0,54192:0:0:0:20:
402,192,53844,128,0,54192:0:0:0:20:
182,192,54541,1,0,0:0:0:0:
329,192,54541,1,0,0:0:0:0:
109,192,55065,1,0,0:0:0:0:
182,192,55239,1,0,0:0:0:0:
329,192,55239,1,0,0:0:0:0:
402,192,55588,1,0,0:0:0:0:
329,192,55762,1,0,0:0:0:0:
109,192,55937,1,0,0:0:0:0:
256,192,55937,1,0,0:0:0:0:
320,192,56285,128,0,59076:0:0:0:10:
256,192,56285,1,0,0:0:0:0:
402,192,56983,1,0,0:0:0:0:
36,192,56983,1,0,0:0:0:0:
182,192,58030,1,0,0:0:0:0:
475,192,58378,1,0,0:0:0:0:
109,192,58378,1,0,0:0:0:0:
64,192,59076,128,0,61867:0:0:0:20:
182,192,59076,1,0,0:0:0:0:
109,192,59774,1,0,0:0:0:0:
402,192,59774,1,0,0:0:0:0:
256,192,60820,1,0,0:0:0:0:
182,192,61169,1,0,0:0:0:0:
475,192,61169,1,0,0:0:0:0:
448,192,61867,128,0,64658:0:0:0:20:
402,192,61867,1,0,0:0:0:0:
402,192,62565,1,0,0:0:0:13:
109,192,62565,1,0,0:0:0:0:
182,192,63611,1,0,0:0:0:0:
36,192,63960,1,0,0:0:0:0:
329,192,63960,1,0,0:0:0:0:
64,192,64658,128,0,67448:0:0:0:20:
109,192,64658,1,0,0:0:0:0:
402,192,65355,1,0,0:0:0:0:
182,192,65355,1,0,0:0:0:0:
402,192,66053,1,0,0:0:0:0:
256,192,66227,1,0,0:0:0:0:
475,192,66751,1,0,0:0:0:0:
475,192,66925,1,0,0:0:0:0:
402,192,67099,1,0,0:0:0:0:
192,192,67448,128,0,68844:0:0:0:40:
256,192,67448,1,0,0:0:0:0:
36,192,68146,1,0,0:0:0:0:
329,192,68146,1,0,0:0:0:0:
256,192,68844,128,0,70239:0:0:0:0:
402,192,69192,1,0,0:0:0:0:
109,192,69541,1,0,0:0:0:0:
475,192,69541,1,0,0:0:0:0:
448,192,70239,128,0,71634:0:0:0:13:
402,192,70239,1,0,0:0:0:0:
329,192,70937,1,0,0:0:0:0:
109,192,70937,1,0,0:0:0:0:
36,192,71634,128,0,73030:0:0:0:0:
256,192,71983,1,0,0:0:0:0:
182,192,72332,1,0,0:0:0:0:
475,192,72332,1,0,0:0:0:0:
320,192,73030,128,0,74425:0:0:0:13:
182,192,73030,1,0,0:0:0:0:
109,192,73727,1,0,0:0:0:0:
402,192,73727,1,0,0:0:0:0:
448,192,74425,128,0,75820:0:0:0:13:
182,192,74774,1,0,0:0:0:0:
329,192,75123,1,0,0:0:0:0:
36,192,75123,1,0,0:0:0:0:
182,192,75820,128,0,77216:0:0:0:0:
109,192,75820,1,0,0:0:0:0:
36,192,76518,1,0,0:0:0:0:
329,192,76518,1,0,0:0:0:0:
36,192,77216,128,0,78611:0:0:0:0:
256,192,77565,1,0,0:0:0:0:
475,192,77913,1,0,0:0:0:0:
182,192,77913,1,0,0:0:0:0:
109,192,78611,128,0,80704:0:0:0:0:
182,192,78611,1,0,0:0:0:0:
182,192,79309,1,0,0:0:0:0:
36,192,79309,1,0,0:0:0:0:
256,192,80006,1,0,0:0:0:0:
329,192,80355,1,0,0:0:0:0:
182,192,80704,1,0,0:0:0:0:
402,192,80704,1,0,0:0:0:0:
182,192,81402,1,0,0:0:0:0:
329,192,81402,1,0,0:0:0:0:
402,192,82099,128,0,84192:0:0:0:0:
109,192,82099,128,0,84192:0:0:0:0:
256,192,84105,1,0,0:0:0:0:
448,192,84192,128,0,89076:0:0:0:0:
329,192,84192,1,0,0:0:0:0:
256,192,84280,1,0,0:0:0:0:
182,192,84367,1,0,0:0:0:0:
109,192,84454,1,0,0:0:0:0:
36,192,86721,1,0,0:0:0:0:
109,192,86809,1,0,0:0:0:0:
182,192,86896,1,0,0:0:0:0:
256,192,86983,1,0,0:0:0:0:
329,192,87070,1,0,0:0:0:0:
402,192,87158,128,0,88378:0:0:0:0:
