osu file format v14

[General]
AudioFilename: orange.mp3
AudioLeadIn: 0
PreviewTime: 95066
Countdown: 0
SampleSet: Soft
StackLeniency: 0.7
Mode: 0
LetterboxInBreaks: 0
WidescreenStoryboard: 0

[Editor]
Bookmarks: 210706,260938,334892
DistanceSpacing: 1.8
BeatDivisor: 4
GridSize: 16
TimelineZoom: 1

[Metadata]
Title:Orange
TitleUnicode:オレンジ
Artist:7!!
ArtistUnicode:7!!
Creator:Kagamine Ren
Version:Orange
Source:四月は君の嘘
Tags:shigatsu wa kimi no uso your lie in april ending full version seven oops
BeatmapID:666535
BeatmapSetID:296913

[Difficulty]
HPDrainRate:6
CircleSize:4
OverallDifficulty:7
ApproachRate:8
SliderMultiplier:1.6
SliderTickRate:1

[Events]
//Background and Video events
0,0,"bg.jpg",0,0
//Break Periods
2,261138,271351
//Storyboard Layer 0 (Background)
//Storyboard Layer 1 (Fail)
//Storyboard Layer 2 (Pass)
//Storyboard Layer 3 (Foreground)
//Storyboard Sound Samples

[TimingPoints]
23729,697.674418604651,4,2,1,30,1,0
69078,-83.3333333333333,4,2,1,40,0,0
93497,-83.3333333333333,4,2,2,65,0,0
96287,-71.4285714285714,4,2,2,60,0,1
117566,-71.4285714285714,4,2,2,50,0,0
118612,-71.4285714285714,4,2,2,60,0,1
143728,-100,4,2,3,45,0,0
144426,-100,4,2,3,30,0,0
163090,-100,4,2,2,40,0,0
166055,-83.3333333333333,4,2,3,40,0,0
191171,-83.3333333333333,4,2,2,65,0,0
193961,-71.4285714285714,4,2,2,60,0,1
215240,-71.4285714285714,4,2,2,60,0,0
216287,-71.4285714285714,4,2,2,60,0,1
235822,-71.4285714285714,4,2,2,60,0,0
238612,-71.4285714285714,4,2,2,55,0,0
259543,-71.4285714285714,4,2,2,30,0,0
259892,-71.4285714285714,4,2,2,40,0,0
260241,-71.4285714285714,4,2,2,50,0,0
260590,-71.4285714285714,4,2,2,60,0,0
260938,-71.4285714285714,4,2,2,50,0,0
272101,-100,4,2,1,30,0,0
277508,-71.4285714285714,4,2,2,50,0,0
280473,-71.4285714285714,4,2,2,65,0,0
283263,-71.4285714285714,4,2,2,60,0,1
309776,-71.4285714285714,4,2,3,50,0,1
311170,-71.4285714285714,4,2,1,60,0,0
313961,-71.4285714285714,4,2,2,55,0,0
333497,740.740740740741,4,2,1,50,1,0
334237,800,4,2,1,50,1,0
335037,1071.42857142857,4,2,1,50,1,0
335572,937.5,4,2,1,50,1,0
336040,2158.27338129496,4,2,1,50,1,0
337119,1935.48387096774,4,2,1,50,1,0
338086,2068.96551724138,4,2,1,50,1,0
340154,-100,4,2,1,40,0,0
342223,-100,4,2,1,30,0,0

[Colours]
Combo1 : 255,192,0
Combo2 : 89,255,89
Combo3 : 255,187,255

[HitObjects]
255,191,23728,5,2,0:0:0:0:
255,191,26519,5,2,0:0:0:0:
255,191,28613,6,0,L|256:293,2,80,0|0|2,0:0|0:0|0:0,0:0:0:0:
150,101,31403,1,0,0:0:0:0:
150,101,32101,5,2,0:0:0:0:
355,102,33497,1,2,0:0:0:0:
277,239,34543,1,0,0:0:0:0:
277,239,34892,6,0,P|341:258|379:255,1,80,2|0,0:0|0:0,0:0:0:0:
408,199,35415,1,0,0:0:0:0:
368,53,35764,2,0,P|316:46|285:61,1,80
332,122,36287,2,0,P|384:128|420:110,1,80
259,157,37159,5,0,0:0:0:0:
186,191,37334,1,0,0:0:0:0:
118,147,37508,1,0,0:0:0:0:
115,227,37683,2,0,P|166:269|203:266,1,80,2|0,0:0|0:0,0:0:0:0:
250,238,38206,1,0,0:0:0:0:
339,146,38555,2,0,P|263:156|221:155,1,80
333,66,39078,2,0,P|387:84|410:109,1,80,2|0,0:0|0:0,0:0:0:0:
345,222,39776,1,0,0:0:0:0:
275,352,40124,5,0,0:0:0:0:
275,352,40299,1,0,0:0:0:0:
275,352,40473,2,0,P|207:369|167:360,2,80,2|0|0,0:0|0:0|0:0,0:0:0:0:
419,281,41520,1,0,0:0:0:0:
403,122,41869,2,0,P|358:111|310:122,1,80,2|0,0:0|0:0,0:0:0:0:
228,223,42566,2,0,P|261:235|320:224,1,80,2|0,0:0|0:0,0:0:0:0:
153,155,43264,6,0,P|126:239|147:287,1,120,2|0,0:0|0:0,0:0:0:0:
196,314,43962,1,0,0:0:0:0:
274,327,44136,2,0,L|271:377,2,40
354,324,44659,2,0,P|397:328|442:312,1,80,2|0,0:0|0:0,0:0:0:0:
492,264,45183,1,0,0:0:0:0:
481,184,45357,1,0,0:0:0:0:
312,257,45706,1,0,0:0:0:0:
322,100,46055,6,0,P|268:98|228:111,1,80,2|0,0:0|0:0,0:0:0:0:
147,240,46752,2,0,P|205:239|253:222,1,80
287,181,47276,2,0,P|357:176|390:194,1,80
368,259,47799,1,0,0:0:0:0:
428,85,48148,1,8,0:0:0:0:
258,42,48497,1,0,0:0:0:0:
188,228,48845,6,0,B|255:226|289:180|289:180|245:188,1,160,2|0,0:0|0:0,0:0:0:0:
115,70,49892,2,0,B|56:67|15:119|15:119|59:111,1,160,0|8,0:0|0:0,0:0:0:0:
295,77,51636,5,2,0:0:0:0:
162,125,52334,2,0,P|216:140|246:137,1,80,0|0,0:0|0:0,0:0:0:0:
295,78,52857,2,0,P|317:153|291:199,1,120,0|0,0:0|0:0,0:0:0:0:
228,221,53555,1,0,0:0:0:0:
292,267,53729,2,0,L|404:260,1,80,8|0,0:0|0:0,0:0:0:0:
445,119,54427,5,2,0:0:0:0:
301,188,54776,1,0,0:0:0:0:
174,90,55124,1,0,0:0:0:0:
322,30,55473,1,0,0:0:0:0:
174,90,55822,2,0,P|116:82|88:94,1,80,2|0,0:0|0:0,0:0:0:0:
38,211,56520,2,0,P|95:219|127:206,1,80,8|0,0:0|0:0,0:0:0:0:
275,107,57217,6,0,P|289:166|275:209,1,80,2|0,0:0|0:0,0:0:0:0:
230,251,57741,2,0,L|164:255,1,40
250,339,58090,2,0,B|292:361|331:348,1,80
391,289,58613,2,0,L|394:210,2,80,2|0|8,0:0|0:0|0:0,0:0:0:0:
210,162,59659,5,0,0:0:0:0:
210,163,60008,2,0,P|129:189|51:137,1,160,2|0,0:0|0:0,0:0:0:0:
146,39,61055,1,0,0:0:0:0:
277,98,61403,2,0,P|295:133|300:172,1,80,2|0,0:0|0:0,0:0:0:0:
210,163,61927,1,8,0:0:0:0:
268,296,62276,2,0,P|305:303|352:285,1,80
403,99,62799,6,0,P|323:106|300:173,1,160,2|0,0:0|0:0,0:0:0:0:
152,176,63845,1,0,0:0:0:0:
152,176,64194,2,0,L|104:111,1,80,2|0,0:0|0:0,0:0:0:0:
61,241,64892,1,8,0:0:0:0:
241,111,65241,1,0,0:0:0:0:
141,315,65590,6,0,P|208:333|294:300,1,160,2|0,0:0|0:0,0:0:0:0:
337,140,66636,1,0,0:0:0:0:
265,207,66810,1,0,0:0:0:0:
358,236,66985,1,2,0:0:0:0:
358,236,67334,2,0,P|404:250|453:229,1,80,0|8,0:0|0:0,0:0:0:0:
434,148,67857,1,0,0:0:0:0:
173,178,68380,5,2,0:0:0:0:
287,304,68729,1,0,0:0:0:0:
287,304,68903,1,0,0:0:0:0:
287,304,69078,2,0,P|256:342|209:366,1,95.9999970703126,8|0,0:0|0:0,0:0:0:0:
90,243,69601,1,0,0:0:0:0:
190,277,69776,1,2,0:0:0:0:
111,339,69950,1,0,0:0:0:0:
173,178,70124,6,0,P|250:168|288:154,1,95.9999970703126,0|8,0:0|0:0,0:0:0:0:
378,278,70648,2,0,P|313:302|260:305,1,95.9999970703126
190,278,71171,1,2,0:0:0:0:
190,278,71520,1,0,0:0:0:0:
174,177,71694,1,0,0:0:0:0:
233,100,71869,6,0,P|138:87|90:131,1,143.999995605469,8|0,0:0|0:0,0:0:0:0:
174,177,72566,1,2,0:0:0:0:
269,186,72741,1,0,0:0:0:0:
373,104,72915,2,0,L|325:105,1,47.9999985351563
364,193,73264,2,0,L|459:185,1,95.9999970703126,8|0,0:0|0:0,0:0:0:0:
419,279,73787,1,0,0:0:0:0:
419,279,73962,6,0,P|358:280|313:270,1,95.9999970703126,2|0,0:0|0:0,0:0:0:0:
269,186,74485,1,0,0:0:0:0:
228,267,74659,2,0,L|216:337,1,47.9999985351563,8|0,0:0|0:0,0:0:0:0:
138,366,75008,1,0,0:0:0:0:
133,256,75183,1,0,0:0:0:0:
323,272,75357,2,0,L|300:366,1,95.9999970703126,2|0,0:0|0:0,0:0:0:0:
133,256,76055,2,0,P|65:259|18:227,1,95.9999970703126,8|0,0:0|0:0,0:0:0:0:
172,159,76752,5,2,0:0:0:0:
356,186,77101,1,0,0:0:0:0:
210,64,77450,2,0,P|146:60|98:85,1,95.9999970703126,8|0,0:0|0:0,0:0:0:0:
268,177,78148,2,0,P|313:197|362:183,1,95.9999970703126,2|0,0:0|0:0,0:0:0:0:
335,53,78845,1,8,0:0:0:0:
335,53,79194,1,0,0:0:0:0:
389,274,79543,1,2,0:0:0:0:
281,350,79892,5,0,0:0:0:0:
190,344,80066,1,0,0:0:0:0:
329,227,80241,2,0,P|378:199|463:259,1,143.999995605469,8|0,0:0|0:0,0:0:0:0:
368,354,80938,1,2,0:0:0:0:
251,268,81113,1,0,0:0:0:0:
281,351,81287,1,0,0:0:0:0:
329,228,81462,2,0,L|323:164,1,47.9999985351563,0|8,0:0|0:0,0:0:0:0:
263,106,81810,6,0,P|310:84|359:91,1,95.9999970703126
259,187,82334,2,0,P|201:183|159:154,1,95.9999970703126,2|0,0:0|0:0,0:0:0:0:
48,253,83031,2,0,L|147:261,1,95.9999970703126,8|0,0:0|0:0,0:0:0:0:
259,187,83555,1,0,0:0:0:0:
220,98,83729,1,2,0:0:0:0:
315,112,83903,1,0,0:0:0:0:
370,36,84078,1,0,0:0:0:0:
404,151,84252,2,0,L|477:164,1,47.9999985351563,0|8,0:0|0:0,0:0:0:0:
315,112,84601,6,0,L|210:96,1,95.9999970703126
265,247,85124,2,0,P|306:267|374:252,1,95.9999970703126,2|0,0:0|0:0,0:0:0:0:
224,175,85822,1,8,0:0:0:0:
137,330,86171,2,0,L|270:323,2,95.9999970703126,0|2|0,0:0|0:0|0:0,0:0:0:0:
151,164,87217,1,8,0:0:0:0:
336,178,87566,1,0,0:0:0:0:
461,323,87915,6,0,P|403:357|339:269,1,191.999994140625,2|8,0:0|0:0,0:0:0:0:
336,178,88787,1,0,0:0:0:0:
286,95,88962,2,0,L|299:27,2,47.9999985351563,0|0|2,0:0|0:0|0:0,0:0:0:0:
231,179,89485,1,0,0:0:0:0:
183,95,89659,2,0,P|125:106|93:164,1,95.9999970703126,0|8,0:0|0:0,0:0:0:0:
280,261,90357,5,0,0:0:0:0:
371,304,90531,2,0,L|371:242,1,47.9999985351563,0|2,0:0|0:0,0:0:0:0:
256,192,90880,12,0,93148,0:0:0:0:
255,193,93497,5,8,0:0:0:0:
255,193,93845,1,8,0:0:0:0:
173,66,94543,2,0,P|256:25|349:83,1,191.999994140625,4|8,0:0|3:0,0:0:0:0:
438,231,95590,1,8,3:0:0:0:
342,231,95764,1,8,3:3:0:0:
390,148,95938,1,8,3:0:0:0:
390,148,96287,6,0,P|440:120|460:54,1,111.999996582031,6|0,0:0|0:0,0:0:0:0:
295,149,96985,2,0,P|241:142|166:182,1,111.999996582031,8|0,0:0|0:0,0:0:0:0:
95,201,97508,1,0,0:0:0:0:
90,302,97683,2,0,P|143:307|206:267,1,111.999996582031,2|0,0:0|3:0,0:0:0:0:
345,233,98380,2,0,L|481:239,1,111.999996582031,8|0,0:0|0:0,0:0:0:0:
454,136,98903,1,0,0:0:0:0:
454,136,99078,6,0,P|423:99|409:26,1,111.999996582031,2|0,0:0|0:0,0:0:0:0:
344,120,99601,1,0,0:0:0:0:
344,120,99776,2,0,P|274:134|214:120,1,111.999996582031,8|0,0:0|0:0,0:0:0:0:
176,44,100299,1,0,0:0:0:0:
126,131,100473,2,0,B|132:183|161:204|161:204|127:265,1,111.999996582031,2|0,0:0|3:0,0:0:0:0:
75,323,101171,2,0,P|130:347|188:340,1,111.999996582031,8|0,0:0|0:0,0:0:0:0:
374,269,101869,6,0,B|304:316|243:260|243:260|270:350,1,223.999993164063,2|8,0:0|0:0,0:0:0:0:
442,342,102915,1,0,0:0:0:0:
483,251,103090,1,0,0:0:0:0:
483,251,103264,2,0,L|475:134,1,111.999996582031,2|0,0:0|3:0,0:0:0:0:
307,101,103962,2,0,L|314:234,1,111.999996582031,8|0,0:0|0:0,0:0:0:0:
394,120,104485,1,0,0:0:0:0:
349,22,104659,6,0,P|288:11|235:45,1,111.999996582031,2|0,0:0|0:0,0:0:0:0:
153,76,105183,1,0,0:0:0:0:
156,176,105357,2,0,L|256:160,1,55.9999982910157,8|0,0:0|0:0,0:0:0:0:
154,274,105706,2,0,P|96:252|64:200,1,111.999996582031,0|2,0:0|0:0,0:0:0:0:
154,76,106403,1,8,3:0:0:0:
357,85,106752,1,8,3:0:0:0:
273,149,106927,1,8,3:0:0:0:
259,41,107101,1,8,3:0:0:0:
259,41,107450,6,0,P|278:112|262:175,1,111.999996582031,6|0,0:0|0:0,0:0:0:0:
357,84,108148,2,0,P|430:73|485:93,1,111.999996582031,8|0,0:0|0:0,0:0:0:0:
273,149,108845,2,0,P|214:159|139:117,1,111.999996582031,2|0,0:0|3:0,0:0:0:0:
367,181,109543,1,8,0:0:0:0:
309,342,110066,1,0,0:0:0:0:
309,342,110241,6,0,P|385:368|434:347,1,111.999996582031,2|0,0:0|0:0,0:0:0:0:
462,272,110764,1,0,0:0:0:0:
368,180,110938,2,0,L|377:331,1,111.999996582031,8|0,0:0|0:0,0:0:0:0:
463,271,111462,1,0,0:0:0:0:
283,240,111636,2,0,P|217:231|175:252,1,111.999996582031,2|0,0:0|3:0,0:0:0:0:
98,130,112334,1,8,0:0:0:0:
225,62,112682,1,0,0:0:0:0:
225,62,112857,1,0,0:0:0:0:
225,62,113031,6,0,P|292:49|356:81,1,111.999996582031,2|0,0:0|0:0,0:0:0:0:
277,158,113555,1,0,0:0:0:0:
356,232,113729,2,0,P|412:254|483:245,1,111.999996582031,8|0,0:0|0:0,0:0:0:0:
421,169,114252,1,0,0:0:0:0:
421,169,114427,2,0,P|409:241|402:291,1,111.999996582031,2|0,0:0|3:0,0:0:0:0:
235,197,115124,1,8,0:0:0:0:
93,344,115473,1,0,0:0:0:0:
93,344,115648,1,0,0:0:0:0:
93,344,115822,6,0,P|150:371|226:356,1,111.999996582031,2|0,0:0|0:0,0:0:0:0:
167,271,116345,1,0,0:0:0:0:
131,176,116520,2,0,P|192:173|245:209,1,111.999996582031,8|0,0:0|0:0,0:0:0:0:
366,332,117217,1,2,0:0:0:0:
414,133,117566,2,0,P|348:121|274:141,2,111.999996582031,8|8|8,0:0|0:0|0:0,0:0:0:0:
394,232,118438,1,0,0:0:0:0:
220,190,118612,6,0,P|201:124|217:78,1,111.999996582031,6|0,0:0|0:0,0:0:0:0:
288,272,119310,2,0,P|220:303|154:283,1,111.999996582031,8|0,0:0|0:0,0:0:0:0:
123,218,119834,1,0,0:0:0:0:
220,190,120008,2,0,P|280:160|339:172,1,111.999996582031,2|0,0:0|3:0,0:0:0:0:
453,303,120706,2,0,P|479:251|477:191,1,111.999996582031,8|0,0:0|0:0,0:0:0:0:
418,117,121229,1,0,0:0:0:0:
332,64,121403,6,0,P|267:72|200:46,1,111.999996582031,2|0,0:0|0:0,0:0:0:0:
125,88,121927,1,0,0:0:0:0:
125,88,122101,2,0,L|105:210,1,111.999996582031,8|0,0:0|0:0,0:0:0:0:
217,302,122799,2,0,P|162:314|108:302,2,111.999996582031,2|0|8,0:0|3:0|0:0,0:0:0:0:
221,125,123845,1,0,0:0:0:0:
221,125,124020,1,0,0:0:0:0:
221,125,124194,6,0,P|280:112|351:140,1,111.999996582031,2|0,0:0|0:0,0:0:0:0:
467,246,124892,2,0,P|413:259|360:245,1,111.999996582031,8|0,0:0|0:0,0:0:0:0:
263,214,125415,1,0,0:0:0:0:
263,214,125590,2,0,P|185:226|132:217,2,111.999996582031,2|0|8,0:0|3:0|0:0,0:0:0:0:
410,53,126635,1,0,0:0:0:0:
410,53,126810,1,0,0:0:0:0:
410,53,126985,6,0,P|338:38|285:58,1,111.999996582031,2|0,0:0|0:0,0:0:0:0:
219,106,127508,1,0,0:0:0:0:
128,61,127683,2,0,L|58:63,1,55.9999982910157,8|0,0:0|0:0,0:0:0:0:
136,162,128031,2,0,P|176:199|251:201,1,111.999996582031,0|2,0:0|0:0,0:0:0:0:
302,48,128729,1,8,3:0:0:0:
128,61,129078,1,8,3:0:0:0:
219,107,129252,1,8,3:0:0:0:
302,48,129427,1,8,3:0:0:0:
302,48,129776,6,0,P|312:137|280:189,1,111.999996582031,6|0,0:0|0:0,0:0:0:0:
401,99,130473,2,0,L|526:101,1,111.999996582031,8|0,0:0|0:0,0:0:0:0:
389,2,131171,1,2,0:0:0:0:
409,197,131520,2,0,L|285:267,1,111.999996582031,0|8,3:0|0:0,0:0:0:0:
149,210,132217,1,0,0:0:0:0:
149,210,132392,1,0,0:0:0:0:
149,210,132566,6,0,P|131:276|164:333,1,111.999996582031,2|0,0:0|0:0,0:0:0:0:
246,329,133090,1,0,0:0:0:0:
357,234,133264,2,0,P|295:219|224:246,1,111.999996582031,8|0,0:0|0:0,0:0:0:0:
246,329,133787,1,0,0:0:0:0:
350,340,133962,2,0,P|407:356|478:328,1,111.999996582031,2|0,0:0|3:0,0:0:0:0:
357,234,134659,1,8,0:0:0:0:
362,27,135008,1,0,0:0:0:0:
455,84,135183,1,0,0:0:0:0:
359,132,135357,6,0,P|294:117|228:140,1,111.999996582031,2|0,0:0|0:0,0:0:0:0:
222,213,135880,1,0,0:0:0:0:
124,300,136055,2,0,P|191:317|248:290,1,111.999996582031,8|0,0:0|0:0,0:0:0:0:
266,203,136578,1,0,0:0:0:0:
172,109,136752,2,0,L|182:230,1,111.999996582031,2|0,0:0|3:0,0:0:0:0:
310,194,137276,1,0,0:0:0:0:
400,95,137450,2,0,P|335:85|287:102,1,111.999996582031,8|0,0:0|0:0,0:0:0:0:
310,194,137973,1,0,0:0:0:0:
470,269,138148,6,0,L|465:149,1,111.999996582031,2|0,0:0|0:0,0:0:0:0:
310,195,138845,2,0,L|315:321,1,111.999996582031,8|0,0:0|0:0,0:0:0:0:
226,126,139543,2,0,P|263:47|310:34,1,111.999996582031,2|8,0:0|3:0,0:0:0:0:
310,193,140241,1,8,3:0:0:0:
208,238,140415,1,8,3:0:0:0:
226,127,140590,1,8,3:0:0:0:
226,127,140938,6,0,P|160:128|113:164,2,111.999996582031,6|0|8,0:0|0:0|0:0,0:0:0:0:
208,238,141810,1,8,3:0:0:0:
194,349,141985,1,8,3:0:0:0:
102,283,142159,2,0,P|77:230|110:145,1,111.999996582031,8|0,3:0|3:0,0:0:0:0:
227,126,142683,1,8,0:0:0:0:
293,306,143031,1,8,0:0:0:0:
395,258,143206,1,0,0:0:0:0:
303,193,143380,1,0,0:0:0:0:
207,82,143729,5,4,0:0:0:0:
207,83,144427,2,0,P|132:73|111:76,1,80,8|0,0:0|0:0,0:0:0:0:
261,161,145124,2,0,P|318:167|365:161,1,80,2|0,0:0|0:0,0:0:0:0:
418,42,145822,1,8,0:0:0:0:
407,229,146171,1,0,0:0:0:0:
376,317,146345,1,0,0:0:0:0:
288,339,146520,6,0,P|231:344|188:319,1,80,2|0,0:0|0:0,0:0:0:0:
262,160,147217,1,8,0:0:0:0:
121,108,147566,2,0,P|61:117|121:173,1,160,0|0,0:0|0:0,0:0:0:0:
228,261,148613,1,8,0:0:0:0:
369,166,148962,1,0,0:0:0:0:
459,310,149310,6,0,P|409:322|323:250,1,160,2|8,0:0|0:0,0:0:0:0:
275,126,150357,1,0,0:0:0:0:
106,81,150706,2,0,P|144:72|181:85,1,80,2|0,0:0|0:0,0:0:0:0:
229,216,151403,2,0,P|184:263|149:269,1,80,8|0,0:0|0:0,0:0:0:0:
86,284,151927,1,0,0:0:0:0:
174,350,152101,6,0,P|251:350|280:335,1,80,2|0,0:0|0:0,0:0:0:0:
318,208,152799,1,8,0:0:0:0:
146,184,153148,1,0,0:0:0:0:
303,285,153497,1,2,0:0:0:0:
147,184,153845,1,0,0:0:0:0:
199,48,154194,2,0,P|239:53|283:85,1,80,8|0,0:0|0:0,0:0:0:0:
318,208,154892,6,0,P|372:220|425:207,1,80,2|0,0:0|0:0,0:0:0:0:
475,208,155415,2,0,L|489:285,1,40,0|8,0:0|0:0,0:0:0:0:
409,311,155764,2,0,P|339:313|283:298,1,120,0|2,0:0|0:0,0:0:0:0:
164,243,156636,1,0,0:0:0:0:
276,67,156985,1,8,0:0:0:0:
125,99,157334,1,0,0:0:0:0:
318,207,157683,6,0,P|372:214|427:201,1,80,2|0,0:0|0:0,0:0:0:0:
475,165,158206,1,0,0:0:0:0:
475,165,158380,2,0,P|484:233|462:272,1,80,8|0,0:0|0:0,0:0:0:0:
294,320,159078,1,2,0:0:0:0:
347,193,159427,1,0,0:0:0:0:
387,281,159601,1,0,0:0:0:0:
422,366,159776,1,8,0:0:0:0:
347,193,160124,6,0,L|329:138,1,40
270,244,160473,2,0,L|304:350,1,80,2|0,0:0|0:0,0:0:0:0:
195,186,161171,1,8,0:0:0:0:
30,210,161520,1,0,0:0:0:0:
92,344,161869,2,0,P|131:348|178:331,1,80,2|0,0:0|0:0,0:0:0:0:
270,243,162566,2,0,P|307:233|355:248,1,80,8|0,0:0|0:0,0:0:0:0:
415,337,163090,1,8,3:0:0:0:
468,237,163263,6,0,L|473:174,2,40,8|8|0,3:0|3:0|0:0,0:0:0:0:
417,52,163962,1,8,0:0:0:0:
300,169,164310,1,0,0:0:0:0:
227,68,164659,2,0,L|292:65,1,40,8|8,3:0|3:0,0:0:0:0:
301,169,165008,2,0,L|237:173,1,40,8|8,3:0|3:0,0:0:0:0:
325,272,165357,2,0,P|366:281|424:258,1,80,8|0,0:0|0:0,0:0:0:0:
363,94,166055,5,4,0:0:0:0:
237,242,166403,2,0,L|169:237,1,47.9999985351563
301,169,166752,2,0,P|370:189|417:181,1,95.9999970703126,8|0,0:0|0:0,0:0:0:0:
468,97,167276,1,0,0:0:0:0:
484,191,167450,1,2,0:0:0:0:
496,285,167624,1,0,0:0:0:0:
381,318,167799,2,0,P|320:331|279:321,1,95.9999970703126,0|8,0:0|0:0,0:0:0:0:
133,192,168497,5,0,0:0:0:0:
233,205,168671,1,0,0:0:0:0:
168,282,168845,2,0,P|83:277|43:228,1,143.999995605469,2|0,0:0|0:0,0:0:0:0:
133,192,169543,2,0,P|208:191|252:243,1,143.999995605469,8|0,0:0|0:0,0:0:0:0:
302,158,170241,2,0,L|303:74,1,47.9999985351563,2|0,0:0|0:0,0:0:0:0:
398,99,170590,2,0,L|398:147,1,47.9999985351563
324,21,170938,1,8,0:0:0:0:
495,44,171113,2,0,L|493:99,2,47.9999985351563
470,173,171636,6,0,P|459:253|486:295,1,95.9999970703126,2|0,0:0|0:0,0:0:0:0:
374,343,172334,2,0,P|316:354|274:339,1,95.9999970703126,8|0,0:0|0:0,0:0:0:0:
191,309,172857,1,0,0:0:0:0:
121,227,173031,2,0,L|230:223,1,95.9999970703126,2|0,0:0|0:0,0:0:0:0:
296,258,173555,1,0,0:0:0:0:
377,150,173729,2,0,L|266:153,1,95.9999970703126,8|0,0:0|0:0,0:0:0:0:
110,45,174427,6,0,P|156:36|203:47,1,95.9999970703126,2|0,0:0|0:0,0:0:0:0:
155,130,174950,1,0,0:0:0:0:
82,236,175124,2,0,L|62:107,1,95.9999970703126,8|0,0:0|0:0,0:0:0:0:
202,213,175822,1,2,0:0:0:0:
396,164,176171,1,0,0:0:0:0:
246,295,176520,1,8,0:0:0:0:
352,78,176869,1,8,0:0:0:0:
133,54,177217,6,0,P|112:107|136:164,1,95.9999970703126,6|0,0:0|0:0,0:0:0:0:
209,110,177741,1,0,0:0:0:0:
172,214,177915,2,0,P|121:231|59:208,1,95.9999970703126,8|0,0:0|0:0,0:0:0:0:
69,318,178438,2,0,L|72:370,2,47.9999985351563,0|2|0,0:0|0:0|0:0,0:0:0:0:
161,340,178962,2,0,P|208:360|275:344,1,95.9999970703126,0|8,0:0|0:0,0:0:0:0:
331,301,179485,2,0,L|340:367,2,47.9999985351563,0|0|0,0:0|0:0|0:0,0:0:0:0:
265,230,180008,6,0,P|336:206|404:241,1,143.999995605469,2|0,0:0|0:0,0:0:0:0:
429,323,180706,2,0,P|486:260|477:177,1,143.999995605469,8|0,0:0|0:0,0:0:0:0:
353,123,181403,2,0,L|351:175,1,47.9999985351563,2|0,0:0|0:0,0:0:0:0:
439,131,181752,2,0,L|440:83,1,47.9999985351563,0|0,0:0|0:0,0:0:0:0:
322,41,182101,2,0,P|238:32|178:80,1,143.999995605469,8|0,0:0|0:0,0:0:0:0:
144,149,182799,6,0,P|137:217|163:258,1,95.9999970703126,2|0,0:0|0:0,0:0:0:0:
332,183,183497,2,0,L|227:187,1,95.9999970703126,8|0,0:0|0:0,0:0:0:0:
144,149,184020,1,0,0:0:0:0:
144,149,184194,1,2,0:0:0:0:
284,280,184543,1,0,0:0:0:0:
427,152,184892,1,8,0:0:0:0:
290,16,185241,1,0,0:0:0:0:
276,188,185590,6,0,P|272:252|299:296,1,95.9999970703126,2|0,0:0|0:0,0:0:0:0:
470,330,186287,1,8,0:0:0:0:
427,152,186636,2,0,L|364:151,1,47.9999985351563,8|8,3:0|3:0,0:0:0:0:
379,233,186985,2,0,L|435:235,2,47.9999985351563,8|8|0,3:0|3:0|1:0,0:0:0:0:
228,155,187683,1,0,0:0:0:0:
133,170,187857,1,0,0:0:0:0:
169,81,188031,1,0,0:0:0:0:
285,231,188206,1,0,0:0:0:0:
101,256,188380,5,6,0:0:0:0:
256,192,188555,12,0,190822,0:0:0:0:
259,189,191171,5,8,0:0:0:0:
259,189,191520,1,8,0:0:0:0:
259,189,192217,2,0,B|331:216|390:202|390:202|351:130,1,191.999994140625,4|8,0:0|3:0,0:0:0:0:
184,118,193264,1,8,3:0:0:0:
285,95,193438,1,8,3:0:0:0:
259,189,193613,1,8,3:0:0:0:
259,189,193962,6,0,P|274:258|257:324,1,111.999996582031,6|0,0:0|0:0,0:0:0:0:
81,139,194659,2,0,P|93:79|146:27,1,111.999996582031,8|0,0:0|0:0,0:0:0:0:
285,95,195357,1,2,0:0:0:0:
124,217,195706,1,0,3:0:0:0:
208,30,196055,1,8,0:0:0:0:
361,157,196578,1,0,0:0:0:0:
361,157,196752,6,0,P|435:150|474:164,1,111.999996582031,2|0,0:0|0:0,0:0:0:0:
271,224,197276,1,0,0:0:0:0:
271,224,197450,2,0,P|202:218|153:165,1,111.999996582031,8|0,0:0|0:0,0:0:0:0:
43,226,198148,2,0,P|46:286|72:345,2,111.999996582031,2|0|8,0:0|3:0|0:0,0:0:0:0:
218,266,199194,1,0,0:0:0:0:
218,266,199369,1,0,0:0:0:0:
218,266,199543,6,0,L|343:271,1,111.999996582031,2|0,0:0|0:0,0:0:0:0:
327,96,200241,2,0,L|196:90,1,111.999996582031,8|0,0:0|0:0,0:0:0:0:
135,224,200938,2,0,P|130:297|161:350,1,111.999996582031,2|0,0:0|3:0,0:0:0:0:
94,126,201636,2,0,L|29:128,2,55.9999982910157,8|0|0,0:0|0:0|0:0,0:0:0:0:
173,63,202159,1,0,0:0:0:0:
173,63,202334,6,0,P|237:39|297:68,1,111.999996582031,2|0,0:0|0:0,0:0:0:0:
337,167,202857,1,0,0:0:0:0:
337,167,203031,2,0,L|228:124,1,111.999996582031,8|0,0:0|0:0,0:0:0:0:
373,48,203729,2,0,P|428:51|477:88,1,111.999996582031,2|8,0:0|3:0,0:0:0:0:
479,254,204427,1,8,3:0:0:0:
406,315,204601,1,8,3:0:0:0:
358,233,204776,1,8,3:0:0:0:
358,233,205124,6,0,L|237:213,1,111.999996582031,6|0,0:0|0:0,0:0:0:0:
140,121,205822,1,8,0:0:0:0:
310,152,206171,1,0,0:0:0:0:
88,40,206520,2,0,P|52:74|45:142,2,111.999996582031,2|0|8,0:0|3:0|0:0,0:0:0:0:
194,205,207566,2,0,L|139:207,1,55.9999982910157
310,287,207915,6,0,L|179:302,1,111.999996582031,2|0,0:0|0:0,0:0:0:0:
188,108,208438,1,0,0:0:0:0:
188,108,208613,2,0,L|328:92,1,111.999996582031,8|0,0:0|0:0,0:0:0:0:
359,175,209136,1,0,0:0:0:0:
359,175,209310,2,0,L|485:156,1,111.999996582031,2|0,0:0|3:0,0:0:0:0:
420,259,210008,1,8,0:0:0:0:
298,96,210357,1,0,0:0:0:0:
298,96,210531,1,0,0:0:0:0:
298,95,210706,6,0,P|242:58|185:48,1,111.999996582031,2|0,0:0|0:0,0:0:0:0:
147,140,211229,1,0,0:0:0:0:
46,259,211403,2,0,L|45:140,1,111.999996582031,8|0,0:0|0:0,0:0:0:0:
69,48,211927,1,0,0:0:0:0:
147,140,212101,2,0,P|183:185|247:210,1,111.999996582031,2|0,0:0|3:0,0:0:0:0:
132,294,212799,1,8,0:0:0:0:
327,345,213148,1,0,0:0:0:0:
509,258,213497,6,0,P|445:248|383:304,1,111.999996582031,2|0,0:0|0:0,0:0:0:0:
463,328,214020,1,0,0:0:0:0:
463,328,214194,2,0,L|440:195,1,111.999996582031,8|0,0:0|0:0,0:0:0:0:
512,54,214892,1,2,0:0:0:0:
327,21,215240,1,8,0:0:0:0:
307,204,215590,1,0,0:0:0:0:
224,144,215764,1,0,0:0:0:0:
323,114,215938,1,8,0:0:0:0:
323,114,216287,6,0,P|400:183|351:282,1,223.999993164063,6|8,0:0|0:0,0:0:0:0:
210,212,217334,1,0,0:0:0:0:
210,212,217508,2,0,L|126:226,2,55.9999982910157,0|2|0,0:0|0:0|0:0,0:0:0:0:
308,203,218031,1,0,3:0:0:0:
169,59,218380,1,8,0:0:0:0:
335,24,218729,1,0,0:0:0:0:
335,24,218903,1,0,0:0:0:0:
335,24,219078,6,0,P|404:43|436:95,1,111.999996582031,2|0,0:0|0:0,0:0:0:0:
322,114,219601,1,0,0:0:0:0:
213,143,219776,2,0,L|77:164,1,111.999996582031,8|0,0:0|0:0,0:0:0:0:
182,241,220299,1,0,0:0:0:0:
284,220,220473,2,0,P|322:283|318:331,2,111.999996582031,2|0|8,0:0|3:0|0:0,0:0:0:0:
79,209,221519,1,0,0:0:0:0:
79,209,221694,1,0,0:0:0:0:
79,209,221869,6,0,P|65:146|89:89,1,111.999996582031,2|0,0:0|0:0,0:0:0:0:
222,117,222566,2,0,P|283:114|333:140,1,111.999996582031,8|0,0:0|0:0,0:0:0:0:
348,235,223090,1,0,0:0:0:0:
348,235,223264,2,0,P|416:257|471:236,1,111.999996582031,2|0,0:0|3:0,0:0:0:0:
472,115,223962,1,8,0:0:0:0:
315,30,224310,1,0,0:0:0:0:
213,65,224485,1,0,0:0:0:0:
236,195,224659,6,0,P|256:270|220:325,1,111.999996582031,2|0,0:0|0:0,0:0:0:0:
136,266,225183,1,0,0:0:0:0:
86,166,225357,2,0,L|170:172,1,55.9999982910157,8|0,0:0|0:0,0:0:0:0:
188,367,225706,2,0,P|131:369|76:360,1,111.999996582031,0|2,0:0|0:0,0:0:0:0:
24,260,226403,1,8,3:0:0:0:
147,75,226752,1,8,3:0:0:0:
194,176,226927,1,8,3:0:0:0:
257,83,227101,1,8,3:0:0:0:
257,83,227450,6,0,P|317:73|378:102,1,111.999996582031,6|0,0:0|0:0,0:0:0:0:
194,176,228148,2,0,L|71:158,2,111.999996582031,8|0|2,0:0|0:0|0:0,0:0:0:0:
364,91,229194,1,0,3:0:0:0:
396,213,229543,2,0,P|340:216|290:192,1,111.999996582031,8|0,0:0|0:0,0:0:0:0:
193,249,230066,1,0,0:0:0:0:
193,249,230241,6,0,P|184:321|212:378,1,111.999996582031,2|0,0:0|0:0,0:0:0:0:
293,299,230764,1,0,0:0:0:0:
293,299,230938,2,0,L|422:315,1,111.999996582031,8|0,0:0|0:0,0:0:0:0:
480,161,231636,2,0,P|481:88|456:33,1,111.999996582031,2|0,0:0|3:0,0:0:0:0:
296,177,232334,1,8,0:0:0:0:
174,66,232683,2,0,L|245:63,1,55.9999982910157
91,105,233031,6,0,P|53:174|70:242,1,111.999996582031,2|0,0:0|0:0,0:0:0:0:
149,265,233555,1,0,0:0:0:0:
259,278,233729,2,0,P|292:231|293:166,1,111.999996582031,8|0,0:0|0:0,0:0:0:0:
88,343,234427,2,0,P|140:362|195:354,1,111.999996582031,2|0,0:0|3:0,0:0:0:0:
235,168,235124,2,0,L|264:295,1,111.999996582031,8|0,0:0|0:0,0:0:0:0:
331,204,235648,1,0,0:0:0:0:
331,204,235822,1,6,0:0:0:0:
256,192,235997,12,0,238264,0:0:0:0:
256,190,238612,5,4,0:0:0:0:
256,190,238787,1,0,0:0:0:0:
256,190,238962,1,0,0:0:0:0:
256,190,239310,2,0,P|341:204|381:193,2,111.999996582031,8|0|2,0:0|0:0|0:0,0:0:0:0:
179,123,240183,5,0,0:0:0:0:
285,67,240357,1,0,3:0:0:0:
167,104,240531,1,0,0:0:0:0:
298,85,240706,1,8,0:0:0:0:
157,86,240880,1,0,0:0:0:0:
311,104,241055,2,0,L|371:108,2,55.9999982910157,0|0|2,0:0|0:0|0:0,0:0:0:0:
192,204,241752,5,0,0:0:0:0:
178,227,242101,1,8,0:0:0:0:
235,339,242450,1,0,0:0:0:0:
235,339,242624,1,0,0:0:0:0:
235,339,242799,2,0,P|169:348|106:329,1,111.999996582031,2|0,0:0|3:0,0:0:0:0:
178,227,243322,1,0,0:0:0:0:
178,227,243496,1,8,0:0:0:0:
338,66,243845,5,0,0:0:0:0:
431,105,244020,1,0,0:0:0:0:
343,171,244194,2,0,L|316:166|289:161,1,55.9999982910157,2|0,0:0|0:0,0:0:0:0:
440,202,244543,1,0,0:0:0:0:
440,202,244717,1,0,0:0:0:0:
440,202,244892,1,8,0:0:0:0:
240,66,245241,5,0,0:0:0:0:
147,105,245416,1,0,0:0:0:0:
234,171,245589,2,0,P|261:166|289:161,1,55.9999982910157,2|0,0:0|0:0,0:0:0:0:
138,202,245939,1,0,3:0:0:0:
138,202,246113,1,0,0:0:0:0:
138,202,246288,1,8,0:0:0:0:
289,161,246636,5,0,0:0:0:0:
289,161,246810,1,0,0:0:0:0:
289,161,246984,2,0,P|308:213|283:291,2,111.999996582031,2|0|8,0:0|0:0|0:0,0:0:0:0:
365,316,248031,2,0,L|433:322,1,55.9999982910157,0|0,0:0|0:0,0:0:0:0:
288,352,248380,2,0,P|228:362|162:326,1,111.999996582031,2|8,0:0|3:0,0:0:0:0:
129,155,249078,1,8,3:0:0:0:
156,251,249252,1,8,3:0:0:0:
182,343,249427,1,8,3:0:0:0:
283,205,249776,5,6,0:0:0:0:
283,204,249950,1,0,0:0:0:0:
283,205,250124,2,0,P|347:209|396:184,1,111.999996582031,0|8,0:0|0:0,0:0:0:0:
183,39,250822,2,0,L|195:154,1,111.999996582031,0|2,0:0|0:0,0:0:0:0:
284,204,251345,5,0,0:0:0:0:
314,300,251520,1,0,3:0:0:0:
216,274,251694,1,0,0:0:0:0:
315,299,251869,2,0,L|386:319,1,55.9999982910157,8|0,0:0|0:0,0:0:0:0:
492,256,252217,2,0,L|425:237,1,55.9999982910157,0|0,0:0|0:0,0:0:0:0:
354,108,252566,6,0,P|434:110|495:162,1,111.999996582031,2|0,0:0|0:0,0:0:0:0:
284,204,253264,1,8,0:0:0:0:
261,33,253613,2,0,L|326:25,1,55.9999982910157
242,114,253962,2,0,P|181:99|121:109,1,111.999996582031,2|0,0:0|3:0,0:0:0:0:
87,243,254659,2,0,P|160:257|208:249,1,111.999996582031,8|0,0:0|0:0,0:0:0:0:
285,204,255183,1,0,0:0:0:0:
354,109,255357,6,0,L|212:115,1,111.999996582031,2|0,0:0|0:0,0:0:0:0:
417,17,256055,1,8,0:0:0:0:
444,175,256403,2,0,L|472:253,2,55.9999982910157,0|0|2,0:0|0:0|0:0,0:0:0:0:
285,204,257101,1,0,3:0:0:0:
126,232,257450,1,8,0:0:0:0:
223,68,257798,1,0,0:0:0:0:
223,68,257885,1,0,0:0:0:0:
223,68,257973,1,0,0:0:0:0:
223,68,258060,1,0,0:0:0:0:
223,68,258148,6,0,P|261:122|283:15,1,223.999993164063,8|12,0:0|0:0,0:0:0:0:
405,171,259543,1,8,0:0:0:0:
341,234,259892,1,8,0:0:0:0:
266,297,260241,1,8,0:0:0:0:
184,212,260590,1,8,0:0:0:0:
103,118,260938,5,2,0:0:0:0:
256,170,272101,6,0,L|278:82,1,80,2|0,0:0|0:0,0:0:0:0:
313,241,272799,2,0,L|287:342,1,80,2|0,0:0|0:0,0:0:0:0:
175,217,273497,1,2,0:0:0:0:
334,119,273845,1,0,0:0:0:0:
371,312,274194,1,10,0:0:0:0:
175,217,274891,5,2,0:0:0:0:
334,119,275938,1,0,0:0:0:0:
334,119,276113,1,0,0:0:0:0:
334,119,276287,1,10,0:0:0:0:
82,181,277508,1,0,0:0:0:0:
82,181,277683,6,0,P|134:228|189:236,1,111.999996582031,4|0,0:0|0:0,0:0:0:0:
256,184,278206,1,0,0:0:0:0:
343,235,278380,2,0,L|424:234,1,55.9999982910157,8|8,0:0|3:0,0:0:0:0:
474,166,278729,1,8,3:0:0:0:
402,94,278903,2,0,L|347:93,1,55.9999982910157,8|8,0:0|3:0,0:0:0:0:
280,15,279252,2,0,L|340:16,1,55.9999982910157,8|8,0:0|0:0,0:0:0:0:
343,235,279776,1,8,3:0:0:0:
276,163,279950,1,8,3:0:0:0:
402,95,280124,1,8,3:0:0:0:
400,120,280473,5,8,0:0:0:0:
398,146,280822,1,8,0:0:0:0:
136,128,281520,2,0,P|191:179|290:149,1,167.999994873047,4|0,0:0|0:0,0:0:0:0:
224,78,282217,1,8,3:0:0:0:
192,252,282566,1,8,3:0:0:0:
140,338,282741,1,8,3:0:0:0:
44,306,282915,1,8,3:0:0:0:
44,306,283263,6,0,B|118:320|137:338|137:338|228:327|185:233,1,223.999993164063,4|8,0:0|0:0,0:0:0:0:
217,51,284310,1,0,0:0:0:0:
207,148,284485,1,0,0:0:0:0:
307,141,284659,2,0,P|364:160|424:156,1,111.999996582031,2|0,0:0|3:0,0:0:0:0:
218,50,285357,2,0,P|147:39|93:67,1,111.999996582031,8|0,0:0|0:0,0:0:0:0:
104,153,285880,1,0,0:0:0:0:
154,240,286055,6,0,L|277:275,1,111.999996582031,2|0,0:0|0:0,0:0:0:0:
345,214,286578,1,0,0:0:0:0:
434,169,286752,2,0,P|441:245|398:291,1,111.999996582031,8|0,0:0|0:0,0:0:0:0:
287,128,287450,2,0,L|312:6,2,111.999996582031,2|0|8,0:0|3:0|0:0,0:0:0:0:
114,314,288497,1,0,0:0:0:0:
114,314,288671,1,0,0:0:0:0:
114,314,288845,6,0,P|165:349|239:334,2,111.999996582031,2|0|8,0:0|0:0|0:0,0:0:0:0:
128,158,289892,2,0,L|153:232,1,55.9999982910157
195,94,290241,2,0,P|138:68|67:85,1,111.999996582031,2|0,0:0|3:0,0:0:0:0:
259,229,290938,2,0,L|241:177,2,55.9999982910157,8|0|0,0:0|0:0|0:0,0:0:0:0:
339,290,291462,1,0,0:0:0:0:
343,174,291636,6,0,P|382:154|460:168,1,111.999996582031,2|0,0:0|0:0,0:0:0:0:
475,258,292159,1,0,0:0:0:0:
475,258,292334,1,8,0:0:0:0:
261,340,292683,2,0,L|144:349,1,111.999996582031,0|2,0:0|0:0,0:0:0:0:
339,290,293380,1,8,3:0:0:0:
248,142,293729,1,8,3:0:0:0:
255,242,293903,1,8,3:0:0:0:
338,184,294078,1,8,3:0:0:0:
338,184,294427,6,0,P|438:145|470:150,1,111.999996582031,6|0,0:0|0:0,0:0:0:0:
331,84,295124,1,8,0:0:0:0:
157,99,295473,1,0,0:0:0:0:
77,268,295822,2,0,L|32:123,1,111.999996582031,2|0,0:0|3:0,0:0:0:0:
171,199,296520,1,8,0:0:0:0:
340,287,296869,1,0,0:0:0:0:
340,287,297043,1,0,0:0:0:0:
340,287,297217,6,0,P|415:309|477:296,1,111.999996582031,2|0,0:0|0:0,0:0:0:0:
469,160,297915,2,0,P|417:140|361:141,1,111.999996582031,8|0,0:0|0:0,0:0:0:0:
241,240,298613,1,2,0:0:0:0:
139,120,298962,2,0,L|140:64,2,55.9999982910157,0|0|8,3:0|0:0|0:0,0:0:0:0:
137,307,299659,1,0,0:0:0:0:
137,307,299834,1,0,0:0:0:0:
137,307,300008,6,0,P|213:324|284:295,1,111.999996582031,2|0,0:0|0:0,0:0:0:0:
340,278,300531,1,0,0:0:0:0:
340,278,300706,2,0,P|392:268|462:285,1,111.999996582031,8|0,0:0|0:0,0:0:0:0:
463,367,301229,1,0,0:0:0:0:
463,367,301403,1,2,0:0:0:0:
463,179,301752,1,0,3:0:0:0:
463,179,301927,1,0,0:0:0:0:
463,179,302101,2,0,P|399:147|330:151,1,111.999996582031,8|0,0:0|0:0,0:0:0:0:
281,31,302799,6,0,P|325:16|401:36,1,111.999996582031,2|0,0:0|0:0,0:0:0:0:
253,110,303497,2,0,L|115:133,1,111.999996582031,8|0,0:0|0:0,0:0:0:0:
248,211,304194,1,2,0:0:0:0:
147,260,304369,1,0,0:0:0:0:
241,311,304543,2,0,P|304:317|358:303,1,111.999996582031,0|8,3:0|0:0,0:0:0:0:
253,110,305241,1,0,0:0:0:0:
432,43,305590,6,0,P|444:107|380:162,1,111.999996582031,6|0,0:0|0:0,0:0:0:0:
336,126,306113,1,0,0:0:0:0:
336,126,306287,2,0,P|382:220|507:164,1,223.999993164063,8|2,0:0|0:0,0:0:0:0:
352,319,307334,1,8,3:0:0:0:
336,126,307683,2,0,L|469:119,2,111.999996582031,8|8|8,0:0|0:0|0:0,0:0:0:0:
194,167,309078,5,4,0:0:0:0:
47,73,309427,1,0,0:0:0:0:
47,73,309601,1,0,0:0:0:0:
47,73,309776,2,0,P|105:60|182:97,1,111.999996582031,2|0,0:0|0:0,0:0:0:0:
98,157,310299,1,0,0:0:0:0:
252,88,310473,2,0,P|314:64|332:205,1,223.999993164063,2|4,0:0|0:0,0:0:0:0:
256,192,311345,12,4,313962,0:0:0:0:
306,67,314310,6,0,L|418:83,1,111.999996582031,0|8,0:0|0:0,0:0:0:0:
457,222,315008,5,0,0:0:0:0:
356,207,315183,1,0,0:0:0:0:
256,189,315357,1,2,0:0:0:0:
256,189,315706,1,8,0:0:0:0:
256,189,316055,1,8,0:0:0:0:
55,222,316403,5,0,0:0:0:0:
156,207,316578,1,0,0:0:0:0:
256,189,316752,1,2,0:0:0:0:
256,189,317101,1,8,0:0:0:0:
256,189,317450,1,8,0:0:0:0:
256,189,317799,6,0,L|256:110,1,55.9999982910157
161,43,318148,2,0,L|113:95,1,55.9999982910157,2|0,0:0|0:0,0:0:0:0:
90,199,318497,2,0,L|146:227,1,55.9999982910157,0|0,3:0|0:0,0:0:0:0:
223,284,318845,1,8,0:0:0:0:
323,307,319020,2,0,L|389:300,2,55.9999982910157,0|0|0,0:0|0:0|0:0,0:0:0:0:
427,369,319543,6,0,P|461:313|425:229,1,111.999996582031,2|0,0:0|0:0,0:0:0:0:
375,155,320241,2,0,L|313:188,2,55.9999982910157,8|0|0,0:0|0:0|0:0,0:0:0:0:
393,55,320764,1,0,0:0:0:0:
296,25,320938,2,0,L|232:62,1,55.9999982910157,2|0,0:0|0:0,0:0:0:0:
235,150,321287,2,0,L|314:99,2,55.9999982910157,0|0|8,3:0|0:0|0:0,0:0:0:0:
148,97,321810,1,0,0:0:0:0:
119,194,321985,1,0,0:0:0:0:
160,285,322159,1,0,0:0:0:0:
243,341,322334,6,0,P|255:270|224:205,2,111.999996582031,2|0|8,0:0|0:0|0:0,0:0:0:0:
49,264,323380,1,0,0:0:0:0:
14,168,323555,1,0,0:0:0:0:
94,63,323729,2,0,L|104:128,1,55.9999982910157,2|0,0:0|0:0,0:0:0:0:
202,106,324078,2,0,L|212:171,1,55.9999982910157,0|0,3:0|0:0,0:0:0:0:
310,151,324427,1,8,0:0:0:0:
393,76,324601,2,0,L|415:-17,2,55.9999982910157,8|8|8,0:0|0:0|0:0,0:0:0:0:
387,228,325124,6,0,P|437:247|517:243,2,111.999996582031,6|0|8,0:0|0:0|0:0,0:0:0:0:
229,222,326171,1,0,0:0:0:0:
229,222,326345,1,0,0:0:0:0:
229,222,326520,2,0,L|242:355,1,111.999996582031,2|0,0:0|3:0,0:0:0:0:
68,323,327217,1,8,0:0:0:0:
109,167,327566,1,0,0:0:0:0:
109,167,327741,1,0,0:0:0:0:
109,167,327915,6,0,P|145:81|184:59,1,111.999996582031,2|0,0:0|0:0,0:0:0:0:
330,195,328613,2,0,P|384:204|435:183,1,111.999996582031,8|0,0:0|0:0,0:0:0:0:
494,102,329136,1,0,0:0:0:0:
496,256,329310,2,0,L|505:340,1,55.9999982910157,2|0,0:0|0:0,0:0:0:0:
436,183,329659,2,0,L|421:111,1,55.9999982910157,0|0,3:0|0:0,0:0:0:0:
325,103,330008,1,8,0:0:0:0:
239,156,330183,1,0,0:0:0:0:
145,118,330357,1,0,0:0:0:0:
53,298,330706,6,0,P|108:300|165:273,1,111.999996582031,6|0,0:0|0:0,0:0:0:0:
330,195,331403,1,8,0:0:0:0:
330,195,331578,1,8,0:0:0:0:
330,195,331752,1,8,3:0:0:0:
422,235,331927,2,0,L|467:316,2,55.9999982910157,8|8|8,0:0|3:0|0:0,0:0:0:0:
499,171,332450,1,8,0:0:0:0:
319,94,332799,1,8,0:0:0:0:
343,294,333148,1,0,0:0:0:0:
429,91,333497,5,4,0:0:0:0:
211,96,334237,5,0,0:0:0:0:
121,211,335037,6,0,P|189:236|228:225,1,80
303,217,336040,6,0,P|365:213|395:239,1,80
256,192,338086,12,2,342223,0:0:0:0:
