osu file format v14

[General]
AudioFilename: 7!! - Orange [].mp3
AudioLeadIn: 0
PreviewTime: -1
Countdown: 1
SampleSet: Soft
StackLeniency: 0.7
Mode: 0
LetterboxInBreaks: 1
WidescreenStoryboard: 0

[Editor]
DistanceSpacing: 1
BeatDivisor: 4
GridSize: 8
TimelineZoom: 1.9

[Metadata]
Title:Orange
TitleUnicode:Orange
Artist:7!!
ArtistUnicode:7!!
Creator:Fryz3
Version:Easy
Source:Shigatsu wa kimi no uso
Tags:anime ending
BeatmapID:664856
BeatmapSetID:296021

[Difficulty]
HPDrainRate:3
CircleSize:3
OverallDifficulty:3
ApproachRate:4
SliderMultiplier:1.20000000596046
SliderTickRate:1

[Events]
//Background and Video events
0,0,"background osu.png",0,0
//Break Periods
//Storyboard Layer 0 (Background)
//Storyboard Layer 1 (Fail)
//Storyboard Layer 2 (Pass)
//Storyboard Layer 3 (Foreground)
//Storyboard Sound Samples

[TimingPoints]
23714.1330528028,697.674418604651,4,2,0,98,1,0

[Colours]
Combo1 : 255,128,0
Combo2 : 192,192,192
Combo3 : 0,0,255
Combo4 : 0,255,255

[HitObjects]
256,168,23714,5,0,0:0:0:0:
256,168,26504,5,0,0:0:0:0:
256,240,28597,1,0,0:0:0:0:
256,96,29295,5,0,0:0:0:0:
256,192,32086,1,0,0:0:0:0:
256,240,33481,1,0,0:0:0:0:
112,128,34528,5,0,0:0:0:0:
168,104,34876,2,0,P|248:80|304:72,1,120.000000596046
400,104,36272,1,0,0:0:0:0:
400,272,37318,5,0,0:0:0:0:
352,304,37667,2,0,P|248:328|208:328,1,120.000000596046
128,280,39062,1,0,0:0:0:0:
168,104,40109,1,0,0:0:0:0:
216,64,40458,6,0,L|232:208,1,120.000000596046
328,256,41853,1,0,0:0:0:0:
424,184,42551,1,0,0:0:0:0:
328,112,43249,2,0,P|272:80|192:56,1,120.000000596046
160,64,44295,1,0,0:0:0:0:
104,80,44644,1,0,0:0:0:0:
144,184,46039,5,0,0:0:0:0:
216,296,47783,1,0,0:0:0:0:
272,272,48132,1,0,0:0:0:0:
328,296,48481,1,0,0:0:0:0:
392,264,48830,6,0,L|408:128,1,120.000000596046
384,88,49876,1,0,0:0:0:0:
88,104,51621,5,0,0:0:0:0:
136,216,52318,2,0,L|192:272,1,60.000000298023
344,296,53714,1,0,0:0:0:0:
384,184,54411,2,0,L|344:112,2,60.0000002980232
264,176,55807,2,0,L|208:128,2,60.0000002980232
160,232,57202,6,0,P|96:208|63:146,1,120.000000596046
152,144,58249,1,0,0:0:0:0:
152,144,58597,1,0,0:0:0:0:
336,160,59644,1,0,0:0:0:0:
304,72,59993,6,0,B|362:54|452:62|444:152|417:206,1,240.000001192093
392,320,62783,6,0,L|264:248,1,120.000000596046
176,216,64179,1,0,0:0:0:0:
280,152,64876,1,0,0:0:0:0:
256,192,65574,12,0,67667,0:0:0:0:
128,56,68365,5,0,0:0:0:0:
184,64,68714,2,0,L|256:72,1,60.000000298023
368,96,69760,2,0,B|414:135|414:135|417:196,1,120.000000596046
328,272,71155,5,0,0:0:0:0:
232,208,71853,1,0,0:0:0:0:
136,272,72551,2,0,L|72:304,1,60.000000298023
80,240,73249,2,0,L|0:232,1,60.000000298023
56,184,73946,5,0,0:0:0:0:
136,96,74644,1,0,0:0:0:0:
208,192,75342,1,0,0:0:0:0:
280,88,76039,1,0,0:0:0:0:
320,40,76388,1,0,0:0:0:0:
336,96,76737,6,0,P|336:168|352:240,1,120.000000596046
408,320,78132,1,0,0:0:0:0:
352,296,78481,1,0,0:0:0:0:
312,256,78830,1,0,0:0:0:0:
296,200,79179,1,0,0:0:0:0:
256,240,79528,5,0,0:0:0:0:
200,248,79876,2,0,L|160:256,1,30.0000001490115
144,256,80225,1,0,0:0:0:0:
104,144,80923,2,0,L|184:80,1,90.0000004470345
232,64,81795,1,0,0:0:0:0:
320,72,82318,6,0,B|368:104|368:104|392:160,1,120.000000596046
360,280,83714,1,0,0:0:0:0:
336,160,84411,1,0,0:0:0:0:
240,88,85109,1,0,0:0:0:0:
120,88,85807,5,0,0:0:0:0:
88,136,86155,1,0,0:0:0:0:
136,168,86504,2,0,L|192:208,1,60.000000298023
240,232,87202,2,0,L|280:168,1,60.000000298023
296,128,87900,6,0,P|264:80|184:64,1,120.000000596046
212,144,88946,2,0,P|156:125|124:48,1,120.000000596046
256,192,90690,12,0,92783,0:0:0:0:
256,144,93481,5,0,0:0:0:0:
256,204,93830,1,0,0:0:0:0:
256,84,94528,1,0,0:0:0:0:
136,80,95225,5,0,0:0:0:0:
128,136,95574,1,0,0:0:0:0:
120,192,95923,1,0,0:0:0:0:
128,248,96272,6,0,P|184:272|264:288,1,120.000000596046
360,256,97667,2,0,P|392:200|408:120,1,120.000000596046
328,56,99062,2,0,P|272:48|192:56,1,120.000000596046
104,104,100458,2,0,P|112:168|136:232,1,120.000000596046
216,296,101853,6,0,P|272:312|344:288,1,120.000000596046
336,176,103249,2,0,P|278:161|221:177,1,120.000000596046
144,264,104644,2,0,L|96:320,1,60.000000298023
184,224,105690,1,0,0:0:0:0:
256,128,106388,1,0,0:0:0:0:
256,64,106737,1,0,0:0:0:0:
376,56,107435,6,0,P|417:98|432:155,1,120.000000596046
456,272,108830,2,0,P|397:265|349:230,1,120.000000596046
320,112,110225,2,0,P|267:140|236:190,1,120.000000596046
240,312,111621,2,0,P|182:299|139:257,1,120.000000596046
96,144,113016,6,0,L|224:80,1,120.000000596046
320,128,114411,2,0,L|212:181,1,120.000000596046
176,296,115807,2,0,L|304:232,1,120.000000596046
384,176,117202,2,0,L|384:104,3,60.000000298023
