osu file format v14

[General]
AudioFilename: 7!! - Orange.mp3
AudioLeadIn: 0
PreviewTime: 55237
Countdown: 0
SampleSet: Soft
StackLeniency: 0.7
Mode: 3
LetterboxInBreaks: 0
SpecialStyle: 0
WidescreenStoryboard: 0

[Editor]
DistanceSpacing: 1.2
BeatDivisor: 2
GridSize: 4
TimelineZoom: 1

[Metadata]
Title:Orange (Anime Ver.)
TitleUnicode:オレンジ (アニメVer.)
Artist:7!!
ArtistUnicode:7!!
Creator:Zevioz-
Version:EZ
Source:四月は君の嘘
Tags:seven oops Shigatsu Wa Kimi no Uso ED2 ending Anime
BeatmapID:662724
BeatmapSetID:294838

[Difficulty]
HPDrainRate:7
CircleSize:4
OverallDifficulty:7
ApproachRate:5
SliderMultiplier:2
SliderTickRate:1

[Events]
//Background and Video events
0,0,"Shigatsu.wa.Kimi.no.Uso.full.1852632.jpg",0,0
//Break Periods
//Storyboard Layer 0 (Background)
//Storyboard Layer 1 (Fail)
//Storyboard Layer 2 (Pass)
//Storyboard Layer 3 (Foreground)
//Storyboard Sound Samples

[TimingPoints]
459,697.674418604651,4,2,1,30,1,0
28365,-100,4,2,2,30,0,0
32552,-100,4,2,3,30,0,0
39528,-100,4,2,1,30,0,0
43017,-100,4,2,1,30,0,0
55226,-100,4,2,1,30,0,1
81389,-100,4,2,1,30,0,0

[HitObjects]
64,192,459,128,4,3249:0:0:0:0:
448,192,3249,1,4,0:0:0:0:
64,192,4296,1,0,0:0:0:0:
192,192,4993,1,0,0:0:0:0:
320,192,5342,1,0,0:0:0:0:
192,192,5691,1,0,0:0:0:0:
448,192,6040,128,4,7784:0:0:0:0:
64,192,7784,1,0,0:0:0:0:
320,192,8133,1,0,0:0:0:0:
64,192,8831,128,4,10226:0:0:0:0:
320,192,10226,128,4,11621:0:0:0:0:
192,192,11621,128,4,12319:0:0:0:0:
320,192,13017,128,4,14063:0:0:0:0:
192,192,14063,1,4,0:0:0:0:
64,192,14412,128,0,15110:0:0:0:0:
320,192,15110,1,0,0:0:0:0:
448,192,15807,128,2,17203:0:0:0:0:
64,192,17203,1,0,0:0:0:0:
192,192,17552,1,0,0:0:0:0:
320,192,17900,1,0,0:0:0:0:
448,192,18249,128,4,19296:0:0:0:0:
320,192,19296,128,0,19993:0:0:0:0:
64,192,19993,128,4,20691:0:0:0:0:
448,192,20691,1,4,0:0:0:0:
320,192,21040,1,4,0:0:0:0:
192,192,22086,1,0,0:0:0:0:
448,192,22784,128,4,23482:0:0:0:0:
192,192,23482,1,0,0:0:0:0:
64,192,23831,128,0,24528:0:0:0:0:
448,192,24528,1,4,0:0:0:0:
192,192,24877,128,4,25575:0:0:0:0:
320,192,25575,128,4,26272:0:0:0:0:
192,192,26272,1,4,0:0:0:0:
64,192,26621,1,4,0:0:0:0:
192,192,26970,1,4,0:0:0:0:
320,192,27319,1,4,0:0:0:0:
448,192,27668,128,0,28365:0:0:0:0:
64,192,28365,128,8,29063:0:0:0:0:
192,192,28365,1,0,0:0:0:0:
448,192,29063,1,0,0:0:0:0:
320,192,29761,128,0,30458:0:0:0:0:
64,192,30458,1,0,0:0:0:0:
192,192,31156,128,2,31854:0:0:0:0:
448,192,31854,1,0,0:0:0:0:
64,192,32552,128,0,33249:0:0:0:0:
320,192,33249,1,4,0:0:0:0:
192,192,33598,1,4,0:0:0:0:
448,192,33947,128,0,34645:0:0:0:0:
192,192,34645,1,4,0:0:0:0:
320,192,34993,1,4,0:0:0:0:
64,192,35342,128,0,36040:0:0:0:0:
192,192,36389,1,4,0:0:0:0:
320,192,36738,128,0,38133:0:0:0:0:
192,192,38133,1,0,0:0:0:0:
448,192,38482,1,2,0:0:0:0:
320,192,38831,1,2,0:0:0:0:
192,192,39179,1,0,0:0:0:0:
64,192,39528,128,4,40226:0:0:0:0:
448,192,40226,1,0,0:0:0:0:
320,192,40924,128,0,41621:0:0:0:0:
192,192,40924,1,0,0:0:0:0:
64,192,42319,128,0,43017:0:0:0:0:
448,192,42319,1,0,0:0:0:0:
320,192,43714,1,4,0:0:0:0:
192,192,44063,1,4,0:0:0:0:
64,192,44412,1,4,0:0:0:0:
320,192,44761,1,4,0:0:0:0:
448,192,45110,128,0,45807:0:0:0:0:
192,192,45807,1,4,0:0:0:0:
320,192,46156,1,4,0:0:0:0:
64,192,46505,1,4,0:0:0:0:
448,192,46854,1,4,0:0:0:0:
192,192,47203,1,4,0:0:0:0:
320,192,47552,1,4,0:0:0:0:
448,192,47900,128,0,48598:0:0:0:0:
320,192,48598,1,2,0:0:0:0:
192,192,48947,1,4,0:0:0:0:
64,192,49645,1,4,0:0:0:0:
320,192,49993,1,4,0:0:0:0:
192,192,50342,1,4,0:0:0:0:
448,192,50691,128,2,53482:0:0:0:0:
64,192,50691,1,0,0:0:0:0:
64,192,53482,1,8,0:0:0:0:
64,192,53831,1,0,0:0:0:0:
64,192,54528,128,2,55226:0:0:0:0:
448,192,55226,1,8,0:0:0:0:
192,192,55575,1,8,0:0:0:0:
320,192,55924,1,0,0:0:0:0:
64,192,56272,1,0,0:0:0:0:
320,192,56970,1,8,0:0:0:0:
448,192,56970,1,0,0:0:0:0:
192,192,57668,1,0,0:0:0:0:
320,192,58017,1,0,0:0:0:0:
64,192,58365,1,8,0:0:0:0:
448,192,58365,1,0,0:0:0:0:
448,192,59063,1,0,0:0:0:0:
64,192,59761,1,0,0:0:0:0:
192,192,59761,1,8,0:0:0:0:
320,192,60458,1,0,0:0:0:0:
192,192,60807,1,0,0:0:0:0:
64,192,61156,1,8,0:0:0:0:
320,192,61156,1,0,0:0:0:0:
192,192,61854,1,0,0:0:0:0:
64,192,62552,1,0,0:0:0:0:
448,192,62552,1,8,0:0:0:0:
320,192,63249,1,0,0:0:0:0:
192,192,63598,1,0,0:0:0:0:
64,192,63947,1,0,0:0:0:0:
448,192,63947,1,8,0:0:0:0:
320,192,64296,1,0,0:0:0:0:
192,192,64645,1,0,0:0:0:0:
448,192,64993,1,0,0:0:0:0:
64,192,65342,1,0,0:0:0:0:
320,192,65342,1,8,0:0:0:0:
192,192,65691,128,4,66389:0:0:0:0:
448,192,66389,1,8,0:0:0:0:
320,192,66738,1,0,0:0:0:0:
192,192,67086,1,0,0:0:0:0:
320,192,67435,1,0,0:0:0:0:
64,192,68133,1,8,0:0:0:0:
448,192,68133,1,0,0:0:0:0:
192,192,68831,1,0,0:0:0:0:
320,192,69179,1,0,0:0:0:0:
64,192,69528,1,0,0:0:0:0:
448,192,69528,1,8,0:0:0:0:
320,192,70226,1,0,0:0:0:0:
64,192,70924,1,0,0:0:0:0:
192,192,70924,1,8,0:0:0:0:
320,192,71621,1,0,0:0:0:0:
192,192,71970,1,0,0:0:0:0:
64,192,72319,1,8,0:0:0:0:
448,192,72319,1,8,0:0:0:0:
320,192,73017,1,0,0:0:0:0:
192,192,73714,1,8,0:0:0:0:
448,192,73714,1,0,0:0:0:0:
320,192,74412,1,0,0:0:0:0:
192,192,74761,1,0,0:0:0:0:
64,192,75110,1,0,0:0:0:0:
320,192,75110,1,8,0:0:0:0:
448,192,75807,1,0,0:0:0:0:
64,192,76505,1,8,0:0:0:0:
192,192,76505,1,0,0:0:0:0:
320,192,77203,1,0,0:0:0:0:
192,192,77552,1,0,0:0:0:0:
64,192,77900,1,0,0:0:0:0:
448,192,77900,1,8,0:0:0:0:
320,192,78598,1,0,0:0:0:0:
64,192,79296,1,0,0:0:0:0:
192,192,79296,1,8,0:0:0:0:
320,192,79993,1,0,0:0:0:0:
192,192,80342,1,0,0:0:0:0:
64,192,80691,1,0,0:0:0:0:
320,192,80691,1,8,0:0:0:0:
192,192,81389,1,8,0:0:0:0:
448,192,81389,1,0,0:0:0:0:
64,192,82086,128,2,84179:0:0:0:0:
448,192,82086,128,0,84179:0:0:0:0:
192,192,84179,128,2,89761:0:0:0:0:
