osu file format v14

[General]
AudioFilename: hey.mp3
AudioLeadIn: 2000
PreviewTime: 55237
Countdown: 0
SampleSet: Soft
StackLeniency: 0.7
Mode: 0
LetterboxInBreaks: 0
WidescreenStoryboard: 0

[Editor]
Bookmarks: 11458,28202,50528,53319,56109,67272,78435,84016
DistanceSpacing: 1.2
BeatDivisor: 4
GridSize: 4
TimelineZoom: 1

[Metadata]
Title:Orange (Anime Ver.)
TitleUnicode:オレンジ(アニメVer.)
Artist:7!!
ArtistUnicode:7!!
Creator:Mei
Version:Hard
Source:四月は君の嘘
Tags:shigatsu wa kimi no uso your lie in april ending Melt JJburstOwO Freesongs
BeatmapID:595683
BeatmapSetID:260797

[Difficulty]
HPDrainRate:6
CircleSize:4
OverallDifficulty:7
ApproachRate:8
SliderMultiplier:2.4
SliderTickRate:1

[Events]
//Background and Video events
0,0,"bgOAO.jpg",0,0
//Break Periods
//Storyboard Layer 0 (Background)
//Storyboard Layer 1 (Fail)
//Storyboard Layer 2 (Pass)
//Storyboard Layer 3 (Foreground)
//Storyboard Sound Samples

[TimingPoints]
470,697.674418604651,4,2,1,25,1,0
1167,-125,4,2,1,25,0,0
28376,-100,4,2,1,40,0,0
53493,-100,4,1,1,30,0,0
53667,-100,4,2,1,40,0,0
56283,-83.3333333333333,4,2,2,50,0,1
67272,-83.3333333333333,4,2,2,50,0,0
67446,-83.3333333333333,4,2,2,50,0,1
84190,750,4,2,1,40,1,0
87190,-100,4,2,1,5,0,0

[Colours]
Combo1 : 83,169,255
Combo2 : 240,240,240
Combo3 : 20,148,241
Combo4 : 173,214,254

[HitObjects]
100,144,470,5,2,0:0:0:0:
112,152,1167,2,0,P|144:172|204:168,1,96
264,216,1690,2,0,P|296:196|388:232,1,144,0|2,0:0|0:0,0:0:0:0:
320,268,2388,1,2,0:0:0:0:
246,298,2563,2,0,P|186:282|126:282,1,96,0|2,0:0|0:0,0:0:0:0:
44,76,3260,6,0,L|164:68,1,96,2|0,0:0|0:0,0:0:0:0:
356,68,3958,2,0,L|451:74,1,96
128,242,5004,1,2,0:0:0:0:
192,72,5353,1,0,0:0:0:0:
360,137,5702,1,2,0:0:0:0:
296,306,6051,1,2,0:0:0:0:
296,306,6749,6,0,L|188:320,1,96,2|0,0:0|0:0,0:0:0:0:
248,236,7272,1,2,0:0:0:0:
248,236,7446,2,0,L|140:250,1,96
368,196,8144,2,0,P|384:132|376:84,1,96,2|0,0:0|0:0,0:0:0:0:
340,24,8667,1,0,0:0:0:0:
256,52,8842,6,0,P|180:40|140:44,1,96,2|0,0:0|0:0,0:0:0:0:
256,332,9539,2,0,P|332:344|372:340,1,96
84,192,10237,1,2,0:0:0:0:
84,192,10935,2,0,P|148:200|204:188,1,96
136,120,11458,1,0,0:0:0:0:
248,248,11632,6,0,P|300:232|360:232,1,96,2|0,0:0|0:0,0:0:0:0:
432,240,12156,1,0,0:0:0:0:
180,80,12504,2,0,L|191:175,1,96,2|0,0:0|0:0,0:0:0:0:
116,228,13028,2,0,L|128:332,2,96
20,212,13900,1,0,0:0:0:0:
8,132,14075,1,2,0:0:0:0:
68,80,14249,1,2,0:0:0:0:
68,80,14423,6,0,L|176:68,1,96,2|0,0:0|0:0,0:0:0:0:
163,69,14946,1,2,0:0:0:0:
264,232,15295,2,0,P|284:272|268:336,1,96,2|0,0:0|0:0,0:0:0:0:
200,288,15818,2,0,L|104:300,1,96
360,356,16516,1,0,0:0:0:0:
460,216,16865,1,2,0:0:0:0:
460,128,17039,1,0,0:0:0:0:
456,40,17214,6,0,P|388:48|336:40,1,96,2|0,0:0|0:0,0:0:0:0:
148,140,17911,2,0,P|216:132|268:140,1,96
312,336,18609,2,0,L|304:232,1,96,2|0,0:0|0:0,0:0:0:0:
432,160,19307,2,0,L|424:255,1,96,2|0,0:0|0:0,0:0:0:0:
348,84,20004,6,0,P|304:128|228:104,1,144,2|0,0:0|0:0,0:0:0:0:
184,32,20702,1,0,0:0:0:0:
132,112,20876,2,0,P|144:156|144:184,2,48,2|0|0,0:0|0:0|0:0,0:0:0:0:
48,168,21400,2,0,P|40:240|40:288,1,96,2|0,0:0|0:0,0:0:0:0:
39,263,22097,1,2,0:0:0:0:
312,344,22795,6,0,L|488:328,1,144
312,344,23493,1,2,0:0:0:0:
184,276,23842,6,0,L|8:260,1,144
184,276,24539,1,2,0:0:0:0:
336,132,24888,6,0,L|512:116,1,144
452,36,25586,5,2,0:0:0:0:
452,36,26283,2,0,P|440:80|436:160,1,96
496,292,26981,1,2,0:0:0:0:
380,240,27330,1,2,0:0:0:0:
288,328,27679,2,0,B|248:336|220:308|220:308|200:336|144:344,1,144
152,264,28376,5,2,0:0:0:0:
90,77,28725,2,0,P|114:95|136:116,1,60
196,44,29074,2,0,P|224:60|316:32,1,120,8|0,0:0|0:0,0:0:0:0:
368,104,29597,1,2,0:0:0:0:
368,104,29772,2,0,L|384:172,1,60,2|0,0:0|0:0,0:0:0:0:
280,180,30121,2,0,P|268:256|272:320,1,120,2|8,0:0|0:0,0:0:0:0:
344,348,30644,1,0,0:0:0:0:
84,368,30993,1,2,0:0:0:0:
24,296,31167,6,0,L|24:168,1,120,2|0,0:0|0:0,0:0:0:0:
224,60,31865,2,0,P|288:40|344:68,1,120,8|0,0:0|0:0,0:0:0:0:
464,252,32563,1,2,0:0:0:0:
464,252,32737,1,2,0:0:0:0:
464,252,32911,2,0,P|432:244|404:228,1,60
336,180,33260,1,10,0:0:0:0:
264,236,33435,2,0,L|112:220,1,120,2|0,0:0|0:0,0:0:0:0:
108,140,33958,6,0,P|64:184|60:256,1,120,2|0,0:0|0:0,0:0:0:0:
220,136,34481,1,0,0:0:0:0:
220,136,34656,2,0,P|203:75|143:36,1,120,10|0,0:0|0:0,0:0:0:0:
144,224,35179,1,0,0:0:0:0:
144,223,35353,2,0,L|264:236,1,120,2|0,0:0|0:0,0:0:0:0:
408,40,36051,2,0,L|288:27,1,120,10|0,0:0|0:0,0:0:0:0:
460,120,36749,6,0,P|472:192|472:264,1,120,2|0,0:0|0:0,0:0:0:0:
360,196,37272,1,2,0:0:0:0:
360,196,37446,2,0,P|314:253|261:301,1,120,8|0,0:0|0:0,0:0:0:0:
232,184,37969,1,2,0:0:0:0:
232,183,38144,6,0,P|202:188|172:184,1,60
108,40,38493,2,0,P|128:84|132:104,1,60,2|0,0:0|0:0,0:0:0:0:
44,176,38842,2,0,P|32:204|32:220,2,30,10|0|2,0:0|0:0|0:0,0:0:0:0:
120,292,39190,2,0,P|176:284|200:284,1,60,2|0,0:0|0:0,0:0:0:0:
232,184,39539,6,0,P|280:192|360:184,1,120,2|0,0:0|0:0,0:0:0:0:
188,104,40063,1,0,0:0:0:0:
188,104,40237,2,0,P|136:92|116:96,1,60,8|0,0:0|0:0,0:0:0:0:
52,160,40586,2,0,P|22:204|19:224,1,60,2|0,0:0|0:0,0:0:0:0:
109,332,40935,5,2,0:0:0:0:
156,270,41109,1,2,0:0:0:0:
230,248,41283,1,0,0:0:0:0:
308,239,41458,2,0,P|352:235|393:240,1,60,0|8,0:0|0:0,0:0:0:0:
448,179,41807,2,0,L|456:60,1,120,2|0,0:0|0:0,0:0:0:0:
348,36,42330,6,0,L|340:160,1,120,2|0,0:0|0:0,0:0:0:0:
224,202,42853,1,0,0:0:0:0:
224,202,43028,2,0,L|216:82,1,120,10|0,0:0|0:0,0:0:0:0:
117,23,43551,1,0,0:0:0:0:
76,108,43725,6,0,P|56:104|4:104,1,60,2|0,0:0|0:0,0:0:0:0:
16,224,44074,2,0,P|45:223|75:218,1,60,2|0,0:0|0:0,0:0:0:0:
180,232,44423,2,0,P|196:260|200:312,2,60,10|0|0,0:0|0:0|0:0,0:0:0:0:
256,152,44946,1,2,0:0:0:0:
304,240,45121,6,0,L|428:232,1,120,2|0,0:0|0:0,0:0:0:0:
448,128,45644,1,0,0:0:0:0:
448,128,45818,2,0,L|324:136,1,120,10|0,0:0|0:0,0:0:0:0:
236,168,46342,1,2,0:0:0:0:
252,76,46516,6,0,P|256:56|256:0,2,60,2|0|0,0:0|0:0|0:0,0:0:0:0:
328,135,47039,1,0,0:0:0:0:
312,227,47214,2,0,P|308:247|308:303,2,60,10|0|0,0:0|0:0|0:0,0:0:0:0:
236,168,47737,1,0,0:0:0:0:
184,236,47911,6,0,B|132:268|81:241|81:241|100:220,1,120,2|0,0:0|0:0,0:0:0:0:
328,136,48609,2,0,B|380:104|430:130|430:130|412:152,1,120,10|0,0:0|0:0,0:0:0:0:
328,260,49132,1,2,0:0:0:0:
256,212,49307,2,0,L|248:76,1,120
152,76,49830,1,2,0:0:0:0:
152,76,50004,2,0,P|168:36|172:12,2,60,8|0|0,0:0|0:0|0:0,0:0:0:0:
72,144,50528,1,2,0:0:0:0:
156,192,50702,6,0,P|152:240|156:312,1,120
356,311,51400,2,0,P|360:251|356:192,1,120,8|0,0:0|0:0,0:0:0:0:
256,32,52097,1,2,0:0:0:0:
252,56,52446,1,2,0:0:0:0:
248,80,52795,2,0,L|224:272,1,180,8|0,0:0|0:0,0:0:0:0:
225,258,53493,6,0,P|272:280|348:264,1,120,4|2,0:0|0:0,0:0:0:0:
376,240,54539,2,0,L|180:252,1,180,4|0,0:0|0:0,0:0:0:0:
136,320,55237,2,0,P|104:320|64:336,1,60,2|0,0:3|0:0,0:0:0:0:
0,216,55586,2,0,P|28:224|58:224,1,60,8|0,0:3|0:0,0:0:0:0:
160,144,55935,1,4,0:3:0:0:
160,144,56283,6,0,L|312:136,2,143.999995605469,4|0|8,0:1|0:0|0:0,0:0:0:0:
40,344,57330,2,0,P|80:328|116:328,1,71.9999978027344,2|0,0:0|0:0,0:0:0:0:
232,352,57679,1,0,0:0:0:0:
72,168,58028,1,0,0:0:0:0:
296,56,58376,2,0,L|280:232,1,143.999995605469,10|0,0:0|0:0,0:0:0:0:
352,284,58900,1,2,0:0:0:0:
200,160,59074,6,0,P|168:188|184:292,1,143.999995605469
256,368,59597,1,2,0:0:0:0:
352,284,59772,1,10,0:0:0:0:
352,284,59946,2,0,L|444:276,1,71.9999978027344,0|0,0:0|0:0,0:0:0:0:
488,188,60295,1,0,0:0:0:0:
488,188,60469,2,0,P|428:192|332:152,1,143.999995605469,2|0,0:0|0:0,0:0:0:0:
24,196,61167,2,0,P|84:192|180:232,1,143.999995605469,10|0,0:0|0:0,0:0:0:0:
200,332,61690,1,2,0:0:0:0:
284,248,61865,6,0,B|296:220|296:220|288:84,1,143.999995605469,2|0,0:0|0:0,0:0:0:0:
96,192,62563,2,0,P|56:264|1:266,1,143.999995605469,8|0,0:0|0:0,0:0:0:0:
112,336,63086,1,2,0:0:0:0:
112,336,63260,2,0,P|156:328|192:328,2,71.9999978027344
340,352,63958,2,0,P|347:300|339:180,1,143.999995605469,8|0,0:0|0:0,0:0:0:0:
308,104,64481,1,2,0:0:0:0:
308,104,64656,6,0,L|452:92,1,143.999995605469,2|0,0:0|0:0,0:0:0:0:
248,24,65179,1,0,0:0:0:0:
248,24,65353,2,0,P|228:64|132:60,1,143.999995605469,10|0,0:0|0:0,0:0:0:0:
52,32,65876,1,0,0:0:0:0:
20,116,66051,2,0,P|28:164|28:204,1,71.9999978027344,2|0,0:0|0:0,0:0:0:0:
112,288,66400,2,0,P|108:240|132:148,1,143.999995605469,0|8,0:0|0:3,0:0:0:0:
216,176,66923,1,4,0:3:0:0:
300,164,67097,1,0,0:0:0:0:
320,184,67446,6,0,L|336:356,1,143.999995605469,4|0,0:0|0:0,0:0:0:0:
216,176,68144,2,0,L|200:4,1,143.999995605469,10|0,0:0|0:0,0:0:0:0:
240,272,68842,5,2,0:0:0:0:
400,72,69190,1,2,0:0:0:0:
488,340,69539,1,10,0:0:0:0:
228,304,69888,2,0,P|176:300|148:304,1,71.9999978027344,2|0,0:0|0:0,0:0:0:0:
32,348,70237,6,0,P|60:320|44:216,1,143.999995605469,2|0,0:0|0:0,0:0:0:0:
60,80,70760,1,2,0:0:0:0:
60,80,70935,2,0,P|70:118|168:156,1,143.999995605469,8|0,0:0|0:0,0:0:0:0:
268,232,71458,1,2,0:0:0:0:
268,232,71632,2,0,P|229:221|147:287,2,143.999995605469,0|0|8,0:0|0:0|0:0,0:0:0:0:
468,292,72679,2,0,P|480:320|472:376,1,71.9999978027344,2|0,0:0|0:0,0:0:0:0:
400,224,73028,6,0,P|384:184|400:68,1,143.999995605469,2|0,0:0|0:0,0:0:0:0:
288,128,73551,1,2,0:0:0:0:
288,128,73725,2,0,L|120:120,1,143.999995605469,10|0,0:0|0:0,0:0:0:0:
28,200,74249,1,0,0:0:0:0:
28,200,74423,2,0,P|84:232|164:184,1,143.999995605469,2|0,0:0|0:0,0:0:0:0:
236,252,74946,1,2,0:0:0:0:
236,252,75121,2,0,P|228:200|224:88,1,143.999995605469,10|0,0:0|0:0,0:0:0:0:
284,36,75644,1,0,0:0:0:0:
284,36,75818,5,2,0:0:0:0:
100,164,76167,1,0,0:0:0:0:
228,348,76516,1,8,0:0:0:0:
412,220,76865,1,0,0:0:0:0:
251,119,77214,5,2,0:0:0:0:
183,196,77563,1,0,0:0:0:0:
260,264,77912,1,8,0:0:0:0:
328,187,78260,1,2,0:0:0:0:
256,192,78609,12,0,81051,0:0:0:0:
156,180,81400,5,8,0:0:0:0:
152,196,82097,1,8,0:0:0:0:
212,324,82446,6,0,P|264:296|296:288,1,71.9999978027344,2|0,0:0|0:0,0:0:0:0:
360,344,82795,2,0,P|424:360|504:324,1,143.999995605469,2|0,0:0|0:0,0:0:0:0:
420,244,83493,1,0,0:0:0:0:
256,192,84190,12,0,87190,0:0:0:0:
