osu file format v14

[General]
AudioFilename: 02. (Ver.).mp3
AudioLeadIn: 0
PreviewTime: 55198
Countdown: 0
SampleSet: Soft
StackLeniency: 0.7
Mode: 0
LetterboxInBreaks: 0
WidescreenStoryboard: 0

[Editor]
Bookmarks: 89711
DistanceSpacing: 0.9
BeatDivisor: 4
GridSize: 4
TimelineZoom: 1

[Metadata]
Title:Orange (Anime Ver.)
TitleUnicode:オレンジ (アニメVer.)
Artist:7!!
ArtistUnicode:7!!
Creator:Hi_Hello
Version:Normal
Source:四月は君の嘘
Tags:seven oops nanae maiko michiru keita Shigatsu wa Kimi no Uso ending ashley stewart <3 heart osu_gangster -koquer
BeatmapID:647589
BeatmapSetID:286058

[Difficulty]
HPDrainRate:4.5
CircleSize:3.6
OverallDifficulty:4
ApproachRate:5.5
SliderMultiplier:1.6
SliderTickRate:2

[Events]
//Background and Video events
0,0,"Shigatsu.wa.Kimi.no.Uso.full.1827733.jpg",0,0
//Break Periods
//Storyboard Layer 0 (Background)
//Storyboard Layer 1 (Fail)
//Storyboard Layer 2 (Pass)
//Storyboard Layer 3 (Foreground)
//Storyboard Sound Samples

[TimingPoints]
431,697.674418604651,4,2,1,35,1,0
1107,-76.9230769230769,4,2,2,65,0,0
23454,-76.9230769230769,4,2,1,65,0,0
23803,-76.9230769230769,4,2,2,65,0,0
24849,-76.9230769230769,4,2,1,65,0,0
25024,-76.9230769230769,4,2,2,65,0,0
25721,-76.9230769230769,4,2,1,65,0,0
28294,-62.5,4,2,2,65,0,0
28512,-62.5,4,2,1,65,0,0
30256,-62.5,4,2,1,65,0,0
31128,-62.5,4,2,2,65,0,0
31826,-62.5,4,2,1,65,0,0
33919,-62.5,4,2,2,65,0,0
34093,-62.5,4,2,1,65,0,0
36710,-62.5,4,2,2,65,0,0
37407,-62.5,4,2,1,65,0,0
39500,-62.5,4,2,2,65,0,0
39675,-62.5,4,2,1,65,0,0
40024,-62.5,4,2,3,65,0,0
40896,-62.5,4,2,1,65,0,0
42291,-62.5,4,2,2,65,0,0
42989,-62.5,4,2,1,65,0,0
45082,-62.5,4,2,2,65,0,0
45779,-62.5,4,2,1,65,0,0
47872,-62.5,4,2,2,65,0,0
48570,-62.5,4,2,1,65,0,0
53105,-62.5,4,2,1,10,0,0
53445,-62.5,4,2,2,65,0,0
54500,-133.333333333333,4,2,0,65,0,0
55198,-76.9230769230769,4,2,1,65,0,0
56244,-62.5,4,2,0,70,0,1
61826,-62.5,4,2,2,70,0,1
62524,-62.5,4,2,0,70,0,1
64617,-62.5,4,2,2,70,0,1
66710,-62.5,4,2,1,70,0,1
80663,-62.5,4,2,3,70,0,1
81012,-62.5,4,2,2,70,0,1
81329,-52.6315789473684,4,2,2,70,0,1
84151,-100,4,2,0,70,0,0
89558,-100,4,2,0,5,0,0

[Colours]
Combo1 : 192,192,192
Combo2 : 255,255,70
Combo3 : 128,128,128
Combo4 : 89,172,255

[HitObjects]
84,268,431,5,0,0:0:0:0:
84,268,1128,6,0,P|136:296|236:280,1,155.999992858887,2|0,0:0|0:0,0:0:0:0:
352,168,2175,2,0,P|420:148|468:172,2,103.999995239258,2|2|0,0:0|0:0|0:0,0:0:0:0:
288,244,3221,6,0,B|260:176|260:176|276:128|276:128|228:52,1,207.999990478516,8|0,0:0|0:0,0:0:0:0:
164,100,4268,2,0,P|136:144|64:164,1,103.999995239258,2|0,0:0|0:0,0:0:0:0:
80,80,4965,1,0,0:0:0:0:
92,164,5314,6,0,B|112:212|112:212|96:280,2,103.999995239258,2|2|8,0:0|0:0|0:0,0:0:0:0:
92,164,6710,6,0,B|144:196|192:168|192:168|248:132|292:156,1,207.999990478516,2|0,0:0|0:0,0:0:0:0:
344,212,7756,1,0,0:0:0:0:
428,232,8105,2,0,P|396:284|336:296,2,103.999995239258,2|2|8,0:0|0:0|0:0,0:0:0:0:
396,40,9500,5,0,0:0:0:0:
316,76,9849,1,0,0:0:0:0:
276,152,10198,2,0,P|272:252|372:292,1,207.999990478516,8|0,0:0|0:0,0:0:0:0:
344,212,11244,6,0,P|364:152|336:104,1,103.999995239258,0|8,0:0|0:0,0:0:0:0:
280,76,11942,2,0,B|216:76|216:76|168:104|168:104|68:104,1,207.999990478516
79,104,12989,1,2,0:0:0:0:
44,180,14035,6,0,L|56:296,1,103.999995239258,0|8,0:0|0:0,0:0:0:0:
136,328,14733,1,0,0:0:0:0:
136,328,15082,2,0,P|200:296|248:300,1,103.999995239258
308,308,15779,6,0,B|364:328|364:328|512:304,2,207.999990478516,2|0|8,0:0|0:0|0:0,0:0:0:0:
304,224,17524,2,0,L|316:108,1,103.999995239258
296,48,18221,1,2,0:0:0:0:
376,48,18570,6,0,P|344:108|296:124,1,103.999995239258
228,112,19268,2,0,B|160:96|160:96|112:112,1,103.999995239258
44,120,19965,6,0,B|72:192|144:188|144:188|172:272,1,207.999990478516,8|2,0:0|0:0,0:0:0:0:
184,344,21012,1,0,0:0:0:0:
96,328,21361,2,0,P|128:268|264:304,1,207.999990478516,2|0,0:0|0:0,0:0:0:0:
432,176,22756,6,0,P|448:120|440:68,1,103.999995239258,8|0,0:0|0:0,0:0:0:0:
360,52,23454,1,8,0:0:0:0:
272,80,23803,2,0,B|216:92|216:92|148:36|84:112,1,207.999990478516,8|0,0:0|0:0,0:0:0:0:
160,160,24849,6,0,B|216:192|216:192|384:152,1,207.999990478516,8|8,0:0|0:0,0:0:0:0:
424,320,26244,5,8,0:0:0:0:
376,248,26593,1,2,0:0:0:0:
288,236,26942,2,0,P|216:256|176:248,1,103.999995239258,2|2,0:0|0:0,0:0:0:0:
112,216,27640,2,0,P|84:144|108:104,1,103.999995239258,10|0,0:0|0:0,0:0:0:0:
163,157,28337,2,0,P|130:47|20:80,1,256,8|8,0:0|0:0,0:0:0:0:
44,260,29733,6,0,B|112:276|112:276|184:264,1,128
252,236,30430,2,0,B|328:220|328:220|404:232|436:308|416:352,1,256,8|8,0:0|0:0,0:0:0:0:
464,184,31826,6,0,L|484:36,1,128,8|0,0:0|0:0,0:0:0:0:
388,52,32524,1,0,0:0:0:0:
312,104,32872,6,0,P|248:144|188:116,2,128,0|8|0,0:0|0:0|0:0,0:0:0:0:
244,64,33919,2,0,B|176:40|176:40|84:60|64:180,1,256,8|8,0:0|0:0,0:0:0:0:
144,212,34965,6,0,P|236:160|236:120,2,128
72,264,36012,2,0,P|128:304|196:288,1,128,8|0,0:0|0:0,0:0:0:0:
256,256,36710,6,0,B|324:240|324:240|408:272|408:272|504:248,1,256,8|8,0:0|0:0,0:0:0:0:
492,168,37756,2,0,P|500:84|484:36,1,128,0|2,0:0|0:0,0:0:0:0:
400,52,38454,5,2,0:0:0:0:
316,76,38803,1,10,0:0:0:0:
240,36,39151,2,0,P|184:28|116:64,1,128,2|8,0:0|0:0,0:0:0:0:
64,120,39849,6,0,B|28:208|28:208|56:276|56:276|20:392,1,256
120,344,40896,6,0,P|184:344|236:292,1,128
288,248,41593,1,8,0:0:0:0:
324,328,41942,2,0,P|372:284|444:280,1,128,0|8,0:0|0:0,0:0:0:0:
432,277,42989,6,0,B|456:197|456:197|404:29,1,256,8|2,0:0|0:0,0:0:0:0:
304,84,44035,1,2,0:0:0:0:
304,84,44384,1,10,0:0:0:0:
220,52,44733,1,2,0:0:0:0:
144,88,45082,6,0,P|76:112|4:104,2,128,8|0|8,0:0|0:0|0:0,0:0:0:0:
200,20,46128,6,0,P|228:88|200:156,1,128
160,208,46826,2,0,P|132:268|156:328,1,128,0|8,0:0|0:0,0:0:0:0:
220,272,47524,1,0,0:0:0:0:
300,280,47872,6,0,B|352:232|352:232|428:240|428:240|484:184|476:140,1,256,8|8,0:0|0:0,0:0:0:0:
420,88,48919,2,0,B|356:48|356:48|312:108|256:112|180:76,1,256
264,28,49965,6,0,P|288:100|260:152,1,128,8|0,0:0|0:0,0:0:0:0:
256,192,50663,12,0,53105,0:0:0:0:
256,196,53454,5,8,0:0:0:0:
256,196,53803,1,8,0:0:0:0:
256,196,54500,6,0,B|312:208|312:208|384:196,1,120.000004577637,4|0,0:0|0:0,0:0:0:0:
452,180,55547,1,0,0:0:0:0:
452,180,55896,1,0,0:0:0:0:
400,120,56244,6,0,B|344:80|344:80|280:104|280:104|224:100|176:44,1,256,4|8,0:0|0:0,0:0:0:0:
260,36,57291,2,0,P|244:100|188:128,1,128
116,140,57989,2,0,B|68:132|68:132|32:164|40:212,1,128,0|8,0:0|0:0,0:0:0:0:
160,328,59035,6,0,P|200:260|188:204,1,128
112,248,59733,1,8,0:0:0:0:
192,216,60082,6,0,B|232:232|232:232|280:236|296:204|352:164|456:220,1,256
376,272,61128,2,0,P|360:200|388:140,1,128,8|0,0:0|0:0,0:0:0:0:
448,104,61826,1,8,0:0:0:0:
208,80,62524,6,0,B|140:96|140:96|64:80,2,128,8|0|0,0:0|0:0|0:0,0:0:0:0:
288,92,63570,2,0,P|304:164|284:224,1,128,0|8,0:0|0:0,0:0:0:0:
200,224,64268,1,0,0:0:0:0:
120,216,64617,2,8,P|56:204|-20:220,1,128
236,312,65663,6,0,B|272:328|272:328|300:312|332:332|332:332|360:308|412:324|412:324|484:312|484:312,1,256,2|0,0:0|0:0,0:0:0:0:
440,240,66710,6,8,P|412:176|436:112,1,128
456,52,67407,1,4,0:0:0:0:
284,64,68105,6,0,P|200:48|144:60,1,128,8|0,0:0|0:0,0:0:0:0:
88,112,68803,2,0,B|28:156|36:232|36:232|92:280|84:348,1,256,0|8,0:0|0:0,0:0:0:0:
296,248,70198,6,0,P|232:216|176:212,2,128,0|0|8,0:0|0:0|0:0,0:0:0:0:
228,312,71244,2,0,B|176:240|240:160|240:160|288:176|332:144,1,256
272,84,72291,1,8,0:0:0:0:
360,64,72640,6,0,P|436:52|492:76,2,128
272,84,73686,2,0,B|220:108|220:108|136:116|68:68|56:20,1,256,8|0,0:0|0:0,0:0:0:0:
144,32,74733,6,0,P|120:88|60:120,1,128,0|8,0:0|0:0,0:0:0:0:
40,200,75430,1,0,0:0:0:0:
72,284,75779,2,0,B|144:272|144:272|224:336|224:336|316:324,1,256,0|8,0:0|0:0,0:0:0:0:
384,304,76826,1,0,0:0:0:0:
472,276,77175,6,0,P|476:204|436:156,1,128
364,164,77872,2,0,B|300:196|300:196|224:192,2,128,8|0|0,0:0|0:0|0:0,0:0:0:0:
392,72,78919,1,0,0:0:0:0:
364,164,79268,6,0,B|264:188|256:336|256:336|220:276|128:272|128:272|68:260|56:220|84:144|172:84|172:84|240:140|244:164|208:200|168:200,1,768,8|8,0:0|0:0,0:0:0:0:
192,194,82058,5,4,0:0:0:0:
256,192,84151,12,0,89733,0:0:0:0:
