osu file format v14

[General]
AudioFilename: 02. (Ver.).mp3
AudioLeadIn: 0
PreviewTime: 55200
Countdown: 0
SampleSet: Normal
StackLeniency: 0.7
Mode: 1
LetterboxInBreaks: 0
WidescreenStoryboard: 0

[Editor]
Bookmarks: 89711
DistanceSpacing: 0.9
BeatDivisor: 4
GridSize: 32
TimelineZoom: 1

[Metadata]
Title:Orange (Anime Ver.)
TitleUnicode:オレンジ (アニメVer.)
Artist:7!!
ArtistUnicode:7!!
Creator:Hi_Hello
Version:Muzukashii
Source:四月は君の嘘
Tags:seven oops nanae maiko michiru keita Shigatsu wa Kimi no Uso ending ashley stewart <3 heart osu_gangster -koquer
BeatmapID:645941
BeatmapSetID:286058

[Difficulty]
HPDrainRate:5
CircleSize:2
OverallDifficulty:6
ApproachRate:0
SliderMultiplier:1.4
SliderTickRate:1

[Events]
//Background and Video events
0,0,"kimiuso.jpg",0,0
//Break Periods
//Storyboard Layer 0 (Background)
//Storyboard Layer 1 (Fail)
//Storyboard Layer 2 (Pass)
//Storyboard Layer 3 (Foreground)
//Storyboard Sound Samples

[TimingPoints]
431,697.674418604651,4,1,0,35,1,0
1107,-76.9230769230769,4,1,0,65,0,0
28316,-62.5,4,1,0,65,0,0
56244,-52.6315789473684,4,1,0,70,0,1
84151,-100,4,1,0,70,0,0

[HitObjects]
256,192,430,5,0,0:0:0:0:
256,192,1128,1,8,0:0:0:0:
256,192,1477,1,0,0:0:0:0:
256,192,1825,1,0,0:0:0:0:
256,192,2174,1,0,0:0:0:0:
256,192,2523,1,8,0:0:0:0:
256,192,2872,1,0,0:0:0:0:
256,192,3221,1,8,0:0:0:0:
256,192,3919,1,0,0:0:0:0:
256,192,4267,1,8,0:0:0:0:
256,192,4965,1,0,0:0:0:0:
256,192,5314,1,8,0:0:0:0:
256,192,5663,1,8,0:0:0:0:
256,192,6012,1,0,0:0:0:0:
256,192,6709,1,0,0:0:0:0:
256,192,7058,1,8,0:0:0:0:
256,192,7232,1,0,0:0:0:0:
256,192,7756,1,8,0:0:0:0:
256,192,8105,1,0,0:0:0:0:
256,192,8802,1,8,0:0:0:0:
256,192,9500,1,8,0:0:0:0:
256,192,10198,1,0,0:0:0:0:
256,192,10895,1,8,0:0:0:0:
256,192,11244,1,0,0:0:0:0:
256,192,11593,1,8,0:0:0:0:
256,192,11942,1,0,0:0:0:0:
256,192,12116,1,8,0:0:0:0:
256,192,12465,1,0,0:0:0:0:
256,192,12988,1,8,0:0:0:0:
256,192,13337,1,0,0:0:0:0:
256,192,13686,1,0,0:0:0:0:
256,192,13861,1,2,0:0:0:0:
256,192,14035,1,0,0:0:0:0:
256,192,14384,1,8,0:0:0:0:
256,192,14732,1,0,0:0:0:0:
256,192,14907,1,8,0:0:0:0:
256,192,15256,1,0,0:0:0:0:
256,192,15779,1,8,0:0:0:0:
256,192,16128,1,0,0:0:0:0:
256,192,16477,1,0,0:0:0:0:
256,192,16825,1,8,0:0:0:0:
256,192,17174,1,0,0:0:0:0:
256,192,17524,1,0,0:0:0:0:
256,192,17872,1,0,0:0:0:0:
256,192,18221,1,8,0:0:0:0:
256,192,18919,1,0,0:0:0:0:
256,192,19267,1,8,0:0:0:0:
256,192,19617,1,0,0:0:0:0:
256,192,19965,1,8,0:0:0:0:
256,192,20663,1,8,0:0:0:0:
256,192,21012,1,0,0:0:0:0:
256,192,21186,1,0,0:0:0:0:
256,192,21360,1,8,0:0:0:0:
256,192,22058,1,0,0:0:0:0:
256,192,22756,1,8,0:0:0:0:
256,192,23453,1,0,0:0:0:0:
256,192,23802,1,8,0:0:0:0:
256,192,24500,1,0,0:0:0:0:
256,192,24849,1,8,0:0:0:0:
256,192,25546,1,0,0:0:0:0:
256,192,26244,1,0,0:0:0:0:
256,192,26593,1,8,0:0:0:0:
256,192,26942,1,8,0:0:0:0:
256,192,27291,1,0,0:0:0:0:
256,192,27640,1,0,0:0:0:0:
256,192,28337,1,8,0:0:0:0:
256,192,28686,1,0,0:0:0:0:
256,192,29035,1,8,0:0:0:0:
256,192,29733,1,8,0:0:0:0:
256,192,29907,1,0,0:0:0:0:
256,192,30081,1,8,0:0:0:0:
256,192,30430,1,0,0:0:0:0:
256,192,30779,1,0,0:0:0:0:
256,192,31128,1,8,0:0:0:0:
256,192,31825,1,8,0:0:0:0:
256,192,32523,1,8,0:0:0:0:
256,192,32872,1,8,0:0:0:0:
256,192,33570,1,0,0:0:0:0:
256,192,33744,1,8,0:0:0:0:
256,192,33919,1,0,0:0:0:0:
256,192,34267,1,0,0:0:0:0:
256,192,34616,1,8,0:0:0:0:
256,192,34965,1,0,0:0:0:0:
256,192,35314,1,8,0:0:0:0:
256,192,35663,1,8,0:0:0:0:
256,192,36012,1,0,0:0:0:0:
256,192,36360,1,0,0:0:0:0:
256,192,36709,1,8,0:0:0:0:
256,192,37407,1,8,0:0:0:0:
256,192,37756,1,0,0:0:0:0:
256,192,38105,1,8,0:0:0:0:
256,192,38453,1,8,0:0:0:0:
256,192,38802,1,0,0:0:0:0:
256,192,39151,1,8,0:0:0:0:
256,192,39500,1,0,0:0:0:0:
256,192,40198,1,8,0:0:0:0:
256,192,40895,1,8,0:0:0:0:
256,192,41070,1,0,0:0:0:0:
256,192,41244,1,0,0:0:0:0:
256,192,41419,1,8,0:0:0:0:
256,192,41768,1,0,0:0:0:0:
256,192,42117,1,0,0:0:0:0:
256,192,42291,1,8,0:0:0:0:
256,192,42988,1,8,0:0:0:0:
256,192,43512,1,0,0:0:0:0:
256,192,43686,1,8,0:0:0:0:
256,192,44035,1,8,0:0:0:0:
256,192,44384,1,8,0:0:0:0:
256,192,44732,1,0,0:0:0:0:
256,192,45081,1,0,0:0:0:0:
256,192,45779,1,0,0:0:0:0:
256,192,46128,1,8,0:0:0:0:
256,192,46825,1,0,0:0:0:0:
256,192,47174,1,8,0:0:0:0:
256,192,47872,1,0,0:0:0:0:
256,192,48570,1,8,0:0:0:0:
256,192,48919,1,0,0:0:0:0:
256,192,49616,1,0,0:0:0:0:
256,192,49965,1,8,0:0:0:0:
256,192,50314,1,0,0:0:0:0:
256,192,50663,1,0,0:0:0:0:
256,192,51012,1,0,0:0:0:0:
256,192,51361,1,8,0:0:0:0:
256,192,51709,1,0,0:0:0:0:
256,192,52058,1,0,0:0:0:0:
256,192,52407,1,0,0:0:0:0:
256,192,52756,1,8,0:0:0:0:
256,192,53105,1,0,0:0:0:0:
256,192,53453,1,12,0:0:0:0:
256,192,53802,1,12,0:0:0:0:
256,192,54500,1,12,0:0:0:0:
256,192,55198,1,8,0:0:0:0:
256,192,55546,1,8,0:0:0:0:
256,192,55895,1,0,0:0:0:0:
256,192,56244,1,4,0:0:0:0:
256,192,56593,1,0,0:0:0:0:
256,192,56942,1,8,0:0:0:0:
256,192,57291,1,0,0:0:0:0:
256,192,57465,1,8,0:0:0:0:
256,192,57814,1,8,0:0:0:0:
256,192,57988,1,0,0:0:0:0:
256,192,58337,1,8,0:0:0:0:
256,192,58686,1,0,0:0:0:0:
256,192,58860,1,0,0:0:0:0:
256,192,59035,1,8,0:0:0:0:
256,192,59384,1,0,0:0:0:0:
256,192,59733,1,8,0:0:0:0:
256,192,60082,1,8,0:0:0:0:
256,192,60430,1,0,0:0:0:0:
256,192,60779,1,0,0:0:0:0:
256,192,61128,1,8,0:0:0:0:
256,192,61477,1,0,0:0:0:0:
256,192,61651,1,0,0:0:0:0:
256,160,61825,1,8,0:0:0:0:
256,160,62174,1,0,0:0:0:0:
256,160,62523,1,8,0:0:0:0:
256,160,62872,1,0,0:0:0:0:
256,160,63221,1,0,0:0:0:0:
256,160,63570,1,0,0:0:0:0:
256,160,63919,1,8,0:0:0:0:
256,160,64267,1,8,0:0:0:0:
256,160,64616,1,0,0:0:0:0:
256,160,64965,1,0,0:0:0:0:
256,160,65140,1,8,0:0:0:0:
256,160,65663,1,0,0:0:0:0:
256,160,66360,1,0,0:0:0:0:
256,160,66709,1,8,0:0:0:0:
256,160,67058,1,0,0:0:0:0:
256,160,67407,1,8,0:0:0:0:
256,160,67755,1,0,0:0:0:0:
256,160,68105,1,8,0:0:0:0:
256,160,68453,1,0,0:0:0:0:
256,160,68802,1,0,0:0:0:0:
256,160,69151,1,0,0:0:0:0:
256,160,69500,1,8,0:0:0:0:
256,160,69849,1,0,0:0:0:0:
256,160,70198,1,8,0:0:0:0:
256,160,70546,1,0,0:0:0:0:
256,160,70895,1,8,0:0:0:0:
256,160,71244,1,0,0:0:0:0:
256,160,71593,1,0,0:0:0:0:
256,160,71942,1,0,0:0:0:0:
256,160,72291,1,8,0:0:0:0:
256,160,72639,1,0,0:0:0:0:
256,160,72814,1,8,0:0:0:0:
256,160,72988,1,8,0:0:0:0:
256,160,73337,1,0,0:0:0:0:
256,160,73686,1,8,0:0:0:0:
256,160,74035,1,0,0:0:0:0:
256,160,74384,1,8,0:0:0:0:
256,160,74732,1,8,0:0:0:0:
256,160,74907,1,8,0:0:0:0:
256,160,75256,1,0,0:0:0:0:
256,160,75605,1,0,0:0:0:0:
256,160,75779,1,8,0:0:0:0:
256,160,76128,1,0,0:0:0:0:
256,160,76477,1,8,0:0:0:0:
256,160,76825,1,0,0:0:0:0:
256,160,77174,1,8,0:0:0:0:
256,160,77523,1,0,0:0:0:0:
256,160,77872,1,8,0:0:0:0:
256,160,78221,1,8,0:0:0:0:
256,160,78570,1,0,0:0:0:0:
256,160,78919,1,8,0:0:0:0:
256,160,79267,1,0,0:0:0:0:
256,160,79616,1,0,0:0:0:0:
256,160,79965,1,0,0:0:0:0:
256,160,80314,1,8,0:0:0:0:
256,160,80663,1,8,0:0:0:0:
256,160,81012,1,0,0:0:0:0:
256,160,81360,1,12,0:0:0:0:
256,160,82058,1,4,0:0:0:0:
256,192,82756,1,0,0:0:0:0:
256,192,83454,1,0,0:0:0:0:
256,192,84151,12,0,89732,0:0:0:0:
