osu file format v14

[General]
AudioFilename: 02. (Ver.).mp3
AudioLeadIn: 0
PreviewTime: 55198
Countdown: 0
SampleSet: Soft
StackLeniency: 0.7
Mode: 0
LetterboxInBreaks: 0
WidescreenStoryboard: 0

[Editor]
Bookmarks: 89711
DistanceSpacing: 0.9
BeatDivisor: 4
GridSize: 4
TimelineZoom: 1

[Metadata]
Title:Orange (Anime Ver.)
TitleUnicode:オレンジ (アニメVer.)
Artist:7!!
ArtistUnicode:7!!
Creator:Hi_Hello
Version:Hard
Source:四月は君の嘘
Tags:seven oops nanae maiko michiru keita Shigatsu wa Kimi no Uso ending ashley stewart <3 heart osu_gangster -koquer
BeatmapID:646987
BeatmapSetID:286058

[Difficulty]
HPDrainRate:5.5
CircleSize:4
OverallDifficulty:6.5
ApproachRate:7
SliderMultiplier:1.7
SliderTickRate:2

[Events]
//Background and Video events
0,0,"Shigatsu.wa.Kimi.no.Uso.full.1827733.jpg",0,0
//Break Periods
//Storyboard Layer 0 (Background)
//Storyboard Layer 1 (Fail)
//Storyboard Layer 2 (Pass)
//Storyboard Layer 3 (Foreground)
//Storyboard Sound Samples

[TimingPoints]
431,697.674418604651,4,2,1,35,1,0
1128,-76.9230769230769,4,2,2,65,0,0
23454,-76.9230769230769,4,2,1,65,0,0
23803,-76.9230769230769,4,2,2,65,0,0
24849,-76.9230769230769,4,2,1,65,0,0
25024,-76.9230769230769,4,2,2,65,0,0
25721,-76.9230769230769,4,2,1,65,0,0
28294,-62.5,4,2,2,65,0,0
28512,-62.5,4,2,1,65,0,0
30256,-62.5,4,2,3,65,0,0
31128,-62.5,4,2,2,65,0,0
31826,-62.5,4,2,1,65,0,0
33919,-62.5,4,2,2,65,0,0
34093,-62.5,4,2,1,65,0,0
39500,-62.5,4,2,2,65,0,0
39675,-62.5,4,2,1,65,0,0
42291,-62.5,4,2,2,65,0,0
42989,-62.5,4,2,1,65,0,0
45082,-62.5,4,2,2,65,0,0
45779,-62.5,4,2,1,65,0,0
47872,-62.5,4,2,2,65,0,0
48570,-62.5,4,2,1,65,0,0
53105,-62.5,4,2,1,10,0,0
53445,-62.5,4,2,2,65,0,0
54500,-133.333333333333,4,2,0,65,0,0
55198,-76.9230769230769,4,2,1,65,0,0
56244,-52.6315789473684,4,2,0,70,0,1
81361,-52.6315789473684,4,2,2,70,0,1
84151,-100,4,2,0,70,0,0
89733,-100,4,2,0,5,0,0

[Colours]
Combo1 : 192,192,192
Combo2 : 255,255,70
Combo3 : 128,128,128
Combo4 : 89,172,255

[HitObjects]
416,272,431,5,0,0:0:0:0:
416,272,1128,2,0,P|344:288|308:272,1,110.499994941712,2|0,0:0|0:0,0:0:0:0:
304,244,1651,2,0,B|315:138|315:138|287:86,1,165.749992412568,2|0,0:0|0:0,0:0:0:0:
268,112,2349,2,0,B|332:140|380:96|380:96|428:148,1,165.749992412568,2|0,0:0|0:0,0:0:0:0:
208,184,3221,6,0,P|192:124|204:72,1,110.499994941712,8|0,0:0|0:0,0:0:0:0:
404,192,3919,2,0,P|416:256|404:308,1,110.499994941712,2|0,0:0|0:0,0:0:0:0:
300,264,4617,1,0,0:0:0:0:
204,296,4965,6,0,B|152:304|152:304|88:292,1,110.499994941712,0|2,0:0|0:0,0:0:0:0:
96,100,5663,1,2,0:0:0:0:
40,168,6012,2,0,P|144:168|164:48,1,220.999989883423,10|0,0:0|0:0,0:0:0:0:
272,116,7058,6,0,L|300:204,1,55.2499974708558,0|2,0:0|0:0,0:0:0:0:
376,308,7756,1,0,0:0:0:0:
416,232,8105,1,2,0:0:0:0:
396,148,8454,1,0,0:0:0:0:
332,104,8803,6,0,B|276:96|276:96|224:116|224:116|104:100,1,220.999989883423,8|2,0:0|0:0,0:0:0:0:
115,101,9849,1,0,0:0:0:0:
204,40,10198,2,0,B|220:100|220:100|184:260,1,220.999989883423,8|2,0:0|0:0,0:0:0:0:
120,336,11244,2,0,L|100:240,1,55.2499974708558
96,240,11593,5,8,0:0:0:0:
124,60,11942,1,0,0:0:0:0:
124,60,12117,1,0,0:0:0:0:
48,104,12465,6,0,P|100:140|200:108,1,165.749992412568,2|2,0:0|0:0,0:0:0:0:
264,76,13337,1,2,0:0:0:0:
348,64,13686,6,0,P|368:100|372:128,1,55.2499974708558,2|0,0:0|0:0,0:0:0:0:
456,144,14035,2,0,P|432:184|404:204,1,55.2499974708558
424,288,14384,1,8,0:0:0:0:
328,264,14733,6,0,L|260:288,1,55.2499974708558
88,220,15256,6,0,B|196:232|196:232|248:204,1,165.749992412568,2|0,0:0|0:0,0:0:0:0:
148,56,16128,1,2,0:0:0:0:
148,56,16477,1,2,0:0:0:0:
148,56,16826,5,2,0:0:0:0:
168,108,17000,1,0,0:0:0:0:
196,156,17175,2,0,B|256:164|256:164|324:144,2,110.499994941712,10|0|0,0:0|0:0|0:0,0:0:0:0:
172,260,18221,1,0,0:0:0:0:
72,160,18570,6,0,P|104:148|136:144,1,55.2499974708558,2|0,0:0|0:0,0:0:0:0:
184,84,18919,2,0,P|212:100|224:120,1,55.2499974708558,2|0,0:0|0:0,0:0:0:0:
296,152,19268,2,0,P|280:192|256:212,2,55.2499974708558,2|0|2,0:0|0:0|0:0,0:0:0:0:
396,56,19965,6,0,B|380:104|380:104|396:144|400:172|364:224,1,165.749992412568,8|0,0:0|0:0,0:0:0:0:
384,256,20663,2,0,P|452:244|480:200,1,110.499994941712,2|0,0:0|0:0,0:0:0:0:
316,152,21361,6,0,B|252:168|252:168|196:152|196:152|92:172,1,220.999989883423,0|2,0:0|0:0,0:0:0:0:
48,280,22407,1,0,0:0:0:0:
144,240,22756,6,8,P|180:184|144:72,1,165.749992412568
124,112,23454,1,2,0:0:0:0:
40,200,23803,2,0,B|112:232|176:168|176:168|220:240,1,220.999989883423,8|0,0:0|0:0,0:0:0:0:
283,296,24849,6,0,B|299:236|299:236|347:200|347:200|368:103,1,220.999989883423,8|8,0:0|0:0,0:0:0:0:
248,72,25896,2,0,B|216:56|216:56|120:64,1,110.499994941712,0|8,0:0|0:0,0:0:0:0:
40,148,26593,1,0,0:0:0:0:
100,232,26942,6,0,P|128:192|136:164,1,55.2499974708558,2|0,0:0|0:0,0:0:0:0:
224,180,27291,2,0,P|204:136|184:116,1,55.2499974708558,2|0,0:0|0:0,0:0:0:0:
264,76,27640,2,0,P|224:52|192:52,1,55.2499974708558,10|0,0:0|0:0,0:0:0:0:
216,280,28337,6,0,B|272:268|272:268|300:296|364:288,1,136,8|0,0:0|0:0,0:0:0:0:
384,268,28861,1,0,0:0:0:0:
428,264,29035,2,0,P|460:200|392:72,1,204,8|0,0:0|0:0,0:0:0:0:
368,84,29733,5,0,0:0:0:0:
320,112,29907,1,0,0:0:0:0:
284,128,30082,2,0,B|240:132|240:132|204:152|204:152|76:164,1,204
44,256,30779,2,0,L|128:248,1,68
156,232,31128,5,8,0:0:0:0:
244,264,31826,5,8,0:0:0:0:
328,248,32524,6,0,P|368:260|404:256,1,68,2|0,0:0|0:0,0:0:0:0:
464,220,32872,2,0,B|472:244|472:244|464:292,1,68,2|0,0:0|0:0,0:0:0:0:
392,184,33221,2,0,L|400:116,1,68,10|0,0:0|0:0,0:0:0:0:
476,80,33570,2,0,L|468:152,1,68,2|0,0:0|0:0,0:0:0:0:
416,40,33919,6,0,B|336:44|336:44|284:4,1,136,10|0,0:0|0:0,0:0:0:0:
204,36,34442,2,0,P|184:100|216:156,1,136,8|0,0:0|0:0,0:0:0:0:
268,176,34965,1,0,0:0:0:0:
312,212,35140,1,0,0:0:0:0:
324,256,35314,6,0,P|288:268|248:264,1,68,2|0,0:0|0:0,0:0:0:0:
100,228,35663,2,0,P|60:220|24:228,1,68,2|0,0:0|0:0,0:0:0:0:
152,336,36012,6,0,B|152:292|152:292|180:260|180:260|180:192,2,136,8|2|0,0:0|0:0|0:0,0:0:0:0:
100,228,37058,6,0,L|92:156,2,68,0|0|8,0:0|0:0|0:0,0:0:0:0:
140,48,37756,6,0,B|112:76|112:76|0:88,2,136,0|2|2,0:0|0:0|0:0,0:0:0:0:
232,60,38803,1,10,0:0:0:0:
232,60,39151,2,0,B|252:96|252:96|232:208,1,136,2|8,0:0|0:0,0:0:0:0:
356,300,39849,5,0,0:0:0:0:
404,316,40024,1,0,0:0:0:0:
444,300,40198,2,0,P|464:264|472:224,1,68,8|0,0:0|0:0,0:0:0:0:
402,218,40547,2,0,P|405:184|416:152,1,68
460,132,40896,5,0,0:0:0:0:
464,80,41070,2,0,B|432:76|432:76|388:88,1,68
324,80,41419,2,0,B|296:92|296:92|164:76,1,136,2|0,0:0|0:0,0:0:0:0:
132,52,41942,2,0,P|96:20|60:16,1,68
40,52,42291,6,0,P|32:124|76:172,1,136,10|0,0:0|0:0,0:0:0:0:
188,216,42989,2,0,B|240:196|240:196|404:224,1,204,10|0,0:0|0:0,0:0:0:0:
384,140,43686,6,0,L|308:128,2,68,2|0|2,0:0|0:0|0:0,0:0:0:0:
420,56,44210,2,0,L|504:68,2,68,0|10|0,0:0|0:0|0:0,0:0:0:0:
328,48,44733,1,2,0:0:0:0:
328,48,44907,1,0,0:0:0:0:
328,48,45082,6,0,B|284:68|284:68|172:52,2,136,8|0|8,0:0|0:0|0:0,0:0:0:0:
328,136,46128,1,0,0:0:0:0:
324,216,46477,6,0,B|320:260|320:260|336:304|336:304|328:360,1,136
80,312,47175,1,8,0:0:0:0:
80,312,47524,1,0,0:0:0:0:
80,312,47872,6,0,B|136:296|136:296|176:332|232:332|280:288,1,204,8|0,0:0|0:0,0:0:0:0:
232,248,48570,2,0,P|228:320|272:372,1,136,8|0,0:0|0:0,0:0:0:0:
344,280,49268,6,0,L|416:268,2,68
264,172,49965,2,0,B|204:164|204:164|132:180|132:180|52:164,1,204,8|0,0:0|0:0,0:0:0:0:
63,166,50663,1,0,0:0:0:0:
256,192,50837,12,0,53105,0:0:0:0:
256,88,53454,5,8,0:0:0:0:
264,312,53803,1,8,0:0:0:0:
264,312,54500,6,0,L|248:192,1,95.6250036478044,4|0,0:0|0:0,0:0:0:0:
250,217,55198,2,0,B|302:223|302:223|370:199,1,110.499994941712,8|0,0:0|0:0,0:0:0:0:
404,128,55896,1,0,0:0:0:0:
308,72,56244,6,0,B|252:64|252:64|212:84|212:84|148:72,1,161.499995687485,6|0,0:0|0:0,0:0:0:0:
76,24,56942,2,0,B|60:64|60:64|76:204,1,161.499995687485,10|0,0:0|0:0,0:0:0:0:
124,268,57640,1,0,0:0:0:0:
240,284,57989,2,0,B|224:220|180:188|180:188|220:168|232:144,1,161.499995687485
320,120,58686,5,0,0:0:0:0:
320,120,58861,1,0,0:0:0:0:
320,120,59035,6,0,B|400:128|400:128|480:104,2,161.499995687485,2|0|10,0:0|0:0|0:0,0:0:0:0:
204,100,60082,2,0,P|164:84|112:80,1,80.7499978437424
64,144,60430,6,0,B|80:192|80:192|68:312,1,161.499995687485,2|0,0:0|0:0,0:0:0:0:
164,260,61128,2,0,P|228:240|320:268,1,161.499995687485,10|0,0:0|0:0,0:0:0:0:
252,300,61651,2,0,P|248:240|272:208,1,80.7499978437424,0|2,0:0|0:0,0:0:0:0:
388,128,62175,5,0,0:0:0:0:
320,180,62524,6,0,B|368:208|368:208|428:200|428:200|480:220,1,161.499995687485,10|0,0:0|0:0,0:0:0:0:
484,320,63047,2,0,P|428:300|400:264,1,80.7499978437424,0|2,0:0|0:0,0:0:0:0:
424,148,63570,6,0,B|436:100|436:100|464:76|464:76|480:-4,1,161.499995687485,0|10,0:0|0:0,0:0:0:0:
344,100,64268,2,0,L|328:180,1,80.7499978437424
332,232,64617,1,2,0:0:0:0:
208,304,64965,6,0,P|264:236|340:236,1,161.499995687485,2|8,0:0|0:0,0:0:0:0:
320,136,65663,2,0,B|400:167|400:167|460:99|460:23,1,242.249993531227
459,26,66361,1,0,0:0:0:0:
172,48,66710,6,0,P|184:76|232:112,1,80.7499978437424,10|0,0:0|0:0,0:0:0:0:
268,180,67058,2,0,P|304:120|300:92,1,80.7499978437424,10|0,0:0|0:0,0:0:0:0:
184,176,67407,6,0,B|148:200|148:200|24:184,1,161.499995687485,4|0,0:0|0:0,0:0:0:0:
240,264,68105,2,0,P|320:256|360:184,1,161.499995687485,10|2,0:0|0:0,0:0:0:0:
392,36,68803,6,0,B|400:92|400:92|428:120|428:120|440:200,1,161.499995687485
444,336,69500,1,10,0:0:0:0:
444,336,69849,5,2,0:0:0:0:
356,344,70023,1,2,0:0:0:0:
284,312,70198,1,2,0:0:0:0:
276,100,70547,6,0,P|296:164|240:244,1,161.499995687485,2|8,0:0|0:0,0:0:0:0:
56,144,71244,2,0,B|112:128|112:128|212:164,1,161.499995687485,0|2,0:0|0:0,0:0:0:0:
416,244,71942,1,2,0:0:0:0:
416,244,72291,6,0,P|444:180|444:148,1,80.7499978437424,10|0,0:0|0:0,0:0:0:0:
360,136,72640,2,0,P|340:104|300:80,1,80.7499978437424,2|0,0:0|0:0,0:0:0:0:
224,156,72989,6,0,P|144:148|68:192,1,161.499995687485,2|0,0:0|0:0,0:0:0:0:
180,252,73686,2,0,B|264:264|264:264|336:236|336:236|428:244,1,242.249993531227,10|0,0:0|0:0,0:0:0:0:
415,242,74384,6,0,L|440:160,1,80.7499978437424,2|0,0:0|0:0,0:0:0:0:
438,164,74733,1,0,0:0:0:0:
392,48,75082,2,0,B|344:40|344:40|208:68,1,161.499995687485,10|0,0:0|0:0,0:0:0:0:
140,192,75779,6,0,P|63:210|1:163,2,161.499995687485,2|2|10,0:0|0:0|0:0,0:0:0:0:
80,128,76826,1,0,0:0:0:0:
252,156,77175,6,0,B|320:152|320:152|360:172|360:172|424:168,1,161.499995687485,2|0,0:0|0:0,0:0:0:0:
316,240,77872,6,0,L|224:244,1,80.7499978437424,10|0,0:0|0:0,0:0:0:0:
376,92,78221,2,0,L|460:88,1,80.7499978437424,10|0,0:0|0:0,0:0:0:0:
480,132,78570,1,2,0:0:0:0:
416,312,78919,6,0,B|284:332|284:332|240:304,1,161.499995687485,2|8,0:0|0:0,0:0:0:0:
160,260,79617,1,0,0:0:0:0:
248,232,79965,6,0,P|236:208|192:172,1,80.7499978437424,2|0,0:0|0:0,0:0:0:0:
144,100,80314,2,0,P|116:140|112:192,1,80.7499978437424,2|0,0:0|0:0,0:0:0:0:
228,104,80663,6,2,P|216:52|180:12,1,80.7499978437424,10|0,0:0|0:0,0:0:0:0:
304,48,81012,2,0,P|364:56|412:40,1,80.7499978437424,2|0,0:0|0:0,0:0:0:0:
428,124,81361,5,8,0:0:0:0:
428,124,82058,5,4,0:0:0:0:
256,192,84151,5,4,0:0:0:0:
256,192,84326,12,0,89733,0:0:0:0:
