osu file format v14

[General]
AudioFilename: 02. (Ver.).mp3
AudioLeadIn: 0
PreviewTime: 55198
Countdown: 0
SampleSet: Soft
StackLeniency: 0.7
Mode: 0
LetterboxInBreaks: 0
WidescreenStoryboard: 0

[Editor]
Bookmarks: 89711
DistanceSpacing: 0.9
BeatDivisor: 4
GridSize: 4
TimelineZoom: 1

[Metadata]
Title:Orange (Anime Ver.)
TitleUnicode:オレンジ (アニメVer.)
Artist:7!!
ArtistUnicode:7!!
Creator:Hi_Hello
Version:Easy
Source:四月は君の嘘
Tags:seven oops nanae maiko michiru keita Shigatsu wa Kimi no Uso ending ashley stewart <3 heart osu_gangster
BeatmapID:647659
BeatmapSetID:286058

[Difficulty]
HPDrainRate:2.5
CircleSize:3
OverallDifficulty:3.3
ApproachRate:4
SliderMultiplier:1.6
SliderTickRate:2

[Events]
//Background and Video events
0,0,"Shigatsu.wa.Kimi.no.Uso.full.1827733.jpg",0,0
//Break Periods
//Storyboard Layer 0 (Background)
//Storyboard Layer 1 (Fail)
//Storyboard Layer 2 (Pass)
//Storyboard Layer 3 (Foreground)
//Storyboard Sound Samples

[TimingPoints]
431,697.674418604651,4,2,1,35,1,0
1107,-100,4,2,2,65,0,0
23454,-100,4,2,1,65,0,0
23803,-100,4,2,2,65,0,0
24849,-100,4,2,1,65,0,0
25024,-100,4,2,2,65,0,0
25721,-100,4,2,1,65,0,0
28294,-76.9230769230769,4,2,2,65,0,0
28512,-76.9230769230769,4,2,1,65,0,0
30256,-76.9230769230769,4,2,1,65,0,0
31128,-76.9230769230769,4,2,2,65,0,0
31826,-76.9230769230769,4,2,1,65,0,0
33919,-76.9230769230769,4,2,2,65,0,0
34093,-76.9230769230769,4,2,1,65,0,0
36710,-76.9230769230769,4,2,2,65,0,0
37407,-76.9230769230769,4,2,1,65,0,0
39500,-76.9230769230769,4,2,2,65,0,0
39675,-76.9230769230769,4,2,1,65,0,0
40024,-76.9230769230769,4,2,3,65,0,0
40896,-76.9230769230769,4,2,1,65,0,0
42291,-76.9230769230769,4,2,2,65,0,0
42989,-76.9230769230769,4,2,1,65,0,0
45082,-76.9230769230769,4,2,2,65,0,0
45779,-76.9230769230769,4,2,1,65,0,0
47872,-76.9230769230769,4,2,2,65,0,0
48570,-76.9230769230769,4,2,1,65,0,0
53105,-76.9230769230769,4,2,1,10,0,0
53445,-76.9230769230769,4,2,2,65,0,0
54500,-133.333333333333,4,2,0,65,0,0
55198,-100,4,2,1,65,0,0
56244,-76.9230769230769,4,2,0,70,0,1
61826,-76.9230769230769,4,2,2,70,0,1
62524,-76.9230769230769,4,2,0,70,0,1
64617,-76.9230769230769,4,2,2,70,0,1
66710,-76.9230769230769,4,2,1,70,0,1
80663,-76.9230769230769,4,2,3,70,0,1
81012,-76.9230769230769,4,2,2,70,0,1
81361,-76.9230769230769,4,2,2,70,0,1
84151,-100,4,2,0,70,0,0
89558,-100,4,2,0,5,0,0

[Colours]
Combo1 : 192,192,192
Combo2 : 255,255,70
Combo3 : 128,128,128
Combo4 : 89,172,255

[HitObjects]
80,88,431,5,0,0:0:0:0:
80,88,1128,6,0,P|144:96|168:88,1,80,2|0,0:0|0:0,0:0:0:0:
232,72,1826,2,0,B|284:64|284:64|340:76|340:76|392:68,2,160,2|2|8,0:0|0:0|0:0,0:0:0:0:
288,192,3919,5,0,0:0:0:0:
288,192,4268,2,0,P|328:164|384:160,1,80
436,184,4965,2,0,P|452:228|448:268,2,80,0|2|2,0:0|0:0|0:0,0:0:0:0:
368,240,6012,1,8,0:0:0:0:
368,240,6710,6,0,P|332:296|240:300,1,160
184,240,7756,2,0,P|136:208|96:212,1,80
40,256,8454,2,0,L|20:360,1,80,0|8,0:0|0:0,0:0:0:0:
128,348,9500,5,2,0:0:0:0:
188,284,10198,1,8,0:0:0:0:
140,208,10896,2,0,P|112:164|112:128,1,80,2|0,0:0|0:0,0:0:0:0:
132,56,11593,6,0,B|228:100|228:100|312:60|312:60|368:52|420:84|436:116,1,320,8|2,0:0|0:0,0:0:0:0:
384,248,13686,6,0,P|396:312|392:348,2,80,0|0|8,0:0|0:0|0:0,0:0:0:0:
300,236,14733,2,0,B|228:200|228:200|212:236|168:236|168:236|120:236|96:176,1,240,0|2,0:0|0:0,0:0:0:0:
216,76,16826,6,0,P|272:68|296:76,1,80,0|8,0:0|0:0,0:0:0:0:
372,280,18221,6,0,P|404:236|400:204,1,80
440,136,18919,2,0,P|400:124|352:136,1,80
288,176,19617,1,0,0:0:0:0:
212,216,19965,6,0,B|140:228|136:228|136:228|40:164,1,160,8|0,0:0|0:0,0:0:0:0:
88,100,21012,1,0,0:0:0:0:
152,152,21361,2,0,P|128:200|184:296,1,160,2|0,0:0|0:0,0:0:0:0:
344,292,22756,6,0,P|392:236|388:152,1,160,8|2,0:0|0:0,0:0:0:0:
316,192,23803,2,0,P|252:208|152:172,1,160,8|0,0:0|0:0,0:0:0:0:
140,104,24849,1,8,0:0:0:0:
256,192,25547,12,8,28337,0:0:0:0:
132,104,29035,6,0,B|100:176|152:224|152:224|228:192|284:232|284:296,1,311.999985717774,8|0,0:0|0:0,0:0:0:0:
192,296,30430,2,0,P|224:240|356:268,1,207.999990478516,8|2,0:0|0:0,0:0:0:0:
349,257,31826,5,8,0:0:0:0:
349,257,32524,6,0,L|404:160,2,103.999995239258,2|0|10,0:0|0:0|0:0,0:0:0:0:
212,168,33919,6,0,B|160:140|160:140|112:176|48:176|20:132,1,207.999990478516,8|8,0:0|0:0,0:0:0:0:
100,100,34965,2,0,P|120:172|100:204,2,103.999995239258
168,56,36012,2,0,P|232:72|272:64,1,103.999995239258,8|0,0:0|0:0,0:0:0:0:
348,60,36710,6,0,B|428:44|428:44|472:116|428:176,1,207.999990478516,8|8,0:0|0:0,0:0:0:0:
356,184,37756,2,0,P|264:168|192:248,1,207.999990478516
240,324,38803,5,8,0:0:0:0:
160,320,39151,2,0,P|96:344|56:340,1,103.999995239258,0|8,0:0|0:0,0:0:0:0:
100,140,40198,6,0,B|88:76|88:76|100:24,1,103.999995239258,2|0,0:0|0:0,0:0:0:0:
180,104,40896,2,0,P|176:168|40:208,1,207.999990478516,2|8,0:0|0:0,0:0:0:0:
96,136,41942,1,0,0:0:0:0:
172,184,42291,6,0,P|252:164|292:264,2,207.999990478516,8|8|2,0:0|0:0|0:0,0:0:0:0:
224,236,44035,6,0,P|264:196|324:200,1,103.999995239258,0|8,0:0|0:0,0:0:0:0:
384,232,44733,2,0,P|440:248|492:236,1,103.999995239258,0|8,0:0|0:0,0:0:0:0:
256,88,46128,5,0,0:0:0:0:
320,140,46477,2,0,P|340:200|324:248,1,103.999995239258
252,292,47175,2,0,P|236:232|248:184,1,103.999995239258,8|0,0:0|0:0,0:0:0:0:
328,240,47872,6,0,P|336:316|228:372,1,207.999990478516,8|0,0:0|0:0,0:0:0:0:
160,348,48919,2,0,P|120:304|-4:356,1,207.999990478516,2|0,0:0|0:0,0:0:0:0:
0,350,50314,1,2,0:0:0:0:
256,192,50663,12,0,52756,0:0:0:0:
40,328,53454,6,8,L|144:352,1,103.999995239258
141,351,54500,6,0,P|193:303|205:255,1,120.000004577637,4|8,0:0|0:0,0:0:0:0:
132,220,55547,2,0,P|112:172|120:124,1,80,8|0,0:0|0:0,0:0:0:0:
168,84,56244,6,0,B|252:108|252:108|296:72|376:68,1,207.999990478516,4|8,0:0|0:0,0:0:0:0:
448,76,57291,1,0,0:0:0:0:
480,148,57640,2,0,B|496:220|460:296|460:296|496:356,1,207.999990478516,0|8,0:0|0:0,0:0:0:0:
332,324,59035,6,0,P|276:292|220:296,1,103.999995239258
160,304,59733,2,0,P|56:324|0:312,2,155.999992858887,8|0|0,0:0|0:0|0:0,0:0:0:0:
212,224,61128,1,8,0:0:0:0:
88,204,61826,6,0,B|40:180|40:180|16:96|80:36,1,207.999990478516,8|8,0:0|0:0,0:0:0:0:
152,80,62872,2,0,P|204:112|268:104,1,103.999995239258
312,64,63570,2,0,B|364:40|364:40|420:44,1,103.999995239258,0|8,0:0|0:0,0:0:0:0:
324,176,64617,6,0,B|312:328|312:328|348:372,2,207.999990478516,8|0|0,0:0|0:0|0:0,0:0:0:0:
444,44,66710,6,0,P|412:96|352:108,1,103.999995239258,8|0,0:0|0:0,0:0:0:0:
280,168,67407,6,0,P|212:136|72:156,2,207.999990478516,4|8|0,0:0|0:0|0:0,0:0:0:0:
320,240,69151,1,0,0:0:0:0:
236,232,69500,2,0,P|204:160|216:128,1,103.999995239258,8|0,0:0|0:0,0:0:0:0:
264,76,70198,6,0,P|328:60|432:164,2,207.999990478516,0|8|0,0:0|0:0|0:0,0:0:0:0:
180,112,71942,2,0,P|140:144|72:148,1,103.999995239258,0|8,0:0|0:0,0:0:0:0:
176,328,72989,6,0,B|240:316|240:316|308:336|308:336|384:320,1,207.999990478516,0|8,0:0|0:0,0:0:0:0:
378,321,74384,2,0,P|410:257|374:129,1,207.999990478516,0|8,0:0|0:0,0:0:0:0:
200,228,75779,6,0,P|136:256|92:248,2,103.999995239258,0|0|8,0:0|0:0|0:0,0:0:0:0:
264,160,76826,1,0,0:0:0:0:
340,108,77175,6,0,P|396:140|472:36,1,207.999990478516,0|8,0:0|0:0,0:0:0:0:
420,240,78570,2,0,L|416:348,1,103.999995239258
316,320,79268,6,0,B|296:256|204:240|204:240|112:288|48:216|48:216|192:184|16:160|144:152|68:28|240:32,1,623.999971435548,8|8,0:0|0:0,0:0:0:0:
233,31,82058,5,4,0:0:0:0:
256,192,84151,12,0,89733,0:0:0:0:
