osu file format v14

[General]
AudioFilename: 7!! - Orange.mp3
AudioLeadIn: 0
PreviewTime: 55226
Countdown: 0
SampleSet: Soft
StackLeniency: 0.7
Mode: 3
LetterboxInBreaks: 0
SpecialStyle: 0
WidescreenStoryboard: 0

[Editor]
DistanceSpacing: 1.2
BeatDivisor: 4
GridSize: 4
TimelineZoom: 0.8

[Metadata]
Title:Orange (Anime Ver.)
TitleUnicode:オレンジ(アニメVer.)
Artist:7!!
ArtistUnicode:7!!
Creator:[ A v a l o n ]
Version:5K EZ
Source:四月は君の嘘
Tags:Shigatsu wa Kimi no Uso Your Lie in April Ending ED2 TV Size Orenji Seven Oops
BeatmapID:753051
BeatmapSetID:340430

[Difficulty]
HPDrainRate:7
CircleSize:5
OverallDifficulty:7
ApproachRate:5
SliderMultiplier:1.4
SliderTickRate:1

[Events]
//Background and Video events
0,0,"appear.jpg",0,0
//Break Periods
//Storyboard Layer 0 (Background)
//Storyboard Layer 1 (Fail)
//Storyboard Layer 2 (Pass)
//Storyboard Layer 3 (Foreground)
//Storyboard Sound Samples
Sample,29063,0,"hihat.wav",40
Sample,31854,0,"hihat.wav",40
Sample,34645,0,"hihat.wav",40
Sample,40226,0,"hihat.wav",40
Sample,43017,0,"hihat.wav",40
Sample,51389,0,"hihat.wav",40
Sample,56621,0,"hihat.wav",70
Sample,59412,0,"hihat.wav",70
Sample,62203,0,"hihat.wav",70
Sample,66040,0,"hihat.wav",70
Sample,66912,0,"kick.wav",80
Sample,67784,0,"hihat.wav",70
Sample,68831,0,"hihat.wav",70
Sample,69877,0,"hihat.wav",70
Sample,70575,0,"hihat.wav",70
Sample,72668,0,"hihat.wav",70
Sample,73365,0,"hihat.wav",70
Sample,75458,0,"hihat.wav",70
Sample,76156,0,"hihat.wav",70
Sample,78249,0,"hihat.wav",70
Sample,78947,0,"hihat.wav",70

[TimingPoints]
459,697.674418604651,4,2,1,40,1,0
56272,-100,4,2,1,40,0,1
84179,-100,4,2,1,40,0,0

[HitObjects]
460,192,459,128,0,3249:0:0:0:0:
256,192,1156,1,0,0:0:0:40:hihat.wav
358,192,3249,128,0,5342:0:0:0:0:
51,192,3947,1,0,0:0:0:40:hihat.wav
153,192,4296,1,0,0:0:0:0:
153,192,4993,1,0,0:0:0:0:
51,192,5342,128,0,6040:0:0:0:0:
256,192,5691,1,0,0:0:0:0:
460,192,6040,128,0,8133:0:0:0:0:
51,192,6738,1,0,0:0:0:40:hihat.wav
153,192,7784,1,0,0:0:0:0:
358,192,8133,128,0,8831:0:0:0:0:
256,192,8831,128,0,10226:0:0:0:0:
460,192,9528,1,0,0:0:0:40:hihat.wav
153,192,10226,128,0,11621:0:0:0:0:
51,192,11621,128,0,13017:0:0:0:0:
460,192,12319,1,0,0:0:0:40:hihat.wav
358,192,13017,128,0,14412:0:0:0:0:
153,192,14063,1,0,0:0:0:0:
460,192,14412,128,0,15807:0:0:0:0:
51,192,15110,1,0,0:0:0:40:hihat.wav
153,192,15807,128,0,17203:0:0:0:0:
358,192,17203,1,0,0:0:0:0:
51,192,17552,1,0,0:0:0:0:
256,192,17900,1,0,0:0:0:40:hihat.wav
460,192,18249,128,0,19296:0:0:0:0:
358,192,19296,128,0,19993:0:0:0:0:
153,192,19993,128,0,21040:0:0:0:0:
256,192,20691,1,0,0:0:0:40:hihat.wav
51,192,21040,128,0,22086:0:0:0:0:
358,192,22086,128,0,22784:0:0:0:0:
460,192,22784,128,0,23482:0:0:0:0:
153,192,23482,128,0,23831:0:0:0:40:hihat.wav
358,192,23831,128,0,24528:0:0:0:0:
153,192,24528,128,0,24877:0:0:0:0:
358,192,24877,128,0,25575:0:0:0:0:
51,192,25575,128,0,26272:0:0:0:0:
153,192,26272,128,0,26621:0:0:0:40:hihat.wav
460,192,26621,128,0,26970:0:0:0:0:
358,192,26970,128,0,27319:0:0:0:0:
256,192,27319,128,0,27668:0:0:0:0:
153,192,27668,128,0,28365:0:0:0:0:
51,192,28365,1,0,0:0:0:0:
460,192,28365,1,0,0:0:0:0:
256,192,29761,1,0,0:0:0:0:
460,192,29761,1,0,0:0:0:0:
51,192,31156,1,0,0:0:0:0:
358,192,31156,1,0,0:0:0:0:
460,192,32552,1,0,0:0:0:0:
153,192,32552,1,0,0:0:0:0:
256,192,33947,1,0,0:0:0:0:
51,192,33947,1,0,0:0:0:0:
153,192,35342,1,0,0:0:0:0:
358,192,35342,1,0,0:0:0:0:
256,192,36738,1,0,0:0:0:0:
460,192,36738,1,0,0:0:0:0:
51,192,37086,1,0,0:0:0:0:
256,192,37435,1,0,0:0:0:40:hihat.wav
460,192,37784,1,0,0:0:0:0:
51,192,37784,1,0,0:0:0:0:
358,192,38133,1,0,0:0:0:0:
256,192,38482,1,0,0:0:0:0:
153,192,38831,1,0,0:0:0:0:
460,192,38831,1,0,0:0:0:0:
51,192,39179,1,0,0:0:0:0:
256,192,39528,1,0,0:0:0:0:
460,192,39528,1,0,0:0:0:0:
358,192,40924,1,0,0:0:0:0:
51,192,40924,1,0,0:0:0:0:
153,192,42319,1,0,0:0:0:0:
460,192,42319,1,0,0:0:0:0:
460,192,43714,1,0,0:0:0:0:
51,192,43714,1,0,0:0:0:0:
358,192,44063,1,0,0:0:0:0:
256,192,44412,1,0,0:0:0:0:
153,192,44761,1,0,0:0:0:0:
51,192,45110,1,0,0:0:0:0:
460,192,45110,1,0,0:0:0:0:
256,192,45807,1,0,0:0:0:40:hihat.wav
153,192,46156,1,0,0:0:0:0:
51,192,46156,1,0,0:0:0:0:
358,192,46331,1,0,0:0:0:0:
460,192,46331,1,0,0:0:0:0:
256,192,46854,1,0,0:0:0:0:
51,192,47203,1,0,0:0:0:0:
153,192,47377,1,0,0:0:0:0:
256,192,47552,1,0,0:0:0:0:
358,192,47726,1,0,0:0:0:0:
460,192,47900,1,0,0:0:0:0:
51,192,47900,1,0,0:0:0:0:
51,192,48598,1,0,0:0:0:40:hihat.wav
153,192,48772,1,0,0:0:0:0:
256,192,48947,1,0,0:0:0:0:
460,192,49121,1,0,0:0:0:0:
358,192,49121,1,0,0:0:0:0:
51,192,49470,1,0,0:0:0:0:
256,192,49645,1,0,0:0:0:0:
460,192,49993,1,0,0:0:0:0:
358,192,50168,1,0,0:0:0:0:
256,192,50342,1,0,0:0:0:0:
153,192,50517,1,0,0:0:0:0:
51,192,50691,128,0,53482:0:0:0:0:
460,192,50691,128,0,53482:0:0:0:0:
358,192,53482,1,0,0:0:0:80:kick.wav
153,192,53482,1,0,0:0:0:70:crash.wav
153,192,53831,1,0,0:0:0:80:kick.wav
358,192,53831,1,0,0:0:0:70:crash.wav
256,192,54528,1,0,0:0:0:80:kick.wav
460,192,54528,1,0,0:0:0:70:crash.wav
51,192,54528,1,0,0:0:0:70:boom.wav
153,192,55226,1,0,0:0:0:80:kick.wav
358,192,55226,1,0,0:0:0:0:
460,192,55575,1,0,0:0:0:80:kick.wav
51,192,55575,1,0,0:0:0:0:
358,192,55749,1,0,0:0:0:80:kick.wav
153,192,55749,1,0,0:0:0:0:
256,192,55924,1,0,0:0:0:80:kick.wav
51,192,56272,1,0,0:0:0:80:kick.wav
460,192,56272,128,0,59063:0:0:0:70:crash.wav
153,192,56970,1,0,0:0:0:70:cymbol.wav
358,192,56970,1,0,0:0:0:80:kick.wav
51,192,57668,1,0,0:0:0:70:hihat.wav
256,192,58017,1,0,0:0:0:80:kick.wav
358,192,58365,1,0,0:0:0:80:kick.wav
51,192,58365,1,0,0:0:0:70:cymbol.wav
153,192,58714,1,0,0:0:0:70:hihat.wav
256,192,59063,128,0,61854:0:0:0:80:kick.wav
51,192,59063,1,0,0:0:0:0:
153,192,59761,1,0,0:0:0:70:cymbol.wav
460,192,59761,1,0,0:0:0:80:kick.wav
358,192,60458,1,0,0:0:0:70:hihat.wav
153,192,60807,1,0,0:0:0:80:kick.wav
51,192,61156,1,0,0:0:0:80:kick.wav
460,192,61156,1,0,0:0:0:70:cymbol.wav
358,192,61505,1,0,0:0:0:70:hihat.wav
51,192,61854,128,0,64645:0:0:0:80:kick.wav
460,192,61854,1,0,0:0:0:0:
460,192,62552,1,0,0:0:0:80:kick.wav
358,192,62552,1,0,0:0:0:70:cymbol.wav
256,192,63249,1,0,0:0:0:70:hihat.wav
358,192,63598,1,0,0:0:0:80:kick.wav
460,192,63947,1,0,0:0:0:70:cymbol.wav
153,192,63947,1,0,0:0:0:80:kick.wav
256,192,64296,1,0,0:0:0:70:hihat.wav
460,192,64645,128,0,65342:0:0:0:80:kick.wav
358,192,64645,1,0,0:0:0:0:
153,192,64993,1,0,0:0:0:80:kick.wav
51,192,65342,1,0,0:0:0:70:cymbol.wav
358,192,65342,1,0,0:0:0:80:kick.wav
256,192,65691,128,0,66738:0:0:0:80:kick.wav
153,192,65691,1,0,0:0:0:0:
460,192,66389,1,0,0:0:0:80:kick.wav
358,192,66738,128,0,67435:0:0:0:80:kick.wav
51,192,66738,1,0,0:0:0:70:cymbol.wav
153,192,67086,1,0,0:0:0:80:kick.wav
51,192,67435,1,0,0:0:0:70:crash.wav
460,192,67435,1,0,0:0:0:80:kick.wav
153,192,68133,1,0,0:0:0:80:kick.wav
358,192,68133,1,0,0:0:0:70:cymbol.wav
256,192,69179,1,0,0:0:0:80:kick.wav
51,192,69528,1,0,0:0:0:70:cymbol.wav
460,192,69528,1,0,0:0:0:80:kick.wav
358,192,70226,1,0,0:0:0:80:kick.wav
153,192,70226,1,0,0:0:0:0:
51,192,70924,1,0,0:0:0:70:cymbol.wav
460,192,70924,1,0,0:0:0:80:kick.wav
358,192,71621,1,0,0:0:0:70:hihat.wav
153,192,71621,1,0,0:0:0:0:
256,192,71970,1,0,0:0:0:80:kick.wav
51,192,72319,1,0,0:0:0:80:kick.wav
460,192,72319,1,0,0:0:0:70:cymbol.wav
256,192,72668,1,0,0:0:0:0:
153,192,73017,1,0,0:0:0:80:kick.wav
358,192,73017,128,0,74412:0:0:0:0:
51,192,73714,1,0,0:0:0:80:kick.wav
460,192,73714,1,0,0:0:0:70:cymbol.wav
256,192,74412,128,0,75807:0:0:0:70:hihat.wav
153,192,74761,1,0,0:0:0:80:kick.wav
51,192,75110,1,0,0:0:0:70:cymbol.wav
460,192,75110,1,0,0:0:0:80:kick.wav
460,192,75807,128,0,77900:0:0:0:80:kick.wav
153,192,75807,1,0,0:0:0:0:
51,192,76505,1,0,0:0:0:70:cymbol.wav
358,192,76505,1,0,0:0:0:80:kick.wav
153,192,77203,1,0,0:0:0:70:hihat.wav
256,192,77552,1,0,0:0:0:80:kick.wav
51,192,77900,128,0,78598:0:0:0:80:kick.wav
358,192,77900,1,0,0:0:0:70:cymbol.wav
256,192,78598,128,0,81389:0:0:0:80:kick.wav
153,192,78598,1,0,0:0:0:0:
51,192,79296,1,0,0:0:0:80:kick.wav
460,192,79296,1,0,0:0:0:70:cymbol.wav
153,192,79993,1,0,0:0:0:70:hihat.wav
358,192,80342,1,0,0:0:0:80:kick.wav
51,192,80691,1,0,0:0:0:70:cymbol.wav
460,192,80691,1,0,0:0:0:80:kick.wav
153,192,81040,1,0,0:0:0:70:hihat.wav
51,192,81389,1,0,0:0:0:80:kick.wav
358,192,81389,1,0,0:0:0:0:
358,192,82086,1,0,0:0:0:80:kick.wav
460,192,82086,1,0,0:0:0:70:crash.wav
153,192,82086,128,0,84179:0:0:0:70:boom.wav
51,192,84179,128,0,89761:0:0:0:80:kick.wav
460,192,84179,1,0,0:0:0:0:
