osu file format v12

[General]
AudioFilename: 01 - Lovers ~TV size~.mp3
AudioLeadIn: 2000
PreviewTime: 61321
Countdown: 0
SampleSet: Normal
StackLeniency: 0.7
Mode: 1
LetterboxInBreaks: 0
WidescreenStoryboard: 0

[Editor]
Bookmarks: 407,6260,12114,17967,23821,29675,35528,41382,47236,53089,58943,61870,67724,73577,79431,85285,88211
DistanceSpacing: 1.5
BeatDivisor: 4
GridSize: 8

[Metadata]
Title:Lovers (TV Size)
TitleUnicode:Lovers (TV Size)
Artist:7!!
ArtistUnicode:7!!
Creator:Kecco
Version:lepidon! - Taiko Oni
Source:Naruto Shippuuden
Tags:Sakura Sasuke Akatsuki Maiko Michiru & Keita Kage OP09 OP9 Project Tsuki no Me Uchiha Madara lepidopodus arien666 Colin Hou banvi Seven Oops shippuden
BeatmapID:96735
BeatmapSetID:28690

[Difficulty]
HPDrainRate:6
CircleSize:5
OverallDifficulty:6
ApproachRate:5
SliderMultiplier:1.4
SliderTickRate:2

[Events]
//Background and Video events
0,0,"BG.jpg",0,0
Video,-560,"Lovers.avi"
//Break Periods
//Storyboard Layer 0 (Background)
//Storyboard Layer 1 (Fail)
//Storyboard Layer 2 (Pass)
//Storyboard Layer 3 (Foreground)
//Storyboard Sound Samples
//Background Colour Transformations
3,100,163,162,255

[TimingPoints]
398,365.853658536585,4,1,1,65,1,0
61861,-100,4,1,1,65,0,1
85276,-100,4,1,1,65,0,0

[Colours]
Combo1 : 255,179,255
Combo2 : 255,132,132
Combo3 : 255,182,108
Combo4 : 255,255,151
Combo5 : 0,225,113
Combo6 : 108,108,255
Combo7 : 173,91,255

[HitObjects]
336,176,398,1,8,0:0:0:0:
456,216,580,1,0,0:0:0:0:
360,304,763,1,0,0:0:0:0:
392,184,946,1,8,0:0:0:0:
328,72,1129,1,0,0:0:0:0:
344,200,1312,1,0,0:0:0:0:
464,168,1495,1,8,0:0:0:0:
464,168,1678,1,0,0:0:0:0:
336,168,1861,1,12,0:0:0:0:
432,128,2410,1,12,0:0:0:0:
184,320,2958,1,8,0:0:0:0:
232,296,3050,1,8,0:0:0:0:
280,280,3141,1,0,0:0:0:0:
232,312,3233,1,0,0:0:0:0:
184,176,3324,5,0,0:0:0:0:
352,304,3690,1,8,0:0:0:0:
152,360,4056,1,0,0:0:0:0:
256,328,4239,1,0,0:0:0:0:
256,328,4422,1,8,0:0:0:0:
256,328,4605,1,0,0:0:0:0:
352,304,4971,1,0,0:0:0:0:
352,304,5154,1,8,0:0:0:0:
320,320,5519,1,0,0:0:0:0:
312,112,5885,1,8,0:0:0:0:
312,168,5977,1,8,0:0:0:0:
312,224,6068,1,0,0:0:0:0:
320,280,6160,1,0,0:0:0:0:
320,280,6251,1,0,0:0:0:0:
120,208,6617,1,8,0:0:0:0:
312,280,6800,1,0,0:0:0:0:
312,280,6983,1,0,0:0:0:0:
416,304,7166,1,0,0:0:0:0:
368,288,7349,1,8,0:0:0:0:
328,192,7532,1,0,0:0:0:0:
224,192,7715,1,0,0:0:0:0:
416,368,8080,1,0,0:0:0:0:
328,176,8446,1,0,0:0:0:0:
304,240,8812,1,8,0:0:0:0:
304,240,8904,1,8,0:0:0:0:
304,240,8995,1,0,0:0:0:0:
304,240,9087,1,0,0:0:0:0:
304,240,9178,5,0,0:0:0:0:
120,144,9544,1,8,0:0:0:0:
216,184,9727,1,0,0:0:0:0:
296,256,9910,1,0,0:0:0:0:
384,312,10093,1,0,0:0:0:0:
400,208,10276,1,8,0:0:0:0:
392,104,10458,1,0,0:0:0:0:
392,312,10824,1,8,0:0:0:0:
408,208,11007,1,0,0:0:0:0:
464,120,11190,1,8,0:0:0:0:
464,224,11373,1,0,0:0:0:0:
359,212,11556,1,0,0:0:0:0:
411,212,11647,1,0,0:0:0:0:
254,203,11739,1,0,0:0:0:0:
356,181,11922,1,8,0:0:0:0:
416,94,12105,2,0,B|137:105|127:343,1,420
296,208,13568,1,0,0:0:0:0:
360,296,13751,1,0,0:0:0:0:
288,216,13934,1,0,0:0:0:0:
344,304,14117,1,0,0:0:0:0:
288,216,14300,1,0,0:0:0:0:
344,304,14483,1,0,0:0:0:0:
288,216,14666,1,0,0:0:0:0:
344,304,14849,1,0,0:0:0:0:
384,208,15032,5,12,0:0:0:0:
344,304,15946,1,4,0:0:0:0:
344,304,16129,1,4,0:0:0:0:
344,304,16312,1,12,0:0:0:0:
384,224,17410,1,4,0:0:0:0:
440,192,17593,1,12,0:0:0:0:
232,166,17958,5,0,0:0:0:0:
296,248,18141,1,0,0:0:0:0:
390,202,18324,1,8,0:0:0:0:
494,189,18507,1,0,0:0:0:0:
312,295,18873,1,0,0:0:0:0:
364,203,19056,1,8,0:0:0:0:
440,131,19239,1,0,0:0:0:0:
417,233,19422,1,0,0:0:0:0:
403,283,19513,1,0,0:0:0:0:
403,283,19605,1,0,0:0:0:0:
443,186,19788,1,8,0:0:0:0:
338,180,19971,1,0,0:0:0:0:
129,155,20337,1,0,0:0:0:0:
232,167,20519,1,8,0:0:0:0:
282,183,20611,1,8,0:0:0:0:
282,183,20702,1,8,0:0:0:0:
381,150,20885,1,0,0:0:0:0:
432,241,21068,1,0,0:0:0:0:
441,136,21251,1,8,0:0:0:0:
461,239,21434,1,0,0:0:0:0:
260,300,21800,1,0,0:0:0:0:
335,226,21983,1,8,0:0:0:0:
437,249,22166,1,0,0:0:0:0:
354,314,22349,1,0,0:0:0:0:
308,288,22440,1,0,0:0:0:0:
354,314,22532,1,0,0:0:0:0:
351,208,22715,1,8,0:0:0:0:
297,118,22897,2,0,B|143:136,1,140
240,200,23446,1,8,0:0:0:0:
276,238,23538,1,8,0:0:0:0:
276,238,23629,1,8,0:0:0:0:
276,238,23721,1,8,0:0:0:0:
321,213,23812,5,0,0:0:0:0:
219,187,23995,1,0,0:0:0:0:
322,171,24178,1,8,0:0:0:0:
427,171,24361,1,0,0:0:0:0:
479,171,24452,1,8,0:0:0:0:
376,176,24635,1,8,0:0:0:0:
427,171,24727,1,0,0:0:0:0:
344,236,24910,1,8,0:0:0:0:
277,317,25093,1,8,0:0:0:0:
322,292,25184,1,8,0:0:0:0:
374,292,25276,1,0,0:0:0:0:
312,208,25458,1,0,0:0:0:0:
408,160,25641,1,8,0:0:0:0:
512,128,25824,1,0,0:0:0:0:
479,171,25916,1,8,0:0:0:0:
408,248,26099,1,8,0:0:0:0:
368,208,26190,1,0,0:0:0:0:
288,136,26373,1,8,0:0:0:0:
321,213,26739,1,0,0:0:0:0:
219,187,26922,1,0,0:0:0:0:
322,171,27105,1,8,0:0:0:0:
427,171,27288,1,0,0:0:0:0:
479,171,27379,1,8,0:0:0:0:
376,176,27562,1,8,0:0:0:0:
427,171,27654,1,0,0:0:0:0:
344,236,27837,1,8,0:0:0:0:
277,317,28019,1,8,0:0:0:0:
322,292,28111,1,8,0:0:0:0:
374,292,28202,1,0,0:0:0:0:
312,208,28385,1,0,0:0:0:0:
408,160,28568,1,8,0:0:0:0:
512,128,28751,1,0,0:0:0:0:
479,171,28843,1,8,0:0:0:0:
408,248,29026,1,0,0:0:0:0:
368,208,29117,1,8,0:0:0:0:
288,136,29300,1,8,0:0:0:0:
88,208,29666,5,0,0:0:0:0:
184,256,29849,1,0,0:0:0:0:
408,248,30032,1,8,0:0:0:0:
448,152,30215,1,0,0:0:0:0:
479,171,30306,1,8,0:0:0:0:
440,272,30489,1,8,0:0:0:0:
416,224,30580,1,0,0:0:0:0:
352,144,30763,1,8,0:0:0:0:
336,248,30946,1,8,0:0:0:0:
344,200,31038,1,8,0:0:0:0:
392,184,31129,1,0,0:0:0:0:
336,248,31312,1,0,0:0:0:0:
479,171,31495,1,8,0:0:0:0:
448,152,31678,1,0,0:0:0:0:
479,171,31769,1,8,0:0:0:0:
432,192,31861,1,0,0:0:0:0:
392,160,31952,1,8,0:0:0:0:
440,176,32044,1,0,0:0:0:0:
344,216,32227,1,8,0:0:0:0:
344,216,32410,1,8,0:0:0:0:
328,264,32501,1,8,0:0:0:0:
376,248,32593,1,0,0:0:0:0:
448,48,32958,1,8,0:0:0:0:
424,200,33233,1,8,0:0:0:0:
328,216,33324,1,0,0:0:0:0:
432,200,33507,1,0,0:0:0:0:
344,144,33690,1,8,0:0:0:0:
328,264,34056,1,0,0:0:0:0:
336,368,34239,1,0,0:0:0:0:
296,336,34330,1,0,0:0:0:0:
392,280,34422,1,8,0:0:0:0:
432,200,34605,1,0,0:0:0:0:
248,296,34971,1,0,0:0:0:0:
336,240,35154,1,8,0:0:0:0:
384,216,35245,1,8,0:0:0:0:
432,200,35337,1,8,0:0:0:0:
432,200,35428,1,8,0:0:0:0:
480,208,35519,5,0,0:0:0:0:
376,192,35702,1,0,0:0:0:0:
344,96,35885,1,8,0:0:0:0:
440,136,36068,1,0,0:0:0:0:
400,168,36160,1,8,0:0:0:0:
376,192,36343,1,8,0:0:0:0:
424,168,36434,1,0,0:0:0:0:
448,176,36617,1,8,0:0:0:0:
432,200,36800,1,8,0:0:0:0:
432,200,36891,1,8,0:0:0:0:
432,256,36983,1,0,0:0:0:0:
328,224,37166,1,0,0:0:0:0:
288,128,37349,1,8,0:0:0:0:
264,232,37532,1,0,0:0:0:0:
424,168,37623,1,8,0:0:0:0:
480,168,37715,1,0,0:0:0:0:
424,168,37806,1,0,0:0:0:0:
400,216,37897,1,8,0:0:0:0:
384,128,38080,1,8,0:0:0:0:
480,208,38446,1,0,0:0:0:0:
376,192,38629,1,0,0:0:0:0:
344,96,38812,1,8,0:0:0:0:
440,136,38995,1,0,0:0:0:0:
400,168,39087,1,8,0:0:0:0:
376,192,39269,1,8,0:0:0:0:
424,168,39361,1,0,0:0:0:0:
448,176,39544,1,8,0:0:0:0:
432,200,39727,1,8,0:0:0:0:
432,200,39818,1,8,0:0:0:0:
432,256,39910,1,0,0:0:0:0:
328,224,40093,1,0,0:0:0:0:
288,128,40276,1,8,0:0:0:0:
264,232,40458,1,0,0:0:0:0:
424,168,40550,1,8,0:0:0:0:
480,168,40641,1,0,0:0:0:0:
432,176,40733,1,8,0:0:0:0:
416,224,40824,1,0,0:0:0:0:
384,128,41007,1,8,0:0:0:0:
376,184,41099,1,8,0:0:0:0:
368,240,41190,1,8,0:0:0:0:
368,240,41282,1,8,0:0:0:0:
480,208,41373,5,0,0:0:0:0:
376,192,41556,1,0,0:0:0:0:
344,96,41739,1,8,0:0:0:0:
440,136,41922,1,0,0:0:0:0:
400,168,42013,1,8,0:0:0:0:
376,192,42196,1,8,0:0:0:0:
424,168,42288,1,0,0:0:0:0:
448,176,42471,1,8,0:0:0:0:
432,200,42654,1,8,0:0:0:0:
432,200,42745,1,8,0:0:0:0:
432,256,42837,1,0,0:0:0:0:
328,224,43019,1,0,0:0:0:0:
288,128,43202,1,8,0:0:0:0:
264,232,43385,1,0,0:0:0:0:
424,168,43477,1,8,0:0:0:0:
480,168,43568,1,0,0:0:0:0:
432,176,43660,1,8,0:0:0:0:
416,224,43751,1,0,0:0:0:0:
368,128,43934,1,8,0:0:0:0:
368,232,44117,1,8,0:0:0:0:
352,280,44208,1,8,0:0:0:0:
392,296,44300,1,0,0:0:0:0:
264,128,44666,1,8,0:0:0:0:
408,192,44940,1,8,0:0:0:0:
416,272,45032,1,0,0:0:0:0:
312,256,45215,1,0,0:0:0:0:
392,184,45397,1,8,0:0:0:0:
184,208,45763,1,0,0:0:0:0:
288,224,45946,1,0,0:0:0:0:
240,240,46038,1,0,0:0:0:0:
376,168,46129,1,8,0:0:0:0:
440,256,46312,1,0,0:0:0:0:
232,296,46678,1,0,0:0:0:0:
320,232,46861,1,8,0:0:0:0:
376,168,47044,1,0,0:0:0:0:
352,216,47135,1,0,0:0:0:0:
352,216,47227,5,0,0:0:0:0:
216,56,47593,1,8,0:0:0:0:
392,168,47958,1,0,0:0:0:0:
400,272,48141,1,0,0:0:0:0:
400,328,48233,1,0,0:0:0:0:
408,280,48324,1,8,0:0:0:0:
392,176,48507,1,0,0:0:0:0:
184,152,48873,1,0,0:0:0:0:
288,144,49056,1,8,0:0:0:0:
352,224,49239,1,8,0:0:0:0:
352,224,49330,1,8,0:0:0:0:
400,208,49422,1,0,0:0:0:0:
400,208,49513,1,0,0:0:0:0:
400,208,49605,1,0,0:0:0:0:
360,112,49788,1,8,0:0:0:0:
240,280,50154,1,0,0:0:0:0:
280,376,50337,1,0,0:0:0:0:
336,288,50519,1,8,0:0:0:0:
328,128,50794,1,8,0:0:0:0:
376,152,50885,1,0,0:0:0:0:
440,232,51068,1,0,0:0:0:0:
432,184,51160,1,0,0:0:0:0:
472,152,51251,1,8,0:0:0:0:
400,232,51434,1,0,0:0:0:0:
192,208,51800,1,0,0:0:0:0:
296,176,51983,1,8,0:0:0:0:
352,264,52166,1,8,0:0:0:0:
392,232,52257,1,0,0:0:0:0:
416,184,52349,1,8,0:0:0:0:
464,88,52532,1,0,0:0:0:0:
440,192,52715,1,8,0:0:0:0:
416,240,52806,1,8,0:0:0:0:
272,176,53080,5,0,0:0:0:0:
328,88,53263,1,0,0:0:0:0:
416,184,53446,1,8,0:0:0:0:
360,328,53721,1,8,0:0:0:0:
440,192,53812,1,0,0:0:0:0:
336,184,53995,1,0,0:0:0:0:
336,240,54087,1,0,0:0:0:0:
424,128,54178,1,8,0:0:0:0:
360,208,54361,1,0,0:0:0:0:
176,304,54727,1,0,0:0:0:0:
264,240,54910,1,8,0:0:0:0:
352,184,55093,1,8,0:0:0:0:
352,184,55184,1,8,0:0:0:0:
368,232,55276,1,0,0:0:0:0:
360,280,55367,1,0,0:0:0:0:
360,280,55458,1,0,0:0:0:0:
432,200,55641,1,8,0:0:0:0:
336,160,55824,1,0,0:0:0:0:
288,176,55916,1,0,0:0:0:0:
240,184,56007,1,0,0:0:0:0:
448,160,56373,1,8,0:0:0:0:
432,200,56739,1,0,0:0:0:0:
352,272,56922,1,0,0:0:0:0:
392,176,57105,1,8,0:0:0:0:
184,184,57471,1,12,0:0:0:0:
288,192,57654,1,8,0:0:0:0:
392,184,57837,1,0,0:0:0:0:
432,200,58019,1,12,0:0:0:0:
256,80,58385,1,0,0:0:0:0:
344,128,58568,1,0,0:0:0:0:
384,224,58751,1,8,0:0:0:0:
280,240,58934,5,4,0:0:0:0:
376,192,59117,1,0,0:0:0:0:
432,200,59300,1,0,0:0:0:0:
368,112,59483,1,4,0:0:0:0:
328,208,59666,1,0,0:0:0:0:
280,240,59849,1,0,0:0:0:0:
352,168,60032,1,4,0:0:0:0:
384,272,60215,1,0,0:0:0:0:
376,192,60397,1,12,0:0:0:0:
352,336,60946,1,12,0:0:0:0:
424,32,61495,1,8,0:0:0:0:
416,80,61587,1,8,0:0:0:0:
416,136,61678,1,0,0:0:0:0:
408,184,61769,1,0,0:0:0:0:
368,216,61861,5,0,0:0:0:0:
168,152,62227,1,8,0:0:0:0:
312,208,62501,1,8,0:0:0:0:
344,248,62593,1,0,0:0:0:0:
336,144,62776,1,0,0:0:0:0:
400,224,62958,1,8,0:0:0:0:
296,200,63141,1,0,0:0:0:0:
288,264,63507,1,0,0:0:0:0:
376,208,63690,1,8,0:0:0:0:
408,208,63965,1,8,0:0:0:0:
424,160,64056,1,0,0:0:0:0:
424,160,64147,1,8,0:0:0:0:
424,160,64239,1,0,0:0:0:0:
352,232,64422,1,8,0:0:0:0:
456,232,64605,1,8,0:0:0:0:
408,240,64696,1,8,0:0:0:0:
432,288,64788,1,0,0:0:0:0:
336,240,64971,1,0,0:0:0:0:
304,136,65154,1,8,0:0:0:0:
424,232,65428,1,8,0:0:0:0:
392,192,65519,1,0,0:0:0:0:
376,88,65702,1,0,0:0:0:0:
416,184,65885,1,8,0:0:0:0:
328,240,66068,1,4,0:0:0:0:
432,56,66434,1,0,0:0:0:0:
408,104,66526,1,0,0:0:0:0:
440,144,66617,1,8,0:0:0:0:
416,184,66800,1,8,0:0:0:0:
408,240,66983,1,0,0:0:0:0:
384,193,67074,1,8,0:0:0:0:
272,272,67166,1,0,0:0:0:0:
256,168,67349,1,8,0:0:0:0:
280,120,67440,1,8,0:0:0:0:
328,144,67532,1,0,0:0:0:0:
352,192,67623,1,0,0:0:0:0:
328,240,67715,5,0,0:0:0:0:
264,160,67897,1,0,0:0:0:0:
344,168,68080,1,8,0:0:0:0:
496,216,68355,1,8,0:0:0:0:
448,208,68446,1,0,0:0:0:0:
456,160,68538,1,8,0:0:0:0:
408,168,68629,1,0,0:0:0:0:
408,168,68812,1,8,0:0:0:0:
360,72,68995,1,12,0:0:0:0:
184,192,69361,1,0,0:0:0:0:
288,200,69544,1,8,0:0:0:0:
392,224,69727,1,8,0:0:0:0:
392,224,69818,1,8,0:0:0:0:
408,168,69910,1,0,0:0:0:0:
376,272,70093,1,0,0:0:0:0:
376,272,70184,1,0,0:0:0:0:
400,224,70276,1,8,0:0:0:0:
464,144,70458,1,8,0:0:0:0:
360,128,70641,1,0,0:0:0:0:
256,152,70824,1,0,0:0:0:0:
464,144,71007,1,8,0:0:0:0:
312,184,71282,1,8,0:0:0:0:
320,296,71373,1,0,0:0:0:0:
408,168,71465,1,8,0:0:0:0:
456,192,71556,1,0,0:0:0:0:
384,272,71739,1,8,0:0:0:0:
200,176,72105,1,0,0:0:0:0:
288,240,72288,1,0,0:0:0:0:
392,208,72471,1,8,0:0:0:0:
336,64,72745,1,8,0:0:0:0:
184,224,72837,1,0,0:0:0:0:
296,224,73019,1,0,0:0:0:0:
256,192,73111,1,0,0:0:0:0:
392,192,73202,1,8,0:0:0:0:
440,176,73294,1,8,0:0:0:0:
400,208,73385,1,8,0:0:0:0:
424,224,73568,5,12,0:0:0:0:
264,88,73934,1,12,0:0:0:0:
408,152,74208,1,8,0:0:0:0:
440,192,74300,1,0,0:0:0:0:
384,280,74483,1,0,0:0:0:0:
368,176,74666,1,8,0:0:0:0:
440,176,74849,1,12,0:0:0:0:
232,216,75215,1,8,0:0:0:0:
280,200,75306,1,8,0:0:0:0:
336,224,75397,1,8,0:0:0:0:
392,232,75580,1,8,0:0:0:0:
376,128,75763,1,0,0:0:0:0:
448,208,75946,1,8,0:0:0:0:
352,160,76129,1,0,0:0:0:0:
272,88,76312,2,0,B|40:80|40:80|64:336|440:328|440:328|440:32,1,1050
360,224,79422,5,12,0:0:0:0:
176,328,79788,1,12,0:0:0:0:
304,240,80062,1,8,0:0:0:0:
344,208,80154,1,0,0:0:0:0:
448,192,80337,1,0,0:0:0:0:
344,168,80519,1,8,0:0:0:0:
408,80,80702,1,12,0:0:0:0:
240,208,81068,1,12,0:0:0:0:
328,144,81251,1,12,0:0:0:0:
288,240,81434,1,12,0:0:0:0:
384,200,81617,1,4,0:0:0:0:
456,120,81800,1,12,0:0:0:0:
400,208,81983,1,4,0:0:0:0:
296,232,82166,2,4,B|88:256|88:256|40:360|40:360|432:328|176:200|176:200|528:176,1,1050
304,136,85276,5,0,0:0:0:0:
200,120,85458,1,0,0:0:0:0:
296,160,85641,1,8,0:0:0:0:
352,248,85824,1,0,0:0:0:0:
240,360,86190,1,0,0:0:0:0:
320,288,86373,1,8,0:0:0:0:
400,216,86556,1,0,0:0:0:0:
480,144,86739,1,8,0:0:0:0:
432,240,86922,1,0,0:0:0:0:
416,288,87013,1,0,0:0:0:0:
416,288,87105,1,0,0:0:0:0:
368,192,87288,1,8,0:0:0:0:
256,16,87654,1,0,0:0:0:0:
240,64,87745,1,0,0:0:0:0:
296,176,87837,1,8,0:0:0:0:
336,208,87928,1,8,0:0:0:0:
336,208,88019,1,8,0:0:0:0:
384,216,88202,1,4,0:0:0:0:
