osu file format v14

[General]
AudioFilename: kimi.mp3
AudioLeadIn: 0
PreviewTime: 74136
Countdown: 0
SampleSet: Soft
StackLeniency: 0.7
Mode: 2
LetterboxInBreaks: 0
WidescreenStoryboard: 0

[Editor]
Bookmarks: 200983,300766
DistanceSpacing: 1.6
BeatDivisor: 4
GridSize: 16
TimelineZoom: 2.699999

[Metadata]
Title:Kimi ga Iru Nara
TitleUnicode:きみがいるなら
Artist:7!!
ArtistUnicode:セブンウップス
Creator:Hi_Hello
Version:beautiful days
Source:勇者ヨシヒコと導かれし七人
Tags:Yuusha Yoshihiko to Michibikareshi shichinin seven oops maiko michiru keita nanae ending ed twisterlander
BeatmapID:1128029
BeatmapSetID:532357

[Difficulty]
HPDrainRate:6
CircleSize:3.5
OverallDifficulty:9
ApproachRate:9
SliderMultiplier:3.2
SliderTickRate:2

[Events]
//Background and Video events
0,0,"k2.jpg",0,0
//Break Periods
//Storyboard Layer 0 (Background)
//Storyboard Layer 1 (Fail)
//Storyboard Layer 2 (Pass)
//Storyboard Layer 3 (Foreground)
//Storyboard Sound Samples

[TimingPoints]
1418,652.173913043478,4,2,1,5,1,0
2723,652.173913043478,4,2,1,50,1,0
13157,-111.111111111111,4,2,1,50,0,0
54896,-83.3333333333333,4,2,3,50,0,0
64353,-83.3333333333333,4,2,0,50,0,0
64516,-83.3333333333333,4,2,3,50,0,0
70549,-100,4,2,3,70,0,0
75766,-80,4,2,3,90,0,1
94027,-80,4,2,3,90,0,0
96636,-80,4,2,3,90,0,1
114896,-83.3333333333333,4,2,3,90,0,0
117505,-100,4,2,1,60,0,0
138049,-100,4,3,0,90,0,0
138375,-83.3333333333333,4,2,3,60,0,0
147994,-83.3333333333333,4,2,0,60,0,0
148320,-83.3333333333333,4,2,3,60,0,0
156636,-83.3333333333333,4,2,3,60,0,0
159244,-80,4,2,3,90,0,1
177505,-80,4,2,3,90,0,0
180114,-80,4,2,3,90,0,1
198375,-100,4,2,3,90,0,0
199679,-100,4,2,1,90,0,0
200331,-100,4,2,0,90,0,0
200657,-100,4,3,0,90,0,0
200983,-100,4,2,1,70,0,0
216636,-80,4,2,1,70,0,0
221201,-83.3333333333333,4,3,0,70,0,0
221853,-83.3333333333333,4,2,1,70,0,0
224462,-80,4,2,4,90,0,1
224625,-80,4,2,3,90,0,1
234896,-80,4,2,4,90,0,1
235059,-80,4,2,3,90,0,1
242722,-80,4,2,2,90,0,0
244353,-80,4,3,0,90,0,0
244679,-80,4,2,3,90,0,0
245331,-80,4,2,4,90,0,1
245657,-80,4,2,3,90,0,1
253157,-80,4,2,4,90,0,1
253483,-80,4,2,3,90,0,1
254788,-80,4,3,0,90,0,1
255114,-80,4,2,3,90,0,1
255766,-80,4,2,4,90,0,1
256092,-80,4,2,3,90,0,1
265304,-80,4,2,2,90,0,1
265386,-80,4,2,3,90,0,1
266119,-80,4,2,0,90,0,1
266201,-100,4,2,0,40,0,0
266364,-100,4,3,0,40,0,0
271500,-100,4,2,0,40,0,0
274027,-100,4,2,2,50,0,0
275657,-83.3333333333333,4,3,0,70,0,0
275820,-83.3333333333333,4,2,2,70,0,0
276636,-80,4,2,3,90,0,0
281527,-80,4,2,0,20,0,0
281853,-80,4,2,3,90,0,0
283157,-80,4,2,3,90,0,0
283239,-80,4,2,0,5,0,0
283483,-80,4,2,3,90,0,0
283565,-80,4,2,0,5,0,0
283809,-80,4,2,3,90,0,0
283891,-80,4,2,0,5,0,0
284136,-80,4,2,3,90,0,0
284217,-80,4,2,0,5,0,0
284462,-100,4,2,2,50,0,0
287070,-100,4,2,0,30,0,0
294896,-100,4,2,0,20,0,0
297505,-100,4,2,0,10,0,0
298483,-100,4,2,0,5,0,0

[Colours]
Combo1 : 176,57,0
Combo2 : 255,106,34

[HitObjects]
352,336,1418,6,0,L|344:288,15,40,0|0|0|0|0|0|0|0|2|2|2|2|2|0|2|2,0:0|0:0|0:0|0:0|0:0|0:0|0:0|0:0|0:0|0:0|0:0|0:0|0:0|0:0|0:0|0:0,0:0:0:0:
272,352,2723,6,0,P|224:272|400:152,1,320,4|2,0:0|0:0,0:0:0:0:
104,160,3701,1,0,0:0:0:0:
288,240,4027,2,0,P|416:200|464:112,1,240,2|2,0:0|0:0,0:0:0:0:
200,112,5005,1,8,0:0:0:0:
400,240,5331,6,0,L|216:144,1,160,10|0,0:0|0:0,0:0:0:0:
40,200,5983,2,0,L|200:104,1,160,2|0,0:0|0:0,0:0:0:0:
416,296,6636,2,0,P|504:232|376:96,1,320,2|8,0:0|0:0,0:0:0:0:
216,112,7614,1,2,0:0:0:0:
248,96,7695,1,0,0:0:0:0:
280,80,7777,1,0,0:0:0:0:
312,64,7858,1,0,0:0:0:0:
344,48,7940,6,0,P|368:144|216:288,1,320,10|2,0:0|0:0,0:0:0:0:
40,288,8918,1,0,0:0:0:0:
304,320,9244,5,2,0:0:0:0:
150,273,9570,1,0,0:0:0:0:
320,208,9896,1,2,0:0:0:0:
100,169,10222,1,0,0:0:0:0:
384,352,10549,2,0,P|232:120|112:352,1,640,10|0,0:0|0:0,0:0:0:0:
336,272,12994,5,0,0:0:0:0:
208,240,13157,2,0,L|313:338,1,143.999995605469,2|0,0:0|0:0,0:0:0:0:
96,208,13809,2,0,P|6:163|29:66,1,215.999993408203,2|0,0:0|0:0,0:0:0:0:
176,96,14462,6,0,L|32:144,1,143.999995605469,2|0,0:0|0:0,0:0:0:0:
320,192,15114,2,0,P|416:192|464:80,1,215.999993408203,2|2,0:0|0:0,0:0:0:0:
336,80,15766,6,0,L|480:144,1,143.999995605469,2|0,0:0|0:0,0:0:0:0:
256,176,16418,2,0,L|112:208,1,143.999995605469,2|0,0:0|0:0,0:0:0:0:
240,288,16907,2,0,P|336:272|336:144,1,215.999993408203,2|0,0:0|0:0,0:0:0:0:
128,128,17722,2,0,L|272:96,1,143.999995605469,2|0,0:0|0:0,0:0:0:0:
480,192,18375,6,0,L|320:160,1,143.999995605469,2|0,0:0|0:0,0:0:0:0:
80,320,19027,2,0,P|48:240|176:160,1,215.999993408203,2|2,0:0|0:0,0:0:0:0:
240,160,19679,6,0,L|80:112,1,143.999995605469,2|0,0:0|0:0,0:0:0:0:
320,160,20331,2,0,L|464:128,1,143.999995605469,2|0,0:0|0:0,0:0:0:0:
208,224,20983,2,0,P|144:176|288:96,1,287.999991210938,2|0,0:0|0:0,0:0:0:0:
432,64,21962,1,0,0:0:0:0:
304,64,22125,2,0,P|192:80|144:192,1,215.999993408203,2|0,0:0|0:0,0:0:0:0:
368,176,22940,1,2,0:0:0:0:
96,176,23429,5,0,0:0:0:0:
208,112,23592,2,0,L|48:96,1,143.999995605469,2|0,0:0|0:0,0:0:0:0:
272,208,24244,2,0,P|352:176|304:48,1,215.999993408203,2|2,0:0|0:0,0:0:0:0:
176,64,24896,6,0,L|368:48,1,143.999995605469,2|0,0:0|0:0,0:0:0:0:
480,48,25549,2,0,P|496:128|368:208,1,215.999993408203,2|0,0:0|0:0,0:0:0:0:
256,208,26201,6,0,L|416:192,1,143.999995605469,2|0,0:0|0:0,0:0:0:0:
208,112,26853,2,0,L|368:96,1,143.999995605469,2|0,0:0|0:0,0:0:0:0:
240,64,27342,2,0,P|112:128|176:192,1,215.999993408203,2|0,0:0|0:0,0:0:0:0:
320,192,28157,1,2,0:0:0:0:
48,240,28646,5,0,0:0:0:0:
208,224,28809,2,0,L|48:192,1,143.999995605469,2|0,0:0|0:0,0:0:0:0:
288,192,29462,2,0,P|432:144|416:48,1,215.999993408203,2|0,0:0|0:0,0:0:0:0:
304,80,30114,2,0,L|464:64,1,143.999995605469,2|0,0:0|0:0,0:0:0:0:
256,64,30766,2,0,L|112:48,1,143.999995605469,2|0,0:0|0:0,0:0:0:0:
288,160,31418,6,0,P|384:208|384:256,2,143.999995605469,2|2|2,0:0|0:0|0:0,0:0:0:0:
128,240,32396,1,2,0:0:0:0:
320,320,32722,2,2,L|304:272,1,35.9999989013672
16,192,33375,1,0,0:0:0:0:
304,224,34027,6,0,L|160:176,1,143.999995605469,2|0,0:0|0:0,0:0:0:0:
304,272,34679,2,0,P|464:224|464:192,1,215.999993408203,10|2,0:0|0:0,0:0:0:0:
352,192,35331,6,0,L|192:160,1,143.999995605469,2|0,0:0|0:0,0:0:0:0:
384,80,35983,2,0,P|464:144|400:224,1,215.999993408203,10|2,0:0|0:0,0:0:0:0:
304,240,36636,6,0,L|464:176,1,143.999995605469,2|0,0:0|0:0,0:0:0:0:
224,192,37288,2,0,L|64:160,1,143.999995605469,10|0,0:0|0:0,0:0:0:0:
192,128,37777,2,0,P|272:160|240:288,1,215.999993408203,2|0,0:0|0:0,0:0:0:0:
64,256,38592,1,10,0:0:0:0:
288,304,39081,5,0,0:0:0:0:
160,288,39244,2,0,L|320:256,1,143.999995605469,2|0,0:0|0:0,0:0:0:0:
448,272,39896,2,0,P|496:208|368:128,1,215.999993408203,10|2,0:0|0:0,0:0:0:0:
288,112,40549,6,0,L|448:96,1,143.999995605469,2|0,0:0|0:0,0:0:0:0:
272,80,41201,2,0,L|112:64,1,143.999995605469,10|0,0:0|0:0,0:0:0:0:
320,224,41853,2,0,P|400:208|416:128,2,143.999995605469,2|0|10,0:0|0:0|0:0,0:0:0:0:
112,208,42831,1,0,0:0:0:0:
240,256,42994,2,0,P|336:224|320:112,1,215.999993408203,2|0,0:0|0:0,0:0:0:0:
96,128,43809,1,10,0:0:0:0:
384,128,44299,5,0,0:0:0:0:
256,144,44462,2,0,L|384:64,1,143.999995605469,2|0,0:0|0:0,0:0:0:0:
208,64,45114,2,0,P|96:80|48:192,1,215.999993408203,10|0,0:0|0:0,0:0:0:0:
160,176,45766,6,0,L|16:208,1,143.999995605469,2|0,0:0|0:0,0:0:0:0:
240,256,46418,2,0,P|320:240|288:112,1,215.999993408203,10|0,0:0|0:0,0:0:0:0:
144,112,47070,6,0,L|288:96,1,143.999995605469,2|0,0:0|0:0,0:0:0:0:
448,96,47722,2,0,L|304:80,1,143.999995605469,10|0,0:0|0:0,0:0:0:0:
192,64,48212,2,0,P|112:128|192:208,1,215.999993408203,2|0,0:0|0:0,0:0:0:0:
448,208,49027,1,10,0:0:0:0:
96,288,49679,6,0,L|240:272,1,143.999995605469,2|0,0:0|0:0,0:0:0:0:
368,304,50331,2,0,P|432:288|448:192,2,143.999995605469,10|0|2,0:0|0:0|0:0,0:0:0:0:
192,304,51309,1,2,0:0:0:0:
432,288,51636,2,0,L|256:240,1,143.999995605469,8|0,0:0|0:0,0:0:0:0:
80,224,52288,6,0,L|240:176,1,143.999995605469,2|0,0:0|0:0,0:0:0:0:
416,192,52940,1,10,0:0:0:0:
464,128,53103,1,2,0:0:0:0:
432,48,53266,1,10,0:0:0:0:
352,32,53429,1,10,0:0:0:0:
208,144,53592,6,0,L|336:64,1,143.999995605469,2|0,0:0|0:0,0:0:0:0:
496,128,54244,2,0,L|352:64,1,143.999995605469,6|0,0:0|0:0,0:0:0:0:
112,64,54896,6,0,P|80:176|288:224,1,383.99998828125,4|8,0:0|0:0,0:0:0:0:
112,192,55875,1,0,0:0:0:0:
272,160,56201,2,0,L|64:96,1,191.999994140625
288,272,56853,2,0,P|432:224|448:176,1,191.999994140625,8|0,0:0|0:0,0:0:0:0:
352,176,57342,1,0,0:0:0:0:
224,144,57505,6,0,L|416:96,1,191.999994140625,2|0,0:0|0:0,0:0:0:0:
160,112,58157,2,0,L|368:64,1,191.999994140625,8|0,0:0|0:0,0:0:0:0:
144,48,58809,1,0,0:0:0:0:
336,48,59136,2,0,P|432:80|464:160,2,191.999994140625,0|8|0,0:0|0:0|0:0,0:0:0:0:
240,64,59951,1,0,0:0:0:0:
112,144,60114,6,0,L|320:128,1,191.999994140625,2|0,0:0|0:0,0:0:0:0:
480,176,60766,1,8,0:0:0:0:
240,192,61092,2,0,L|128:192,1,95.9999970703126
64,128,61418,2,0,L|272:112,1,191.999994140625
480,208,62070,2,0,L|288:192,1,191.999994140625,8|0,0:0|0:0,0:0:0:0:
192,192,62559,1,0,0:0:0:0:
64,336,62722,6,0,P|32:224|240:128,1,383.99998828125,2|8,0:0|0:0,0:0:0:0:
384,112,63701,2,0,L|144:48,1,191.999994140625,2|2,0:0|0:0,0:0:0:0:
16,96,64353,2,0,L|128:64,2,95.9999970703126,2|2|8,0:0|0:0|0:0,0:0:0:0:
144,128,64842,2,0,L|272:96,1,95.9999970703126
464,80,65331,6,0,L|277:126,1,191.999994140625,4|0,0:0|0:0,0:0:0:0:
464,144,65983,2,0,P|432:256|224:336,1,287.999991210938,8|0,0:0|0:0,0:0:0:0:
160,336,66636,2,0,L|336:256,1,191.999994140625
496,272,67288,2,0,L|304:192,1,191.999994140625,8|0,0:0|0:0,0:0:0:0:
224,176,67777,1,0,0:0:0:0:
128,240,67940,6,0,P|32:192|16:96,2,191.999994140625,2|0|8,0:0|0:0|0:0,0:0:0:0:
320,224,68918,1,0,0:0:0:0:
224,240,69081,1,0,0:0:0:0:
112,224,69244,2,0,L|304:144,1,191.999994140625
496,160,69896,2,0,L|304:80,1,191.999994140625,8|0,0:0|0:0,0:0:0:0:
224,64,70386,1,0,0:0:0:0:
320,160,70549,5,2,0:0:0:0:
192,160,70875,1,0,0:0:0:0:
368,160,71201,1,2,0:0:0:0:
144,160,71527,1,0,0:0:0:0:
416,160,71853,5,2,0:0:0:0:
96,160,72179,1,0,0:0:0:0:
256,160,72505,1,2,0:0:0:0:
448,160,72831,1,8,0:0:0:0:
368,128,72994,1,8,0:0:0:0:
48,128,73157,6,0,P|64:256|288:288,1,320,6|0,0:0|0:0,0:0:0:0:
480,272,74136,2,0,L|384:240,1,80
160,256,74462,2,0,P|64:240|16:176,2,160,10|0|10,0:0|0:0|0:0,0:0:0:0:
240,224,75277,1,0,0:0:0:0:
496,192,75440,2,10,L|400:160,1,80,10|2,0:0|0:0,0:0:0:0:
80,192,75766,6,0,L|272:112,1,200,4|0,0:0|0:0,0:0:0:0:
96,64,76418,1,10,0:0:0:0:
384,112,76744,2,2,L|240:80,1,100
144,80,77070,2,0,P|64:144|112:240,1,200,2|0,0:0|0:0,0:0:0:0:
288,240,77722,1,8,0:0:0:0:
96,272,78049,1,0,0:0:0:0:
352,320,78375,6,2,P|416:288|432:144,1,200
240,160,79027,1,8,0:0:0:0:
480,128,79353,1,0,0:0:0:0:
224,80,79679,2,8,L|112:64,2,100,2|8|2,0:0|0:0|0:0,0:0:0:0:
496,64,80331,1,8,0:0:0:0:
224,192,80657,1,2,0:0:0:0:
336,208,80820,1,2,0:0:0:0:
160,304,80983,6,0,P|64:272|16:160,1,200,2|0,0:0|0:0,0:0:0:0:
288,208,81636,2,0,P|384:144|368:48,1,200,8|0,0:0|0:0,0:0:0:0:
256,64,82125,1,0,0:0:0:0:
144,64,82288,6,0,P|54:100|29:194,2,200,0|0|8,0:0|0:0|0:0,0:0:0:0:
384,144,83266,1,0,0:0:0:0:
144,336,83592,2,0,P|60:284|20:195,1,200,2|2,0:0|0:0,0:0:0:0:
144,192,84081,1,0,0:0:0:0:
320,336,84244,2,0,P|416:272|448:176,1,200,10|2,0:0|0:0,0:0:0:0:
208,192,84896,6,2,L|96:176,2,100,2|10|2,0:0|0:0|0:0,0:0:0:0:
448,128,85549,2,2,L|349:142,1,100,10|2,0:0|0:0,0:0:0:0:
28,115,85875,2,10,L|128:128,1,100
400,304,86201,6,0,P|496:256|432:160,1,200,4|0,0:0|0:0,0:0:0:0:
224,192,86853,1,8,0:0:0:0:
448,144,87179,1,2,0:0:0:0:
352,144,87342,1,2,0:0:0:0:
240,144,87505,2,0,P|160:128|96:32,1,200,2|2,0:0|0:0,0:0:0:0:
368,48,88157,1,8,0:0:0:0:
112,96,88483,1,0,0:0:0:0:
208,128,88646,1,0,0:0:0:0:
336,224,88809,6,0,P|414:165|434:69,1,200,2|2,0:0|0:0,0:0:0:0:
144,224,89462,1,8,0:0:0:0:
352,288,89788,1,0,0:0:0:0:
32,320,90114,2,2,L|144:336,2,100,2|10|2,0:0|0:0|0:0,0:0:0:0:
304,352,90766,2,0,P|400:336|464:224,1,200,8|0,0:0|0:0,0:0:0:0:
352,240,91255,1,0,0:0:0:0:
32,240,91418,6,0,L|224:176,1,200,6|2,0:0|0:0,0:0:0:0:
496,208,92070,2,0,P|480:144|368:80,1,200,8|0,0:0|0:0,0:0:0:0:
80,160,92722,2,0,L|288:112,1,200,2|2,0:0|0:0,0:0:0:0:
32,256,93375,1,8,0:0:0:0:
352,240,93701,2,0,L|224:224,1,100
32,208,94027,6,0,L|240:176,1,200,10|2,0:0|0:0,0:0:0:0:
32,160,94679,1,8,0:0:0:0:
352,144,95005,2,0,L|224:128,2,100,0|8|0,0:0|0:0|0:0,0:0:0:0:
48,144,95657,1,8,0:0:0:0:
384,96,95983,2,2,L|272:128,1,100,10|2,0:0|0:0,0:0:0:0:
32,192,96309,2,2,L|144:224,1,100,10|10,0:0|0:0,0:0:0:0:
480,208,96636,6,0,L|272:256,1,200,4|0,0:0|0:0,0:0:0:0:
464,320,97288,1,8,0:0:0:0:
208,320,97614,1,2,0:0:0:0:
112,304,97777,1,2,0:0:0:0:
272,288,97940,2,0,P|368:272|400:176,1,200
208,208,98592,1,8,0:0:0:0:
496,144,98918,1,2,0:0:0:0:
400,128,99081,1,0,0:0:0:0:
256,112,99244,6,0,P|160:160|144:272,1,200
416,256,99896,1,8,0:0:0:0:
160,304,100222,1,0,0:0:0:0:
416,336,100549,2,2,L|288:320,2,100,2|10|2,0:0|0:0|0:0,0:0:0:0:
96,336,101201,1,8,0:0:0:0:
400,336,101527,2,2,L|288:336,1,100
128,272,101853,6,0,P|48:224|32:96,1,200,2|0,0:0|0:0,0:0:0:0:
256,144,102505,1,8,0:0:0:0:
16,128,102831,2,2,L|128:112,1,100
256,64,103157,2,0,P|384:128|384:192,2,200,0|0|8,0:0|0:0|0:0,0:0:0:0:
32,64,104136,1,2,0:0:0:0:
272,160,104462,5,2,0:0:0:0:
48,224,104788,1,0,0:0:0:0:
320,272,105114,2,0,P|432:240|464:144,1,200,8|0,0:0|0:0,0:0:0:0:
109,129,105766,2,2,L|208:144,2,100,2|10|2,0:0|0:0|0:0,0:0:0:0:
380,147,106418,2,2,L|480:160,1,100,10|2,0:0|0:0,0:0:0:0:
178,177,106744,2,10,L|80:192,1,100
416,208,107070,5,6,0:0:0:0:
192,272,107396,1,0,0:0:0:0:
384,320,107722,2,0,P|480:256|448:160,1,200,8|2,0:0|0:0,0:0:0:0:
256,192,108375,2,0,P|160:160|128:64,2,200,0|2|8,0:0|0:0|0:0,0:0:0:0:
448,160,109353,1,2,0:0:0:0:
352,144,109516,1,2,0:0:0:0:
240,128,109679,6,0,P|128:160|80:256,1,200
352,144,110331,2,0,P|464:192|496:288,1,200,8|2,0:0|0:0,0:0:0:0:
368,272,110820,1,2,0:0:0:0:
240,288,110983,2,0,P|144:256|112:160,2,200,2|0|8,0:0|0:0|0:0,0:0:0:0:
464,304,111962,1,2,0:0:0:0:
368,288,112125,1,2,0:0:0:0:
272,256,112288,5,6,0:0:0:0:
480,240,112614,1,0,0:0:0:0:
176,208,112940,2,0,P|80:176|32:80,1,200,8|0,0:0|0:0,0:0:0:0:
320,80,113592,6,0,P|400:96|496:224,1,200,2|0,0:0|0:0,0:0:0:0:
368,208,114081,1,0,0:0:0:0:
224,224,114244,1,8,0:0:0:0:
448,224,114570,1,2,0:0:0:0:
128,304,114896,6,0,P|128:192|496:336,1,767.999976562501,4|2,0:0|0:0,0:0:0:0:
208,304,116527,1,8,0:0:0:0:
496,288,116853,2,2,L|384:272,2,95.9999970703126,2|10|2,0:0|0:0|0:0,0:0:0:0:
32,192,117505,6,0,L|192:128,1,160,4|0,0:0|0:0,0:0:0:0:
352,96,118157,2,0,P|336:192|208:272,1,240,10|2,0:0|0:0,0:0:0:0:
112,288,118809,6,0,L|272:304,1,160,2|0,0:0|0:0,0:0:0:0:
432,320,119462,2,0,P|496:240|400:160,1,240,10|2,0:0|0:0,0:0:0:0:
304,160,120114,6,0,L|464:128,1,160,2|0,0:0|0:0,0:0:0:0:
224,128,120766,2,0,L|48:112,1,160,10|0,0:0|0:0,0:0:0:0:
144,192,121255,2,0,P|288:160|256:64,1,240,2|0,0:0|0:0,0:0:0:0:
96,80,122070,1,10,0:0:0:0:
304,48,122396,1,0,0:0:0:0:
208,64,122559,1,2,0:0:0:0:
352,112,122722,6,0,L|528:96,1,160,2|0,0:0|0:0,0:0:0:0:
320,176,123375,2,0,L|160:160,1,160,10|2,0:0|0:0,0:0:0:0:
240,128,123864,1,0,0:0:0:0:
320,96,124027,6,0,L|144:80,1,160,2|0,0:0|0:0,0:0:0:0:
352,240,124679,2,0,L|512:224,1,160,10|0,0:0|0:0,0:0:0:0:
224,320,125331,2,0,P|112:288|224:128,1,320,2|8,0:0|0:0,0:0:0:0:
416,112,126309,1,2,0:0:0:0:
288,112,126472,2,0,P|192:128|128:256,1,240,2|0,0:0|0:0,0:0:0:0:
336,240,127288,1,10,0:0:0:0:
16,240,127940,6,0,L|192:224,1,160,2|2,0:0|0:0,0:0:0:0:
368,336,128592,2,0,P|464:288|432:128,1,240,10|0,0:0|0:0,0:0:0:0:
352,160,129244,6,0,L|496:64,1,160,2|2,0:0|0:0,0:0:0:0:
240,176,129896,2,0,P|128:160|80:48,1,240,10|0,0:0|0:0,0:0:0:0:
224,64,130549,5,2,0:0:0:0:
16,112,130875,1,0,0:0:0:0:
272,144,131201,2,0,L|96:176,1,160,10|0,0:0|0:0,0:0:0:0:
256,288,131690,2,0,P|368:272|384:112,1,240,2|0,0:0|0:0,0:0:0:0:
208,144,132505,1,10,0:0:0:0:
416,112,132831,1,0,0:0:0:0:
320,96,132994,1,0,0:0:0:0:
192,80,133157,6,0,L|320:192,1,160,2|2,0:0|0:0,0:0:0:0:
80,224,133809,1,10,0:0:0:0:
272,288,134136,2,0,L|160:288,1,80
64,256,134462,6,0,L|240:240,1,160,2|0,0:0|0:0,0:0:0:0:
384,176,135114,2,0,L|176:192,1,160,10|2,0:0|0:0,0:0:0:0:
336,352,135603,2,0,P|432:320|400:192,1,240,2|0,0:0|0:0,0:0:0:0:
192,208,136418,2,2,L|304:192,2,80,10|2|2,0:0|0:0|0:0,0:0:0:0:
464,160,137070,6,0,L|288:128,1,160,2|0,0:0|0:0,0:0:0:0:
80,160,137722,2,0,L|256:128,1,160,10|4,0:0|0:0,0:0:0:0:
480,96,138375,6,0,P|448:224|352:272,1,191.999994140625,4|0,0:0|0:0,0:0:0:0:
256,240,139027,1,8,0:0:0:0:
464,208,139353,1,0,0:0:0:0:
352,208,139516,2,0,P|224:176|160:32,1,287.999991210938,2|2,0:0|0:0,0:0:0:0:
368,80,140331,1,8,0:0:0:0:
160,64,140657,1,0,0:0:0:0:
256,80,140820,1,0,0:0:0:0:
384,112,140983,6,0,L|176:144,1,191.999994140625,2|2,0:0|0:0,0:0:0:0:
368,208,141636,1,10,0:0:0:0:
112,224,141962,1,0,0:0:0:0:
320,320,142288,2,0,P|432:288|448:208,2,191.999994140625,0|2|8,0:0|0:0|0:0,0:0:0:0:
112,288,143266,2,2,L|240:272,1,95.9999970703126
352,272,143592,6,0,P|464:160|448:128,1,191.999994140625
272,176,144244,1,8,0:0:0:0:
448,128,144570,2,2,L|336:112,1,95.9999970703126
224,96,144896,2,0,P|128:128|80:256,1,191.999994140625
272,224,145549,1,8,0:0:0:0:
48,272,145875,2,2,L|144:288,1,95.9999970703126
272,304,146201,6,0,P|368:288|400:176,2,191.999994140625,2|2|8,0:0|0:0|0:0,0:0:0:0:
48,288,147179,1,0,0:0:0:0:
320,224,147505,2,2,L|208:208,2,95.9999970703126,2|10|2,0:0|0:0|0:0,0:0:0:0:
176,224,147994,2,0,P|112:224|48:96,1,191.999994140625,2|0,0:0|0:0,0:0:0:0:
128,96,148483,1,2,0:0:0:0:
464,160,148809,6,0,P|427:245|338:270,1,191.999994140625,4|0,0:0|0:0,0:0:0:0:
64,128,149462,2,0,P|101:211|192:222,1,191.999994140625,10|0,0:0|0:0,0:0:0:0:
272,160,149951,1,0,0:0:0:0:
352,112,150114,2,0,P|448:160|448:240,1,191.999994140625,2|0,0:0|0:0,0:0:0:0:
208,288,150766,1,8,0:0:0:0:
416,320,151092,2,2,L|304:320,1,95.9999970703126
176,320,151418,6,0,P|80:288|32:176,2,191.999994140625,0|0|8,0:0|0:0|0:0,0:0:0:0:
368,304,152396,2,2,L|240:288,1,95.9999970703126
144,256,152722,2,0,L|336:240,1,191.999994140625
96,160,153375,1,8,0:0:0:0:
320,176,153701,1,0,0:0:0:0:
208,144,153864,1,2,0:0:0:0:
256,128,153945,1,2,0:0:0:0:
304,112,154027,5,8,0:0:0:0:
192,96,154353,1,0,0:0:0:0:
352,96,154679,1,8,0:0:0:0:
176,112,155005,1,0,0:0:0:0:
384,64,155331,1,8,0:0:0:0:
160,128,155657,1,0,0:0:0:0:
416,32,155983,1,8,0:0:0:0:
144,144,156309,1,8,0:0:0:0:
240,128,156472,1,8,0:0:0:0:
496,128,156636,6,0,L|304:96,1,191.999994140625,8|0,0:0|0:0,0:0:0:0:
96,176,157288,2,0,L|304:192,1,191.999994140625,8|0,0:0|0:0,0:0:0:0:
224,160,157777,1,0,0:0:0:0:
48,256,157940,2,0,L|176:272,1,95.9999970703126,8|0,0:0|0:0,0:0:0:0:
400,256,158266,2,0,L|288:272,1,95.9999970703126,0|8,0:0|0:0,0:0:0:0:
80,336,158592,2,0,L|192:352,1,95.9999970703126,8|0,0:0|0:0,0:0:0:0:
400,320,158918,2,8,L|496:336,1,95.9999970703126
176,208,159244,6,0,P|64:160|48:64,1,200,4|2,0:0|0:0,0:0:0:0:
304,112,159896,1,8,0:0:0:0:
48,112,160222,2,2,L|176:96,1,100
272,128,160549,6,0,P|400:96|432:16,1,200
192,48,161201,1,8,0:0:0:0:
448,80,161527,2,2,L|320:96,1,100
224,112,161853,6,0,P|144:224|224:288,1,200
416,256,162505,1,8,0:0:0:0:
144,304,162831,1,2,0:0:0:0:
416,336,163157,2,2,L|304:320,2,100,2|10|2,0:0|0:0|0:0,0:0:0:0:
128,352,163809,2,0,P|48:304|32:192,1,200,8|2,0:0|0:0,0:0:0:0:
144,192,164299,1,2,0:0:0:0:
432,192,164462,6,0,L|224:128,1,200
464,128,165114,1,8,0:0:0:0:
112,128,165440,2,2,L|224:80,1,100
336,192,165766,2,0,P|432:176|432:48,1,200
208,80,166418,1,8,0:0:0:0:
480,48,166744,1,2,0:0:0:0:
192,160,167070,6,0,P|80:192|48:320,1,200,2|2,0:0|0:0,0:0:0:0:
160,272,167559,1,0,0:0:0:0:
304,160,167722,2,0,P|416:208|448:304,1,200,10|2,0:0|0:0,0:0:0:0:
208,304,168375,2,2,L|320:320,2,100,2|10|2,0:0|0:0|0:0,0:0:0:0:
48,272,169027,1,10,0:0:0:0:
144,240,169190,1,2,0:0:0:0:
192,144,169353,1,8,0:0:0:0:
96,96,169516,1,8,0:0:0:0:
368,224,169679,6,0,P|480:176|496:80,1,200,4|0,0:0|0:0,0:0:0:0:
240,112,170331,1,8,0:0:0:0:
480,112,170657,2,2,L|336:96,1,100
256,80,170983,2,0,P|144:112|96:208,1,200,0|2,0:0|0:0,0:0:0:0:
352,224,171636,1,8,0:0:0:0:
144,240,171962,2,2,L|45:225,1,100
176,336,172288,6,0,P|288:288|304:192,1,200,0|2,0:0|0:0,0:0:0:0:
64,176,172940,1,8,0:0:0:0:
368,144,173266,1,2,0:0:0:0:
272,128,173429,1,2,0:0:0:0:
176,112,173592,1,2,0:0:0:0:
464,64,173918,1,2,0:0:0:0:
160,48,174244,2,0,L|32:64,2,100,8|0|0,0:0|0:0|0:0,0:0:0:0:
480,224,174896,6,0,P|448:144|320:96,1,200,0|2,0:0|0:0,0:0:0:0:
80,112,175549,1,8,0:0:0:0:
320,256,175875,2,0,P|416:224|480:80,1,200,2|2,0:0|0:0,0:0:0:0:
128,176,176527,1,2,0:0:0:0:
432,112,176853,1,8,0:0:0:0:
96,128,177179,2,2,L|224:112,1,100
336,112,177505,6,0,P|448:160|480:272,1,200,0|2,0:0|0:0,0:0:0:0:
160,256,178157,1,8,0:0:0:0:
496,288,178483,2,2,L|384:272,1,100
144,272,178809,6,0,P|32:240|16:160,2,200,8|8|2,0:0|0:0|0:0,0:0:0:0:
240,256,179625,1,10,0:0:0:0:
480,208,179788,2,2,L|368:192,1,100,10|10,0:0|0:0,0:0:0:0:
64,160,180114,6,0,L|288:112,1,200,4|2,0:0|0:0,0:0:0:0:
32,96,180766,1,8,0:0:0:0:
304,160,181092,2,2,L|192:144,1,100
320,112,181418,2,0,P|416:128|464:224,1,200,0|2,0:0|0:0,0:0:0:0:
160,256,182070,1,8,0:0:0:0:
480,272,182396,2,2,L|368:256,1,100
256,304,182722,6,0,P|144:256|128:160,2,200,0|2|8,0:0|0:0|0:0,0:0:0:0:
480,304,183701,1,2,0:0:0:0:
144,256,184027,2,2,L|272:240,1,100,2|10,0:0|0:0,0:0:0:0:
368,176,184353,2,0,L|144:160,1,200,0|10,0:0|0:0,0:0:0:0:
480,112,185005,2,2,L|368:112,1,100
208,224,185331,6,0,P|112:192|80:64,1,200,0|2,0:0|0:0,0:0:0:0:
320,112,185983,1,8,0:0:0:0:
32,160,186309,1,2,0:0:0:0:
336,224,186636,2,0,P|448:176|496:80,2,200,0|2|8,0:0|0:0|0:0,0:0:0:0:
64,256,187614,1,0,0:0:0:0:
368,304,187940,6,0,P|464:272|496:176,1,200,2|0,0:0|0:0,0:0:0:0:
400,192,188429,1,0,0:0:0:0:
304,192,188592,2,2,P|224:160|192:48,1,200,10|2,0:0|0:0,0:0:0:0:
448,64,189244,2,0,L|320:48,1,100,0|8,0:0|0:0,0:0:0:0:
144,112,189570,2,0,L|368:112,1,200,2|8,0:0|0:0,0:0:0:0:
416,112,190059,1,2,0:0:0:0:
160,176,190222,2,10,L|32:192,1,100
368,288,190549,6,0,P|480:240|448:160,1,200,4|2,0:0|0:0,0:0:0:0:
192,224,191201,2,0,P|96:208|96:80,1,200,8|2,0:0|0:0,0:0:0:0:
400,128,191853,2,2,L|272:112,2,100,2|10|2,0:0|0:0|0:0,0:0:0:0:
112,64,192505,1,8,0:0:0:0:
384,48,192831,2,2,L|272:64,1,100
48,144,193157,6,0,L|256:160,1,200,0|2,0:0|0:0,0:0:0:0:
32,224,193809,1,8,0:0:0:0:
336,288,194136,1,2,0:0:0:0:
64,320,194462,2,2,L|176:336,2,100,2|10|2,0:0|0:0|0:0,0:0:0:0:
352,224,195114,2,0,L|464:240,1,100,8|0,0:0|0:0,0:0:0:0:
208,176,195440,2,10,L|64:192,1,100
384,320,195766,6,0,P|496:272|480:192,1,200,0|2,0:0|0:0,0:0:0:0:
256,192,196418,1,8,0:0:0:0:
496,144,196744,2,0,L|384:128,1,100
208,128,197070,2,0,P|80:160|64:256,1,200,2|0,0:0|0:0,0:0:0:0:
160,208,197559,1,0,0:0:0:0:
256,192,197722,2,0,P|352:208|400:304,1,200,10|0,0:0|0:0,0:0:0:0:
128,304,198375,6,0,L|336:336,1,160,2|2,0:0|0:0,0:0:0:0:
432,304,199027,2,0,L|240:336,1,160,10|2,0:0|0:0,0:0:0:0:
480,240,199679,6,0,L|352:224,1,80,2|0,0:0|0:0,0:0:0:0:
144,176,200005,2,2,L|48:160,1,80
336,144,200331,2,2,L|448:128,1,80
144,80,200657,2,4,L|16:64,1,80
336,320,200983,6,0,L|512:272,1,160,6|0,0:0|0:0,0:0:0:0:
272,256,201636,1,10,0:0:0:0:
480,224,201962,1,0,0:0:0:0:
208,256,202288,2,0,P|128:224|96:144,2,160,2|0|10,0:0|0:0|0:0,0:0:0:0:
400,176,203266,1,0,0:0:0:0:
128,96,203592,6,0,L|288:160,1,160,2|0,0:0|0:0,0:0:0:0:
432,144,204244,2,0,L|272:208,1,160,10|0,0:0|0:0,0:0:0:0:
496,256,204896,2,0,L|400:256,2,80,0|8|0,0:0|0:0|0:0,0:0:0:0:
256,208,205549,2,0,L|177:194,1,80,8|0,0:0|0:0,0:0:0:0:
80,96,205875,2,8,L|208:112,1,80
272,96,206201,6,0,P|368:144|368:224,2,160,2|2|8,0:0|0:0|0:0,0:0:0:0:
80,304,207179,1,0,0:0:0:0:
336,336,207505,1,2,0:0:0:0:
112,272,207831,2,0,L|224:256,1,80
320,256,208157,2,8,P|432:208|432:160,2,160,10|2|0,0:0|0:0|0:0,0:0:0:0:
144,160,209136,5,0,0:0:0:0:
496,160,209462,1,8,0:0:0:0:
224,192,209788,2,0,L|336:176,1,80
480,160,210114,2,10,L|368:144,1,80
96,128,210440,1,0,0:0:0:0:
352,112,210766,2,8,L|432:96,1,80
192,64,211092,2,10,L|96:48,1,80
400,48,211418,6,0,P|448:160|288:240,1,320,6|10,0:0|0:0,0:0:0:0:
80,304,212396,2,0,L|192:320,1,80
320,320,212722,6,2,P|432:272|336:128,1,320,2|10,0:0|0:0,0:0:0:0:
80,128,213701,2,0,L|159:116,1,80
304,256,214027,6,0,P|416:224|352:64,1,320,2|10,0:0|0:0,0:0:0:0:
160,64,215005,2,0,L|256:80,1,80
416,64,215331,6,0,P|464:160|320:272,1,320,2|10,0:0|0:0,0:0:0:0:
176,304,216309,1,0,0:0:0:0:
272,288,216472,1,8,0:0:0:0:
128,288,216636,6,0,P|16:208|64:144,1,200,2|0,0:0|0:0,0:0:0:0:
112,160,217125,1,0,0:0:0:0:
272,144,217288,5,10,0:0:0:0:
144,96,217505,1,0,0:0:0:0:
288,96,217722,1,0,0:0:0:0:
128,144,217940,5,2,0:0:0:0:
304,48,218157,1,0,0:0:0:0:
112,192,218375,1,0,0:0:0:0:
336,96,218592,5,10,0:0:0:0:
32,160,218809,1,0,0:0:0:0:
368,144,219027,1,0,0:0:0:0:
64,112,219244,2,0,P|48:256|416:112,1,800,2|2,0:0|0:0,0:0:0:0:
144,144,220875,1,8,0:0:0:0:
352,224,221201,2,8,P|448:176|464:96,1,191.999994140625,8|4,0:0|0:0,0:0:0:0:
384,80,221690,1,2,0:0:0:0:
192,144,221853,6,0,P|80:112|64:32,1,191.999994140625,8|0,0:0|0:0,0:0:0:0:
288,144,222505,2,0,P|400:112|416:32,1,191.999994140625,8|0,0:0|0:0,0:0:0:0:
320,32,222994,1,0,0:0:0:0:
80,128,223157,2,0,L|192:64,1,95.9999970703126,8|0,0:0|0:0,0:0:0:0:
464,176,223483,2,0,L|368:128,1,95.9999970703126,8|8,0:0|0:0,0:0:0:0:
176,336,223809,5,8,0:0:0:0:
112,320,223891,1,0,0:0:0:0:
64,288,223972,1,0,0:0:0:0:
32,240,224054,1,0,0:0:0:0:
16,192,224136,1,2,0:0:0:0:
32,144,224217,1,2,0:0:0:0:
64,96,224299,1,2,0:0:0:0:
112,64,224380,1,2,0:0:0:0:
480,208,224462,6,0,P|464:128|352:96,1,200,6|2,0:0|0:0,0:0:0:0:
112,112,225114,1,8,0:0:0:0:
384,192,225440,2,0,L|240:208,1,100,0|2,0:0|0:0,0:0:0:0:
160,224,225766,2,0,P|48:192|16:96,2,200,0|2|8,0:0|0:0|0:0,0:0:0:0:
400,256,226744,1,2,0:0:0:0:
176,304,227070,6,0,P|80:272|48:176,1,200,0|2,0:0|0:0,0:0:0:0:
336,224,227722,2,0,P|432:176|432:80,1,200,8|2,0:0|0:0,0:0:0:0:
80,96,228375,2,2,L|208:112,2,100,2|10|2,0:0|0:0|0:0,0:0:0:0:
432,112,229027,1,8,0:0:0:0:
128,256,229353,2,2,L|240:272,1,100
352,272,229679,6,0,P|432:240|432:112,1,200,2|2,0:0|0:0,0:0:0:0:
160,176,230331,1,8,0:0:0:0:
464,208,230657,1,2,0:0:0:0:
192,240,230983,2,0,P|96:224|48:112,2,200,0|2|8,0:0|0:0|0:0,0:0:0:0:
496,160,231962,2,2,L|384:144,1,100
224,128,232288,6,0,P|144:144|112:272,1,200,2|0,0:0|0:0,0:0:0:0:
208,256,232777,1,2,0:0:0:0:
336,256,232940,2,0,P|416:208|416:96,1,200,8|0,0:0|0:0,0:0:0:0:
336,96,233429,1,2,0:0:0:0:
64,96,233592,2,2,L|192:80,2,100,2|10|2,0:0|0:0|0:0,0:0:0:0:
320,144,234244,2,2,L|448:112,1,100,10|2,0:0|0:0,0:0:0:0:
128,192,234570,2,10,L|16:176,1,100
352,320,234896,6,0,P|464:288|480:176,1,200,6|2,0:0|0:0,0:0:0:0:
224,192,235549,1,8,0:0:0:0:
496,160,235875,2,2,L|384:144,1,100
240,128,236201,2,0,P|144:144|96:240,2,200,2|2|8,0:0|0:0|0:0,0:0:0:0:
464,128,237179,2,2,L|336:112,1,100
160,192,237505,6,0,P|64:160|32:48,1,200,0|2,0:0|0:0,0:0:0:0:
336,96,238157,1,8,0:0:0:0:
64,240,238483,1,2,0:0:0:0:
304,272,238809,2,2,L|416:288,2,100,2|10|2,0:0|0:0|0:0,0:0:0:0:
32,336,239462,1,8,0:0:0:0:
336,304,239788,2,2,L|237:318,1,100
416,304,240114,6,0,P|496:224|448:144,1,200,0|2,0:0|0:0,0:0:0:0:
192,176,240766,1,8,0:0:0:0:
496,128,241092,1,2,0:0:0:0:
160,240,241418,2,0,P|48:192|48:80,2,200,2|2|10,0:0|0:0|0:0,0:0:0:0:
256,224,242233,1,0,0:0:0:0:
496,208,242396,2,2,L|368:176,1,100
80,160,242722,5,8,0:0:0:0:
336,112,243049,1,2,0:0:0:0:
48,112,243375,2,0,L|192:80,1,100,8|0,0:0|0:0,0:0:0:0:
384,80,243701,2,8,L|496:64,1,100
160,128,244027,6,0,P|64:144|16:240,2,200,4|2|10,0:0|0:0|0:0,0:0:0:0:
272,144,244842,1,10,0:0:0:0:
496,224,245005,2,2,L|368:240,1,100,10|2,0:0|0:0,0:0:0:0:
144,272,245331,6,0,P|64:240|16:112,1,200,6|2,0:0|0:0,0:0:0:0:
320,176,245983,1,8,0:0:0:0:
32,208,246309,2,2,L|144:192,1,100
272,256,246636,2,0,P|384:224|416:128,2,200,2|2|8,0:0|0:0|0:0,0:0:0:0:
32,272,247614,1,2,0:0:0:0:
336,224,247940,1,0,0:0:0:0:
15,77,248266,6,0,P|54:167|144:208,1,200,2|8,0:0|0:0,0:0:0:0:
416,96,248918,1,2,0:0:0:0:
80,128,249244,2,2,L|208:144,2,100,2|10|2,0:0|0:0|0:0,0:0:0:0:
352,208,249896,2,2,L|208:192,1,100,10|2,0:0|0:0,0:0:0:0:
16,240,250222,2,2,L|128:224,1,100
368,336,250549,6,0,P|464:272|400:192,1,200,2|2,0:0|0:0,0:0:0:0:
176,192,251201,1,8,0:0:0:0:
480,160,251527,2,2,L|352:144,1,100
128,224,251853,2,0,P|32:176|32:80,1,200,0|2,0:0|0:0,0:0:0:0:
384,64,252505,1,8,0:0:0:0:
64,80,252831,2,2,L|176:64,1,100,2|10,0:0|0:0,0:0:0:0:
368,112,253157,5,6,0:0:0:0:
176,160,253483,1,0,0:0:0:0:
256,176,253646,1,0,0:0:0:0:
208,192,253728,1,0,0:0:0:0:
160,208,253809,1,8,0:0:0:0:
352,240,253972,2,0,L|464:224,2,100,0|8|0,0:0|0:0|0:0,0:0:0:0:
64,272,254462,2,0,L|192:288,1,100,8|8,0:0|0:0,0:0:0:0:
400,336,254788,6,0,P|480:288|432:192,1,200,12|8,0:0|0:0,0:0:0:0:
384,176,255195,1,8,0:0:0:0:
320,144,255277,1,8,0:0:0:0:
48,144,255440,2,0,L|160:112,1,100,8|8,0:0|0:0,0:0:0:0:
400,192,255766,6,0,P|496:112|432:64,1,200,6|0,0:0|0:0,0:0:0:0:
176,96,256418,1,8,0:0:0:0:
496,128,256744,2,2,L|368:96,1,100
256,96,257070,2,0,P|128:128|96:208,1,200,0|2,0:0|0:0,0:0:0:0:
416,192,257722,1,8,0:0:0:0:
160,240,258049,2,2,L|304:224,1,100
384,272,258375,6,0,P|480:240|480:144,1,200,0|2,0:0|0:0,0:0:0:0:
176,144,259027,1,8,0:0:0:0:
480,112,259353,1,2,0:0:0:0:
160,96,259679,2,2,L|272:112,2,100,2|10|2,0:0|0:0|0:0,0:0:0:0:
448,208,260331,1,8,0:0:0:0:
96,240,260657,2,2,L|208:256,1,100
416,320,260983,6,0,P|464:224|384:144,1,200,4|2,0:0|0:0,0:0:0:0:
224,160,261636,1,8,0:0:0:0:
480,144,261962,2,2,L|368:128,1,100
224,112,262288,6,0,P|96:128|64:224,1,200,0|2,0:0|0:0,0:0:0:0:
144,224,262777,1,0,0:0:0:0:
288,208,262940,1,8,0:0:0:0:
96,288,263266,1,0,0:0:0:0:
320,336,263592,6,0,P|432:288|464:192,2,200,2|2|10,0:0|0:0|0:0,0:0:0:0:
64,320,264570,1,2,0:0:0:0:
176,304,264733,1,2,0:0:0:0:
400,288,264896,2,0,P|496:240|480:160,1,200,8|0,0:0|0:0,0:0:0:0:
432,160,265304,1,2,0:0:0:0:
384,144,265386,1,8,0:0:0:0:
80,160,265549,6,10,L|192:128,1,100
496,112,265875,2,8,L|368:80,1,100
336,80,266119,1,2,0:0:0:0:
32,64,266201,6,0,P|64:256|528:32,1,960,2|0,0:0|0:0,0:0:0:0:
288,48,268483,1,4,0:0:0:0:
480,64,268809,2,0,P|448:256|-16:32,1,960,4|0,0:0|0:0,0:0:0:0:
224,48,271092,1,4,0:0:0:0:
32,64,271418,6,4,L|48:112,1,40,4|2,0:0|0:0,0:0:0:0:
480,128,272559,2,2,L|448:176,2,40
160,320,274027,5,2,0:0:0:0:
352,320,274353,1,0,0:0:0:0:
160,288,274679,1,2,0:0:0:0:
352,288,275005,1,0,0:0:0:0:
160,256,275331,1,2,0:0:0:0:
464,176,275657,2,0,P|403:248|311:263,1,191.999994140625,4|2,0:0|0:0,0:0:0:0:
32,144,276309,2,8,L|144:128,1,95.9999970703126
496,160,276636,6,0,P|464:272|352:304,1,200,4|2,0:0|0:0,0:0:0:0:
128,288,277288,1,8,0:0:0:0:
448,272,277614,1,2,0:0:0:0:
208,192,277940,2,0,P|96:160|96:32,1,200,0|2,0:0|0:0,0:0:0:0:
176,80,278429,1,2,0:0:0:0:
320,160,278592,2,0,P|448:128|464:32,1,200,8|0,0:0|0:0,0:0:0:0:
224,160,279244,6,0,P|112:128|80:32,2,200,2|0|8,0:0|0:0|0:0,0:0:0:0:
448,144,280222,1,2,0:0:0:0:
192,224,280549,1,0,0:0:0:0:
384,272,280875,2,2,L|272:256,1,100
160,288,281201,2,0,P|64:240|32:144,1,200,10|2,0:0|0:0,0:0:0:0:
80,128,281608,1,2,0:0:0:0:
128,96,281690,1,2,0:0:0:0:
176,64,281771,1,2,0:0:0:0:
352,160,281853,6,0,P|448:144|464:32,1,200,4|2,0:0|0:0,0:0:0:0:
272,224,282505,2,0,P|160:176|144:80,1,200,8|2,0:0|0:0,0:0:0:0:
448,112,283157,6,0,L|480:48,1,50,2|0,0:0|0:0,0:0:0:0:
240,144,283483,2,0,L|208:64,1,50,2|0,0:0|0:0,0:0:0:0:
448,224,283809,2,0,L|480:144,1,50,8|0,0:0|0:0,0:0:0:0:
240,240,284136,2,0,L|208:176,1,50,2|0,0:0|0:0,0:0:0:0:
448,336,284462,6,0,P|496:240|96:368,1,1120,4|0,0:0|0:0,0:0:0:0:
256,320,287070,6,0,L|112:192,3,160,2|0|2|0,0:0|0:0|0:0|0:0,0:0:0:0:
320,256,288375,2,0,L|432:128,3,160,2|0|2|0,0:0|0:0|0:0|0:0,0:0:0:0:
240,176,289679,6,0,L|80:112,3,160,2|0|2|0,0:0|0:0|0:0|0:0,0:0:0:0:
304,96,290983,2,0,L|496:48,3,160,2|0|0|0,0:0|0:0|0:0|0:0,0:0:0:0:
256,192,292288,8,0,300766,0:0:0:0:
