osu file format v9

[General]
AudioFilename: Kimi to Boku OP by 7th - Bye-Bye.mp3
AudioLeadIn: 0
PreviewTime: 59083
Countdown: 0
SampleSet: Soft
StackLeniency: 0.7
Mode: 0
LetterboxInBreaks: 0

[Editor]
DistanceSpacing: 0.8
BeatDivisor: 4
GridSize: 4

[Metadata]
Title:Bye Bye (TV Size)
Artist:7!!
Creator:tutuhaha
Version:Normal
Source:Kimi to Boku
Tags:seven oops opening

[Difficulty]
HPDrainRate:3
CircleSize:3
OverallDifficulty:3
ApproachRate:4
SliderMultiplier:1.6
SliderTickRate:1

[Events]
//Background and Video events
0,0,"KimiToBoku.jpg"
Video,0,"OP.flv"
//Break Periods
//Storyboard Layer 0 (Background)
//Storyboard Layer 1 (Fail)
//Storyboard Layer 2 (Pass)
//Storyboard Layer 3 (Foreground)
//Storyboard Sound Samples
//Background Colour Transformations
3,100,163,162,255

[TimingPoints]
14795,461.538461538462,4,2,0,40,1,0
22179,-100,4,2,0,50,0,0
28179,-100,4,2,0,60,0,0
29092,461.538461538462,4,1,1,40,1,0
29545,461.538461538462,4,1,2,50,1,0
44314,-100,4,1,1,50,0,0
47198,-100,4,1,0,50,0,0
47429,-100,4,1,1,50,0,0
55391,-100,4,1,2,50,0,0
59083,-100,4,1,0,70,0,1
73852,-100,4,1,0,70,0,0
79852,-100,4,1,2,70,0,0
81237,-100,4,1,0,60,0,0
84006,-100,4,1,1,60,0,0
84468,-100,4,1,0,60,0,0
84929,-100,4,1,0,70,0,1
89083,-100,4,1,2,70,0,1
89314,-100,4,1,0,70,0,1
96468,-100,4,1,2,70,0,1
96698,-100,4,1,2,70,0,1
99698,-100,4,1,0,70,0,0
105698,-100,4,1,2,70,0,0
105929,-100,4,1,0,70,0,0
110775,-100,4,2,0,50,0,0
110891,-100,4,2,0,40,0,0

[Colours]
Combo1 : 255,164,209
Combo2 : 151,251,191
Combo3 : 141,206,254
Combo4 : 247,254,158
SliderBorder : 255,255,255

[HitObjects]
92,112,14794,2,0,B|96:204|184:256,1,160,0|2
216,128,15718,1,0
328,68,16179,1,2
388,180,16641,2,0,B|384:272|296:324,1,160,0|2
184,316,17564,2,0,B|88:316,2,80,0|0|2
128,200,18487,6,0,B|68:136|72:40,1,160,0|2
196,76,19410,2,0,B|256:140|256:240,1,160,0|2
380,192,20333,1,0
464,288,20795,1,2
348,336,21256,2,0,B|176:336,1,160,0|2
136,220,22179,6,0,B|116:132|32:96,1,160,0|2
152,40,23102,1,0
256,116,23564,1,2
360,40,24025,1,0
472,104,24487,1,2
380,192,24948,2,0,B|380:296,2,80,0|0|2
292,284,25871,5,0
176,336,26333,1,2
60,280,26795,1,0
56,152,27256,1,2
176,192,27718,2,0,B|348:192,1,160,0|2
336,64,28641,1,0
212,48,29092,1,8
104,112,29545,5,4
64,232,30006,1,8
188,208,30468,2,0,B|276:232|308:324,1,160,0|8
424,268,31391,2,0,B|464:192|420:112,2,160,0|8|0
320,192,32775,1,8
256,80,33237,6,0,B|116:84|52:208,1,240,0|0
112,228,34160,2,0,B|204:260|228:344,1,160,0|8
348,304,35083,1,0
444,216,35545,1,8
400,96,36006,2,0,B|232:96,2,160,0|8|0
336,208,37391,1,8
260,312,37852,6,0,B|92:312,1,160,0|8
52,192,38775,2,0,B|108:136|212:136,1,160,0|8
312,192,39698,2,0,B|401:192|457:136,2,160,0|8|0
208,268,41083,1,8
92,324,41545,5,0
80,196,42006,1,8
100,68,42468,2,0,B|228:96|288:220,1,240
312,268,43391,2,0,B|380:320|472:312,1,160,0|8
420,192,44314,5,4
420,64,44775,1,8
312,132,45237,2,0,B|220:152|140:88,1,160,0|8
56,176,46160,2,0,B|104:272|176:304,1,160,0|8
220,276,46852,2,0,B|324:316|464:276,1,240
448,152,48006,6,0,B|372:56|236:48,1,240
204,100,48929,2,0,B|148:172|40:168,1,160,0|8
60,296,49852,1,0
168,228,50314,1,8
256,320,50775,1,0
344,228,51237,1,8
452,296,51698,6,0,B|504:176|448:64,1,240
388,40,52621,2,0,B|336:108|240:108,1,160,0|8
128,68,53545,2,0,B|128:236,1,160,0|8
256,232,54468,2,0,B|416:232,1,160,0|8
408,360,55391,6,0,B|320:308|188:312|100:360,1,320,4|4
56,240,56775,2,0,B|56:136,2,80,8|0|4
176,192,57698,2,0,B|364:192,1,160,0|4
116,48,59083,6,0,B|232:8|372:52,2,240,8|0|8
24,140,60929,2,0,B|156:152|232:276,2,240,8|0|8
52,264,62775,5,0
144,352,63237,1,8
272,356,63698,1,0
388,296,64160,2,0,B|480:148,1,160,8|0
428,40,65083,2,0,B|343:175,1,160,8|0
216,172,66006,1,8
156,60,66468,6,0,B|40:112|12:252,2,240,8|0|8
284,60,68314,2,0,B|452:60,1,160,0|8
456,188,69237,2,0,B|456:360,1,160,0|8
344,288,70160,5,0
256,196,70621,1,8
164,284,71083,2,0,B|164:184,2,80,0|0|8
40,248,72006,2,0,B|24:168|44:80,1,160,0|8
160,44,72929,2,0,B|256:44,2,80,0|0|8
256,132,73852,6,0,B|316:248|452:272,2,240,8|0|8
140,192,75698,2,0,B|68:248|72:336,2,160,0|8|0
84,76,77083,1,8
208,44,77544,5,0
336,44,78006,2,0,B|504:44,1,160,8|0
452,164,78929,1,8
416,288,79391,2,0,B|284:264|184:356,1,240
128,352,80314,2,0,B|40:336|20:240,1,160,0|8
20,120,81237,6,0,B|196:120,1,160,4|8
280,40,82160,2,0,B|368:40|448:120,1,160,0|8
484,212,83083,2,0,B|400:296|252:300,1,240,4|0
212,336,84006,2,0,B|180:216|32:168,1,240,8|8
48,108,84929,6,0,B|104:48|200:36,1,160,4|8
256,148,85852,1,0
320,40,86314,1,8
420,120,86775,2,0,B|420:208|492:284,1,160,0|8
364,328,87698,2,0,B|264:328,2,80,0|0|8
272,240,88621,6,0,B|184:144|48:144,1,240
60,80,89544,2,0,B|136:32|224:40,1,160,0|8
340,52,90468,1,0
448,120,90929,1,8
344,192,91391,2,0,B|344:280,2,80,0|0|8
216,192,92314,6,0,B|140:296|12:312,2,240,8|0|8
144,88,94160,2,0,B|312:88,1,160,0|8
380,192,95083,2,0,B|496:192,2,80,0|0|8
340,312,96006,6,0,B|260:216|104:208,1,240
68,228,96929,2,0,B|4:168|24:72,1,160,0|8
144,44,97852,2,0,B|252:44,2,80,0|0|8
232,136,98775,2,0,B|328:136,2,80,0|0|8
132,216,99698,6,0,B|204:320|356:332|352:332,2,240,8|0|8
80,100,101544,1,0
192,36,102006,1,8
256,148,102468,1,0
320,36,102929,1,8
432,100,103391,6,0,B|432:264,1,160,0|8
320,324,104314,2,0,B|152:324,1,160,0|8
48,264,105237,2,0,B|72:136|200:88,1,240,0|0
256,116,106160,2,0,B|304:192|408:192,1,160,0|8
372,64,107083,5,4
372,320,108006,1,4
256,264,108468,2,0,B|168:264,2,80,8|0|4
256,136,109391,1,8
144,76,109852,6,0,B|44:144|24:280,1,240,4|0
72,320,110775,1,4
256,192,110891,12,0,114006
