osu file format v12

[General]
AudioFilename: 7 oops bye bye [kimi to boku op] - [MP3JUICES.COM].mp3
AudioLeadIn: 2000
PreviewTime: 33804
Countdown: 0
SampleSet: Soft
StackLeniency: 0.7
Mode: 3
LetterboxInBreaks: 0
SpecialStyle: 0
WidescreenStoryboard: 1

[Editor]
Bookmarks: 4266,19035,33804,48574,59650,74420,85497
DistanceSpacing: 0.8
BeatDivisor: 2
GridSize: 32
TimelineZoom: 1.1

[Metadata]
Title:Bye Bye (TV Size)
TitleUnicode:Bye Bye (TV Size)
Artist:7!!
ArtistUnicode:7!!
Creator:mingmichael
Version:EZ
Source:Kimi to Boku
Tags:seven oops opening
BeatmapID:419597
BeatmapSetID:173010

[Difficulty]
HPDrainRate:7
CircleSize:7
OverallDifficulty:6
ApproachRate:8
SliderMultiplier:1.4
SliderTickRate:1

[Events]
//Background and Video events
0,0,"kimi to boku osu.jpg",0,0
//Break Periods
//Storyboard Layer 0 (Background)
//Storyboard Layer 1 (Fail)
//Storyboard Layer 2 (Pass)
//Storyboard Layer 3 (Foreground)
//Storyboard Sound Samples
//Background Colour Transformations
3,100,163,162,255

[TimingPoints]
574,461.538461538462,4,2,1,90,1,0
3804,-100,4,2,1,60,0,0
4150,-100,4,2,1,90,0,0
4266,-100,4,2,1,50,0,0
4381,-100,4,2,1,30,0,0
19035,-100,4,2,1,60,0,0
31958,-100,4,1,0,40,0,0
32881,-100,4,2,1,60,0,0
33804,-100,4,2,2,100,0,1
56650,-100,4,2,1,70,0,1
57112,-100,4,2,1,70,0,1
57804,-100,4,2,2,70,0,0
58266,-100,4,2,2,90,0,0
59650,-100,4,2,2,100,0,1
82497,-100,4,2,1,70,0,1
83650,-100,4,2,2,100,0,0
85497,-100,4,2,2,60,0,0

[HitObjects]
402,192,574,5,2,0:0:0:0:
182,192,574,1,4,0:0:0:0:
36,192,1035,1,0,0:0:0:0:
256,192,1035,1,8,0:0:0:0:
182,192,1497,1,2,0:0:0:0:
402,192,1497,1,0,0:0:0:0:
109,192,1958,1,8,0:0:0:0:
475,192,2189,1,0,0:0:0:0:
329,192,2189,1,0,0:0:0:0:
402,192,2650,1,0,0:0:0:0:
182,192,2881,1,8,0:0:0:0:
36,192,2881,1,0,0:0:0:0:
329,192,3343,1,2,0:0:0:0:
475,192,3343,1,0,0:0:0:0:
182,192,3804,1,0,0:0:0:0:
329,192,3804,1,8,0:0:0:0:
36,192,4266,128,2,6112:0:0:0:0:
256,192,4266,1,4,0:0:0:0:
329,192,6112,1,2,0:0:0:0:
182,192,6574,1,2,0:0:0:0:
402,192,7035,1,2,0:0:0:0:
109,192,7497,1,2,0:0:0:0:
475,192,7958,128,0,9804:0:0:0:0:
256,192,7958,1,2,0:0:0:0:
36,192,9804,1,0,0:0:0:0:
402,192,10266,1,2,0:0:0:0:
109,192,10727,1,2,0:0:0:0:
329,192,11189,1,2,0:0:0:0:
182,192,11650,128,0,13035:0:0:0:0:
402,192,11650,1,2,0:0:0:0:
402,192,13035,1,2,0:0:0:0:
109,192,13497,1,2,0:0:0:0:
329,192,13497,128,0,14881:0:0:0:0:
109,192,14881,1,2,0:0:0:0:
256,192,15343,128,0,16727:0:0:0:0:
475,192,15343,1,2,0:0:0:0:
36,192,16727,1,2,0:0:0:0:
402,192,17189,1,0,0:0:0:0:
109,192,17650,1,2,0:0:0:0:
329,192,18112,1,0,0:0:0:0:
182,192,18574,1,2,0:0:0:0:
329,192,19035,1,2,0:0:0:0:
36,192,19497,1,0,0:0:0:0:
182,192,19497,1,8,0:0:0:0:
329,192,19958,1,2,0:0:0:0:
256,192,20420,1,8,0:0:0:0:
109,192,20420,1,0,0:0:0:0:
182,192,20881,1,2,0:0:0:0:
329,192,21343,1,8,0:0:0:0:
475,192,21343,1,0,0:0:0:0:
182,192,21804,1,2,0:0:0:0:
256,192,22266,1,8,0:0:0:0:
402,192,22266,1,0,0:0:0:0:
109,192,22727,1,2,0:0:0:0:
329,192,23189,1,8,0:0:0:0:
475,192,23189,1,0,0:0:0:0:
182,192,23650,1,2,0:0:0:0:
109,192,24112,1,0,0:0:0:0:
329,192,24112,1,8,0:0:0:0:
402,192,24574,1,2,0:0:0:0:
182,192,25035,1,8,0:0:0:0:
36,192,25035,1,0,0:0:0:0:
329,192,25497,1,2,0:0:0:0:
402,192,25958,1,0,0:0:0:0:
182,192,25958,1,8,0:0:0:0:
329,192,26420,1,2,0:0:0:0:
256,192,26881,1,8,0:0:0:0:
402,192,26881,1,0,0:0:0:0:
329,192,27343,1,2,0:0:0:0:
475,192,27804,1,0,0:0:0:0:
256,192,27804,1,8,0:0:0:0:
182,192,28266,1,2,0:0:0:0:
109,192,28727,1,0,0:0:0:0:
256,192,28727,1,8,0:0:0:0:
182,192,29189,1,2,0:0:0:0:
256,192,29650,1,8,0:0:0:0:
36,192,29650,1,0,0:0:0:0:
109,192,30112,1,2,0:0:0:0:
475,192,30574,1,0,0:0:0:0:
329,192,30574,1,8,0:0:0:0:
182,192,31035,1,2,0:0:0:0:
256,192,31497,1,8,0:0:0:0:
402,192,31497,1,0,0:0:0:0:
109,192,31958,128,0,32881:0:0:0:0:
329,192,32881,1,4,0:0:0:0:
256,192,33804,1,2,0:0:0:0:
36,192,33804,1,4,0:0:0:0:
475,192,34266,1,8,0:0:0:0:
182,192,34497,1,0,0:0:0:0:
402,192,34727,1,2,0:0:0:0:
109,192,35189,1,8,0:0:0:0:
475,192,35650,1,2,0:0:0:0:
182,192,36112,1,8,0:0:0:0:
329,192,36343,1,0,0:0:0:0:
109,192,36574,1,2,0:0:0:0:
402,192,37035,1,8,0:0:0:0:
36,192,37497,1,2,0:0:0:0:
182,192,37958,1,8,0:0:0:0:
402,192,38189,1,0,0:0:0:0:
329,192,38420,1,2,0:0:0:0:
109,192,38650,1,0,0:0:0:0:
182,192,38881,1,8,0:0:0:0:
402,192,39112,1,0,0:0:0:0:
329,192,39343,1,2,0:0:0:0:
109,192,39343,1,0,0:0:0:0:
36,192,39804,1,0,0:0:0:0:
256,192,39804,1,8,0:0:0:0:
109,192,40266,1,0,0:0:0:0:
329,192,40266,1,2,0:0:0:0:
182,192,40727,1,0,0:0:0:0:
402,192,40727,1,8,0:0:0:0:
256,192,41189,1,2,0:0:0:0:
475,192,41189,1,4,0:0:0:0:
109,192,41650,1,8,0:0:0:0:
402,192,41881,1,0,0:0:0:0:
256,192,42112,1,2,0:0:0:0:
402,192,42574,1,8,0:0:0:0:
109,192,42804,1,0,0:0:0:0:
256,192,43035,1,2,0:0:0:0:
402,192,43266,1,0,0:0:0:0:
182,192,43497,1,8,0:0:0:0:
329,192,43727,1,0,0:0:0:0:
109,192,43958,1,2,0:0:0:0:
402,192,44420,1,8,0:0:0:0:
256,192,44650,1,0,0:0:0:0:
109,192,44881,1,2,0:0:0:0:
475,192,45343,1,8,0:0:0:0:
182,192,45804,1,2,0:0:0:0:
402,192,46035,1,0,0:0:0:0:
109,192,46266,1,8,0:0:0:0:
256,192,46497,1,0,0:0:0:0:
182,192,46727,1,0,0:0:0:0:
329,192,46727,1,2,0:0:0:0:
109,192,47189,1,0,0:0:0:0:
256,192,47189,1,8,0:0:0:0:
182,192,47650,1,0,0:0:0:0:
329,192,47650,1,2,0:0:0:0:
256,192,48112,1,0,0:0:0:0:
402,192,48112,1,8,0:0:0:0:
329,192,48574,1,2,0:0:0:0:
475,192,48574,1,4,0:0:0:0:
182,192,49035,1,8,0:0:0:0:
402,192,49266,1,0,0:0:0:0:
109,192,49497,1,2,0:0:0:0:
329,192,49958,1,8,0:0:0:0:
109,192,50189,1,0,0:0:0:0:
402,192,50420,1,2,0:0:0:0:
329,192,50650,1,0,0:0:0:0:
109,192,50881,1,8,0:0:0:0:
182,192,51112,1,0,0:0:0:0:
329,192,51343,1,2,0:0:0:0:
475,192,51804,1,8,0:0:0:0:
182,192,52035,1,0,0:0:0:0:
402,192,52266,1,2,0:0:0:0:
36,192,52727,1,8,0:0:0:0:
329,192,52958,1,0,0:0:0:0:
109,192,53189,1,2,0:0:0:0:
182,192,53420,1,0,0:0:0:0:
402,192,53650,1,8,0:0:0:0:
329,192,53881,1,0,0:0:0:0:
36,192,54112,1,0,0:0:0:0:
182,192,54112,1,2,0:0:0:0:
109,192,54574,1,8,0:0:0:0:
256,192,54574,1,0,0:0:0:0:
182,192,55035,1,2,0:0:0:0:
329,192,55035,1,0,0:0:0:0:
256,192,55497,1,8,0:0:0:0:
402,192,55497,1,0,0:0:0:0:
329,192,55958,1,2,0:0:0:0:
475,192,55958,1,4,0:0:0:0:
256,192,56420,1,8,0:0:0:0:
36,192,56650,1,8,0:0:0:0:
329,192,56881,1,8,0:0:0:0:
109,192,57112,1,8,0:0:0:0:
402,192,57343,1,2,0:0:0:0:
182,192,57574,1,2,0:0:0:0:
36,192,57804,1,4,0:0:0:0:
475,192,57804,128,0,58266:0:0:0:0:
329,192,58727,1,12,0:0:0:0:
329,192,59074,1,12,0:0:0:0:
182,192,59420,1,12,0:0:0:0:
182,192,59650,1,4,0:0:0:0:
329,192,59650,1,2,0:0:0:0:
402,192,60112,1,8,0:0:0:0:
109,192,60343,1,0,0:0:0:0:
329,192,60574,1,2,0:0:0:0:
36,192,61035,1,8,0:0:0:0:
182,192,61497,1,2,0:0:0:0:
109,192,61958,1,8,0:0:0:0:
402,192,62189,1,0,0:0:0:0:
182,192,62420,1,2,0:0:0:0:
475,192,62881,1,8,0:0:0:0:
109,192,63343,1,2,0:0:0:0:
402,192,63804,1,8,0:0:0:0:
182,192,64035,1,0,0:0:0:0:
329,192,64266,1,2,0:0:0:0:
475,192,64497,1,0,0:0:0:0:
182,192,64727,1,8,0:0:0:0:
36,192,64958,1,0,0:0:0:0:
402,192,65189,1,0,0:0:0:0:
256,192,65189,1,2,0:0:0:0:
182,192,65650,1,8,0:0:0:0:
329,192,65650,1,0,0:0:0:0:
256,192,66112,1,2,0:0:0:0:
402,192,66112,1,0,0:0:0:0:
329,192,66574,1,8,0:0:0:0:
475,192,66574,1,0,0:0:0:0:
36,192,67035,1,2,0:0:0:0:
182,192,67035,1,4,0:0:0:0:
475,192,67497,1,8,0:0:0:0:
109,192,67727,1,0,0:0:0:0:
402,192,67958,1,2,0:0:0:0:
36,192,68420,1,8,0:0:0:0:
402,192,68650,1,0,0:0:0:0:
109,192,68881,1,2,0:0:0:0:
329,192,69112,1,0,0:0:0:0:
402,192,69343,1,8,0:0:0:0:
182,192,69574,1,0,0:0:0:0:
109,192,69804,1,2,0:0:0:0:
402,192,70266,1,8,0:0:0:0:
182,192,70497,1,0,0:0:0:0:
329,192,70727,1,2,0:0:0:0:
109,192,71189,1,8,0:0:0:0:
329,192,71650,1,2,0:0:0:0:
475,192,71881,1,0,0:0:0:0:
329,192,72112,1,8,0:0:0:0:
182,192,72343,1,0,0:0:0:0:
256,192,72574,1,0,0:0:0:0:
36,192,72574,1,2,0:0:0:0:
109,192,73035,1,8,0:0:0:0:
329,192,73035,1,0,0:0:0:0:
182,192,73497,1,2,0:0:0:0:
402,192,73497,1,0,0:0:0:0:
256,192,73958,1,8,0:0:0:0:
475,192,73958,1,0,0:0:0:0:
402,192,74420,1,2,0:0:0:0:
182,192,74420,1,4,0:0:0:0:
329,192,74881,1,8,0:0:0:0:
109,192,75112,1,0,0:0:0:0:
402,192,75343,1,2,0:0:0:0:
36,192,75574,1,0,0:0:0:0:
182,192,75804,1,8,0:0:0:0:
475,192,76035,1,0,0:0:0:0:
329,192,76266,1,2,0:0:0:0:
109,192,76497,1,0,0:0:0:0:
182,192,76727,1,8,0:0:0:0:
402,192,76958,1,0,0:0:0:0:
329,192,77189,1,2,0:0:0:0:
109,192,77650,1,8,0:0:0:0:
402,192,77881,1,0,0:0:0:0:
182,192,78112,1,2,0:0:0:0:
475,192,78574,1,8,0:0:0:0:
182,192,78804,1,0,0:0:0:0:
402,192,79035,1,2,0:0:0:0:
109,192,79266,1,0,0:0:0:0:
256,192,79497,1,8,0:0:0:0:
402,192,79727,1,0,0:0:0:0:
256,192,79958,1,2,0:0:0:0:
109,192,79958,1,0,0:0:0:0:
36,192,80420,1,0,0:0:0:0:
182,192,80420,1,8,0:0:0:0:
109,192,80881,1,0,0:0:0:0:
256,192,80881,1,2,0:0:0:0:
182,192,81343,1,0,0:0:0:0:
329,192,81343,1,8,0:0:0:0:
256,192,81804,1,4,0:0:0:0:
402,192,81804,1,2,0:0:0:0:
182,192,82266,1,8,0:0:0:0:
475,192,82497,1,8,0:0:0:0:
109,192,82727,1,8,0:0:0:0:
402,192,82958,1,8,0:0:0:0:
36,192,83189,1,2,0:0:0:0:
329,192,83420,1,2,0:0:0:0:
475,192,83650,1,4,0:0:0:0:
182,192,83650,1,0,0:0:0:0:
402,192,84574,1,12,0:0:0:0:
402,192,84920,1,12,0:0:0:0:
109,192,85266,1,12,0:0:0:0:
109,192,85497,128,4,88958:0:0:0:0:
