osu file format v9

[General]
AudioFilename: byebye.mp3
AudioLeadIn: 1500
PreviewTime: 33755
Countdown: 0
SampleSet: Soft
StackLeniency: 0.7
Mode: 0
LetterboxInBreaks: 0

[Editor]
DistanceSpacing: 1
BeatDivisor: 4
GridSize: 4

[Metadata]
Title:Bye Bye (TV Size)
Artist:7!!
Creator:No_Gu
Version:Insane
Source:Kimi to Boku
Tags:opening

[Difficulty]
HPDrainRate:8
CircleSize:4
OverallDifficulty:7
ApproachRate:8
SliderMultiplier:1.8
SliderTickRate:1

[Events]
//Background and Video events
Video,4299,"video.avi"
0,0,"BG.jpg"
//Break Periods
//Storyboard Layer 0 (Background)
//Storyboard Layer 1 (Fail)
//Storyboard Layer 2 (Pass)
//Storyboard Layer 3 (Foreground)
//Storyboard Sound Samples
//Background Colour Transformations
3,100,163,162,255

[TimingPoints]
525,461.538461538462,4,2,1,70,1,0
18754,-100,4,2,2,70,0,0
31908,-100,4,1,1,60,0,0
32371,-100,4,1,1,70,0,0
32831,-133.333333333333,4,1,1,80,0,0
33293,-100,4,2,2,5,0,0
33408,-100,4,2,2,70,0,0
33755,-100,4,2,1,70,0,1
33871,-100,4,2,1,70,0,0
57526,-100,4,2,1,5,0,0
57640,-100,4,2,1,70,0,0
58678,-100,4,1,1,50,0,0
59601,-100,4,2,1,70,0,1
84525,-100,4,1,1,50,0,1
85448,-100,4,2,1,70,0,0
88678,-100,4,2,1,10,0,0

[Colours]
Combo1 : 220,195,155
Combo2 : 0,255,255
Combo3 : 128,255,128
SliderBorder : 255,255,255

[HitObjects]
64,88,524,2,0,B|160:88|160:88,1,90,4|0
208,160,986,1,8
208,248,1217,1,0
192,240,1332,1,0
176,232,1448,2,0,B|116:200|132:136|132:136,1,90,2|0
48,200,1909,2,0,B|48:304,1,90,8|0
128,336,2371,6,0,B|208:360|296:328|296:328,1,135,2|0
296,312,2832,2,0,B|416:312|416:312,1,90,8|0
448,248,3294,1,0
376,196,3525,1,0
456,160,3755,1,8
456,160,3871,1,0
456,160,3986,1,0
456,80,4217,6,0,B|368:64|264:80,1,180,4|2
320,160,4909,1,0
280,240,5140,1,0
224,176,5371,1,0
208,160,5486,1,0
192,144,5601,2,0,B|112:72|112:72,1,90,2|0
184,256,6063,6,0,B|288:248|344:320,1,180,0|2
272,368,6755,1,0
272,368,6986,1,0
192,328,7217,1,0
168,320,7332,1,0
144,312,7448,2,0,B|88:304|72:248,1,90,2|0
64,240,7794,1,0
56,216,7909,6,0,B|32:168|32:104|32:104,1,90,4|0
92,60,8371,1,2
128,144,8601,1,0
264,264,8832,2,0,B|320:280|352:240|352:240|392:288|464:264|464:264,1,180,0|2
352,328,9525,1,0
420,184,9755,5,0
352,128,9986,2,0,B|312:144|264:128,1,90,0|2
216,48,10448,2,0,B|312:16|400:48,1,180
448,120,11140,1,2
336,264,11371,1,0
336,264,11486,1,0
336,264,11601,6,0,B|232:264|136:264|136:264,1,180,4|2
92,200,12294,1,0
64,284,12524,1,0
208,176,12755,1,0
208,176,12871,1,0
208,176,12986,2,0,B|264:160|336:208|400:168,2,180,2|0|2
368,256,14140,5,0
388,268,14255,1,0
408,280,14371,2,0,B|456:272|496:232,2,90,0|0|2
304,320,15063,1,0
280,320,15178,1,0
256,320,15294,6,0,B|144:320|144:320,2,90,4|0|2
364,240,15986,1,0
228,240,16217,1,0
336,320,16448,1,0
296,192,16678,1,2
136,96,16909,1,0
136,96,17025,1,0
136,96,17140,6,0,B|160:184|160:184|136:280,1,180,0|2
224,232,17832,1,0
240,144,18063,2,0,B|212:44|212:44,2,90,0|0|2
312,200,18755,1,0
312,200,18871,1,0
312,200,18986,6,0,B|416:240|416:240,2,90,4|0|8
176,320,19678,1,0
152,144,19909,1,0
216,80,20140,1,0
228,100,20255,1,0
240,120,20371,1,8
364,164,20601,1,0
472,308,20832,6,0,B|512:204|512:204,1,90
344,308,21294,2,0,B|304:204|304:204,2,90,8|0|0
400,136,21986,1,0
400,140,22101,1,0
400,144,22217,1,8
304,296,22448,1,0
288,280,22563,1,0
272,264,22678,6,0,B|272:208|272:208|312:144|272:88,1,180,4|8
200,144,23371,1,0
120,176,23601,2,0,B|104:128|128:80,2,90,0|0|8
28,332,24294,1,0
196,268,24525,6,0,B|196:152|196:152,1,90
332,48,24986,2,0,B|332:152|332:152,1,90,8|0
276,208,25448,1,0
336,276,25678,1,0
352,292,25794,1,0
368,308,25909,1,8
436,256,26140,1,0
452,272,26255,1,0
468,288,26371,6,0,B|500:228|500:228|500:108,1,180,4|8
340,32,27063,1,0
404,200,27294,1,0
452,28,27525,1,0
316,144,27755,2,0,B|220:172|220:172,1,90,8|0
72,264,28217,6,0,B|176:296|224:216,1,135,0|0
220,208,28678,2,0,B|268:200|316:224|316:224,2,90,8|0|0
164,136,29371,1,0
144,120,29486,1,0
128,104,29601,1,8
48,64,29832,1,0
256,192,30063,12,8,31448
88,64,31909,5,0
104,80,32025,1,0
120,96,32140,1,0
136,112,32255,1,0
152,128,32371,1,0
168,144,32486,1,0
184,160,32601,1,0
200,176,32717,1,0
216,192,32832,6,0,B|264:244|340:244,1,134.999995976687,4|0
368,160,33525,1,0
384,144,33640,1,0
400,128,33755,6,0,B|456:112|472:56|472:56,1,90,4|0
376,48,34217,2,0,B|328:40|280:64|280:64,1,90,8|0
224,184,34678,2,0,B|208:264|96:288,1,135,0|0
104,248,35140,2,0,B|4:248|4:248,1,90,8|0
144,128,35601,2,0,B|136:64|256:32|288:88,1,180,2|8
228,152,36294,1,0
240,168,36409,1,0
252,184,36525,2,0,B|320:264|320:264,2,90,0|0|8
400,280,37217,1,0
400,280,37332,1,0
400,280,37448,6,0,B|374:320|321:344|321:344,1,90,2|0
464,208,37909,2,0,B|464:88|464:88,1,90,8|0
488,296,38371,1,0
464,208,38601,1,0
312,304,38832,2,0,B|344:352|400:384|400:384,1,90,8|0
248,240,39294,6,0,B|216:360|216:360,2,90,2|0|8
336,224,39986,1,0
424,240,40217,2,0,B|456:360|456:360,2,90,2|0|8
336,84,40909,1,0
336,84,41025,1,0
336,84,41140,6,0,B|336:276,1,180,4|8
272,328,41832,1,0
184,352,42063,1,0
256,240,42294,1,0
272,328,42525,1,8
192,280,42755,1,0
176,264,42871,1,0
160,248,42986,6,0,B|152:200|112:176,1,90,2|0
194,133,43448,2,0,B|199:180|240:208,1,90,8|0
288,128,43909,2,0,B|440:128|440:128,1,135,0|0
448,160,44371,2,0,B|520:248|520:248,1,90,8|0
448,300,44832,5,2
360,268,45063,1,0
360,176,45294,1,8
448,160,45525,1,0
280,228,45755,1,0
280,228,45986,2,0,B|156:228|156:228,2,90,0|8|0
300,212,46563,1,0
316,196,46678,6,0,B|428:196,2,90,2|0|8
236,152,47371,1,0
224,132,47486,1,0
212,112,47601,2,0,B|136:112|136:112,2,45
220,92,47948,1,0
232,76,48063,2,0,B|336:76|336:76,1,90,8|8
376,256,48525,6,0,B|424:256|448:192|420:128|372:128,1,180,4|8
316,196,49217,1,0
236,152,49448,1,0
248,64,49678,1,0
336,48,49909,1,8
256,212,50140,1,0
240,228,50255,1,0
224,244,50371,6,0,B|164:288|88:264,1,135,2|0
80,252,50832,2,0,B|24:348|24:348,1,90,8|0
124,172,51294,2,0,B|180:68|180:68,1,90
256,92,51755,1,8
304,168,51986,1,0
296,304,52217,6,0,B|324:240|408:224,1,135,2|0
416,240,52678,2,0,B|448:288|504:296|504:296,1,90,8|0
496,200,53140,2,0,B|412:320|412:320,1,135
404,328,53601,2,0,B|360:340|312:328,1,90,8|0
252,264,54063,5,2
136,128,54294,1,0
152,144,54409,1,0
168,160,54525,2,0,B|264:160|264:160,2,90,8|0|0
344,200,55217,1,0
328,216,55332,1,0
312,232,55448,2,0,B|216:232|216:232,1,90,8|8
396,284,55909,6,0,B|388:332|396:388,1,90,4|0
344,200,56371,2,0,B|392:208|448:200,1,90,8|0
456,196,56717,1,0
476,188,56832,1,0
392,84,57063,1,0
392,84,57178,1,0
392,84,57294,1,8
316,132,57525,2,0,B|288:92|240:88,1,90,0|4
112,88,58678,5,4
272,216,59025,1,4
56,216,59371,1,4
56,216,59601,6,0,B|16:136|16:136|16:40|16:40,2,180,4|8|0
104,288,60755,1,0
104,288,60871,1,0
104,288,60986,2,0,B|56:304|8:288|8:288,2,90,8|0|0
176,232,61678,5,0
192,216,61794,1,0
208,200,61909,1,8
240,112,62140,2,0,B|296:128|304:192,1,90,8|0
336,256,62601,1,0
344,280,62717,1,0
352,304,62832,2,8,B|376:344|376:344|428:356|428:356,1,90,8|0
440,280,63294,6,0,B|488:280|520:244,1,90
448,188,63755,2,8,B|368:164|264:188,1,180,8|0
328,256,64448,1,0
328,256,64563,1,0
328,256,64678,2,0,B|352:304|320:344,1,90,8|0
404,296,65140,6,0,B|252:296,1,135
240,264,65601,2,0,B|264:216|240:168|240:168,1,90,8|8
204,96,66063,1,0
148,164,66294,2,0,B|128:220|128:220,2,45,0|0|8
112,80,66755,1,8
96,64,66871,1,0
80,48,66986,6,0,B|32:72|8:124,2,90,4|0|8
148,216,67678,1,0
216,48,67909,2,0,B|264:72|288:124,2,90,0|0|8
148,108,68601,1,0
148,108,68717,1,0
148,108,68832,6,0,B|148:204|148:204,2,90,0|0|8
288,224,69525,1,8
356,284,69755,1,0
368,196,69986,1,0
380,180,70101,1,0
396,164,70217,2,8,B|428:124|428:124|444:72|444:72,1,90,8|8
260,88,70678,6,0,B|200:80|200:80|156:112|100:104,1,135,2|0
120,124,71140,2,8,B|80:192|120:272|120:272,1,135,10|0
128,272,71601,2,0,B|172:296|232:272,2,90,2|0|10
176,196,72294,1,0
176,196,72409,1,0
176,196,72525,6,0,B|64:196|64:196,1,90,2|0
260,140,72986,2,0,B|144:104|144:104,1,90,10|8
352,92,73448,2,0,B|264:32|264:32,1,90,2|0
424,140,73909,1,8
424,184,74025,1,0
424,228,74140,1,8
304,292,74371,6,0,B|352:208|352:208|352:120,1,180,4|8
288,60,75063,1,0
272,76,75178,1,0
256,92,75294,2,0,B|204:80|176:36|176:36,2,90,0|0|8
208,220,75986,1,0
320,148,76217,5,0
184,148,76448,1,0
300,220,76678,1,8
256,348,76909,1,0
256,324,77025,1,0
256,300,77140,2,0,B|256:204|256:204,2,90,0|0|8
360,212,77832,1,8
392,344,78063,6,0,B|456:320|480:236,1,135,4|0
464,228,78525,2,0,B|396:184|420:104,1,135,8|0
432,96,78986,2,0,B|476:80|496:24|496:24,1,90
368,160,79448,2,0,B|268:184|236:280,2,180,8|0|8
420,232,80601,1,0
464,152,80832,2,0,B|508:152,2,45
512,76,81294,2,8,B|420:76|420:76,1,90
400,76,81640,1,0
376,76,81755,1,4
292,236,82217,6,0,B|224:228|188:184|188:184,1,90,8|0
196,184,82563,1,2
184,164,82678,1,0
108,212,82909,5,2
96,232,83024,1,2
80,248,83140,1,8
60,256,83255,1,2
80,268,83371,1,8
96,284,83486,1,2
108,304,83601,1,4
456,64,84524,5,4
368,248,84871,1,4
256,80,85217,1,4
256,192,85448,12,0,88678
