osu file format v9

[General]
AudioFilename: byebye.mp3
AudioLeadIn: 1500
PreviewTime: 33755
Countdown: 0
SampleSet: Soft
StackLeniency: 0.7
Mode: 0
LetterboxInBreaks: 0

[Editor]
DistanceSpacing: 1
BeatDivisor: 4
GridSize: 4

[Metadata]
Title:Bye Bye (TV Size)
Artist:7!!
Creator:No_Gu
Version:Easy
Source:Kimi to Boku
Tags:opening

[Difficulty]
HPDrainRate:2
CircleSize:3
OverallDifficulty:2
ApproachRate:3
SliderMultiplier:0.899999999999999
SliderTickRate:1

[Events]
//Background and Video events
Video,4299,"video.avi"
0,0,"BG.jpg"
//Break Periods
//Storyboard Layer 0 (Background)
//Storyboard Layer 1 (Fail)
//Storyboard Layer 2 (Pass)
//Storyboard Layer 3 (Foreground)
//Storyboard Sound Samples
//Background Colour Transformations
3,100,163,162,255

[TimingPoints]
525,461.538461538462,4,2,1,70,1,0
2371,-100,4,2,2,70,0,0
2832,-100,4,2,1,70,0,0
4678,-100,4,2,2,70,0,0
5601,-100,4,2,1,70,0,0
6524,-100,4,2,2,70,0,0
7447,-100,4,2,1,70,0,0
8371,-100,4,2,2,70,0,0
10217,-100,4,2,1,70,0,0
12063,-100,4,2,2,70,0,0
12986,-100,4,2,1,70,0,0
17601,-100,4,2,2,70,0,0
18524,-100,4,2,1,70,0,0
18755,-100,4,2,2,70,0,0
24524,-100,4,2,1,70,0,0
24986,-100,4,2,2,70,0,0
27294,-100,4,2,1,70,0,0
27755,-100,4,2,2,70,0,0
32832,-100,4,1,1,80,0,0
33755,-100,4,2,1,70,0,1
33871,-100,4,2,1,70,0,0
36524,-100,4,2,2,70,0,0
36986,-100,4,2,1,70,0,0
52217,-100,4,2,2,70,0,0
52678,-100,4,2,1,70,0,0
57294,-100,4,2,1,5,0,0
57640,-100,4,2,1,70,0,0
59601,-100,4,2,1,70,0,1
61447,-100,4,2,2,70,0,1
61909,-100,4,2,1,70,0,1
70678,-100,4,2,2,70,0,1
71140,-100,4,2,1,70,0,1
79909,-100,4,2,2,70,0,1
80371,-100,4,2,1,70,0,1
85448,-100,4,2,1,70,0,0
88678,-100,4,2,1,10,0,0

[Colours]
Combo1 : 220,195,155
Combo2 : 0,255,255
Combo3 : 128,255,128
SliderBorder : 255,255,255

[HitObjects]
24,104,525,2,0,B|72:200|72:200,1,89.9999999999999,4|8
144,224,1448,1,0
224,184,1909,2,0,B|328:160|400:232|400:232,1,180,8|8
480,248,3294,1,0
456,160,3755,1,8
432,72,4217,6,0,B|344:56|240:72,1,180,4|0
304,144,5601,1,2
216,152,6063,2,0,B|232:240|216:336,1,180,0|0
144,280,7448,1,0
88,208,7909,6,0,B|56:208|16:280|56:352|88:352,2,180,4|0|0
156,148,10217,2,0,B|340:148|340:148,1,180,2|2
368,232,11601,6,0,B|176:232|176:232,1,180,4|0
112,184,12986,2,0,B|96:232|112:280,2,89.9999999999999,2|0|2
176,120,14371,2,0,B|224:104|272:120,2,89.9999999999999,0|2|4
192,208,15755,5,2
232,288,16217,1,0
320,312,16678,1,2
408,288,17140,2,0,B|424:200|408:104,1,180,0|0
392,24,18525,1,2
320,80,18986,6,0,B|296:128|248:144,2,89.9999999999999,4|8|0
232,56,20371,1,8
152,96,20832,2,0,B|48:96|48:96,2,89.9999999999999,0|8|0
152,184,22217,1,8
156,272,22678,6,0,B|104:276|76:232,1,89.9999999999999,4|8
152,184,23601,1,0
152,184,24063,2,8,B|352:184|352:184,1,180
408,232,25448,2,0,B|432:184|408:136,2,89.9999999999999,0|8|4
496,232,26832,6,8,B|496:296|432:344|360:304,1,180,8|8
328,232,28217,2,0,B|384:216|416:240|416:240,2,89.9999999999999,0|8|0
256,176,29601,1,8
256,192,30063,12,4,32832
392,112,33755,6,0,B|288:112|288:112,1,89.9999999999999,4|8
240,176,34678,1,0
304,240,35140,2,0,B|400:240|400:240,1,89.9999999999999,8|2
352,320,36063,2,8,B|440:320|440:320|484:292|484:228|484:228,1,180
436,164,37448,5,2
368,104,37909,2,0,B|176:104|176:104,1,180,8|8
120,164,39294,2,0,B|72:260|72:260,1,89.9999999999999,2|8
168,240,40217,2,0,B|120:336|120:336,1,89.9999999999999,0|8
212,356,41140,6,0,B|308:356|308:356,1,89.9999999999999,4|8
384,320,42063,1,0
416,240,42525,1,8
416,240,42986,2,0,B|520:240|520:240,2,89.9999999999999,2|8|0
376,160,44371,2,8,B|288:120|192:160,1,180,8|8
152,232,45755,5,0
112,152,46217,1,8
152,232,46678,2,0,B|104:248|64:232,2,89.9999999999999,2|10|2
208,160,48063,6,0,B|316:160|316:160,1,89.9999999999999,8|4
384,200,48986,1,8
440,272,49448,1,0
352,288,49909,1,8
264,320,50371,6,0,B|288:368|336:384|336:384,2,89.9999999999999,2|8|0
204,256,51755,2,8,B|20:256,2,180
280,208,54063,1,2
320,128,54525,1,8
368,208,54986,2,8,B|472:208|472:208,1,89.9999999999999,0|8
416,288,55909,5,4
352,352,56371,2,0,B|256:352|256:352,1,89.9999999999999,8|0
224,272,57294,2,0,B|320:272|320:272,1,89.9999999999999,0|4
464,192,59601,6,0,B|496:104|496:104,2,89.9999999999999,4|8|0
392,248,60986,2,8,B|208:248|208:248,2,180,8|8|8
464,192,63294,5,2
408,120,63755,2,8,B|320:144|224:120,1,180,8|8
168,192,65140,2,2,B|80:192,2,89.9999999999999,2|8|0
232,256,66525,1,10
296,320,66986,6,0,B|392:320|392:320,1,89.9999999999999,4|8
424,240,67909,2,0,B|480:264|472:328,2,89.9999999999999,0|8|2
352,184,69294,1,8
272,136,69755,1,0
208,76,70217,6,8,B|172:112|184:164|184:164|136:160|96:200|96:200,1,180
28,244,71601,2,0,B|4:196|28:148,1,89.9999999999999,0|8
72,80,72525,2,0,B|88:32|136:16,3,89.9999999999999,2|10|2|10
156,104,74371,6,0,B|252:104|252:104,1,89.9999999999999,4|8
296,180,75294,2,0,B|392:180|392:180,2,89.9999999999999,0|8|2
244,252,76678,2,8,B|60:252|60:252,1,180
96,336,78063,6,0,B|0:336,2,89.9999999999999,2|8|0
160,272,79448,2,0,B|256:240|280:128,2,180,8|8|8
144,184,81755,6,0,B|192:168|197:110,1,89.9999999999999,4|8
108,108,82678,1,0
56,180,83140,2,0,B|56:284|56:284,1,89.9999999999999,8|4
256,192,85448,12,0,88679
