osu file format v14

[General]
AudioFilename: Kagami - 61 Degrees [ Rhythm Control 2 ].mp3
AudioLeadIn: 0
PreviewTime: 50718
Countdown: 0
SampleSet: Normal
StackLeniency: 0.7
Mode: 1
LetterboxInBreaks: 0
WidescreenStoryboard: 0

[Editor]
Bookmarks: 8403,14978,34704,37992,51142,64293,77444,90594,103745,105389,118539
DistanceSpacing: 0.8
BeatDivisor: 4
GridSize: 4
TimelineZoom: 1

[Metadata]
Title:Kagami
TitleUnicode:Kagami
Artist:61 Degrees
ArtistUnicode:61 Degrees
Creator:eeezzzeee
Version:Oni
Source:Rhythm Control 2
Tags:eze electro industrial
BeatmapID:683298
BeatmapSetID:304783

[Difficulty]
HPDrainRate:5
CircleSize:5
OverallDifficulty:5
ApproachRate:5
SliderMultiplier:1.4
SliderTickRate:1

[Events]
//Background and Video events
0,0,"bg.jpg",0,0
//Break Periods
//Storyboard Layer 0 (Background)
//Storyboard Layer 1 (Fail)
//Storyboard Layer 2 (Pass)
//Storyboard Layer 3 (Foreground)
//Storyboard Sound Samples

[TimingPoints]
171,410.958904109589,4,1,0,100,1,0
37979,-166.666666666667,4,1,0,100,0,0
50718,-125,4,1,0,100,0,0
51129,-100,4,1,0,100,0,0
62944,-98.0392156862745,4,1,0,100,0,0
63047,-96.1538461538461,4,1,0,100,0,0
63253,-92.5925925925926,4,1,0,100,0,0
63458,-89.2857142857143,4,1,0,100,0,0
63664,-86.2068965517241,4,1,0,100,0,0
63869,-83.3333333333333,4,1,0,100,0,0
63972,-81.9672131147541,4,1,0,100,0,0
64075,-80.6451612903226,4,1,0,100,0,0
64177,-79.3650793650794,4,1,0,100,0,0
64280,-78.125,4,1,0,100,0,1
64383,-76.9230769230769,4,1,0,100,0,1
77123,-78.125,4,1,0,100,0,1
77225,-79.3650793650794,4,1,0,100,0,1
77328,-80.6451612903226,4,1,0,100,0,1
77431,-81.9672131147541,4,1,0,100,0,0
77534,-83.3333333333333,4,1,0,100,0,0
90581,-90.9090909090909,4,1,0,100,0,1
103732,-90.9090909090909,4,1,0,100,0,0
103938,-92.5925925925926,4,1,0,100,0,0
104349,-94.3396226415094,4,1,0,100,0,0
104554,-96.1538461538461,4,1,0,100,0,0
104965,-98.0392156862745,4,1,0,100,0,0
105479,-100,4,1,0,100,0,0

[HitObjects]
256,192,8390,5,0,0:0:0:0:
256,192,8801,1,8,0:0:0:0:
256,192,9212,1,0,0:0:0:0:
256,192,9417,1,0,0:0:0:0:
256,192,9623,1,8,0:0:0:0:
256,192,10034,1,0,0:0:0:0:
256,192,10444,1,8,0:0:0:0:
256,192,10855,1,8,0:0:0:0:
256,192,11061,1,0,0:0:0:0:
256,192,11266,1,8,0:0:0:0:
256,192,11677,1,0,0:0:0:0:
256,192,12088,1,8,0:0:0:0:
256,192,12499,1,0,0:0:0:0:
256,192,12705,1,0,0:0:0:0:
256,192,12910,1,8,0:0:0:0:
256,192,13321,1,0,0:0:0:0:
256,192,13732,1,8,0:0:0:0:
256,192,14143,1,0,0:0:0:0:
256,192,14349,1,8,0:0:0:0:
256,192,14554,1,0,0:0:0:0:
256,192,14760,1,8,0:0:0:0:
256,192,14965,1,4,0:0:0:0:
256,192,15376,1,8,0:0:0:0:
256,192,15581,1,0,0:0:0:0:
256,192,15684,1,8,0:0:0:0:
256,192,15787,1,0,0:0:0:0:
256,192,15992,1,0,0:0:0:0:
256,192,16198,1,8,0:0:0:0:
256,192,16403,1,8,0:0:0:0:
256,192,16609,1,0,0:0:0:0:
260,192,16814,1,0,0:0:0:0:
256,192,17020,1,8,0:0:0:0:
256,192,17225,1,0,0:0:0:0:
256,192,17328,1,0,0:0:0:0:
256,192,17431,1,8,0:0:0:0:
256,192,17534,1,8,0:0:0:0:
256,192,17636,1,0,0:0:0:0:
256,192,17842,1,8,0:0:0:0:
256,192,18047,1,0,0:0:0:0:
260,192,18253,1,0,0:0:0:0:
260,192,18355,1,0,0:0:0:0:
260,192,18458,1,0,0:0:0:0:
264,192,18664,1,8,0:0:0:0:
264,192,18869,1,0,0:0:0:0:
256,192,18972,1,8,0:0:0:0:
256,192,19075,1,0,0:0:0:0:
256,192,19280,1,0,0:0:0:0:
256,192,19486,1,8,0:0:0:0:
256,192,19691,1,8,0:0:0:0:
256,188,19897,1,4,0:0:0:0:
260,192,20205,1,0,0:0:0:0:
256,192,20307,1,8,0:0:0:0:
256,192,20513,1,0,0:0:0:0:
256,192,20718,1,0,0:0:0:0:
256,192,20821,1,0,0:0:0:0:
256,192,20924,1,8,0:0:0:0:
256,192,21129,1,8,0:0:0:0:
256,192,21232,1,8,0:0:0:0:
256,192,21335,1,8,0:0:0:0:
256,192,21438,1,8,0:0:0:0:
256,192,21540,1,4,0:0:0:0:
260,192,21951,1,8,0:0:0:0:
256,192,22157,1,8,0:0:0:0:
256,192,22260,1,8,0:0:0:0:
256,192,22362,1,0,0:0:0:0:
256,192,22568,1,0,0:0:0:0:
256,192,22773,1,8,0:0:0:0:
256,192,22979,1,8,0:0:0:0:
256,192,23184,1,0,0:0:0:0:
260,192,23390,1,0,0:0:0:0:
260,192,23595,1,8,0:0:0:0:
256,192,23801,1,8,0:0:0:0:
256,192,23903,1,8,0:0:0:0:
256,192,24006,1,0,0:0:0:0:
256,192,24109,1,0,0:0:0:0:
256,192,24212,1,8,0:0:0:0:
256,192,24417,1,8,0:0:0:0:
256,192,24623,1,0,0:0:0:0:
256,192,24828,1,0,0:0:0:0:
256,192,24931,1,0,0:0:0:0:
260,192,25034,1,0,0:0:0:0:
260,192,25239,1,8,0:0:0:0:
256,192,25444,1,0,0:0:0:0:
256,192,25547,1,8,0:0:0:0:
256,192,25650,1,0,0:0:0:0:
256,192,25855,1,0,0:0:0:0:
256,192,26061,1,8,0:0:0:0:
256,192,26266,1,8,0:0:0:0:
256,192,26472,1,0,0:0:0:0:
256,192,26677,1,0,0:0:0:0:
256,192,26780,1,0,0:0:0:0:
256,192,26883,1,8,0:0:0:0:
256,192,27088,1,0,0:0:0:0:
256,192,27294,1,8,0:0:0:0:
264,200,27397,1,0,0:0:0:0:
256,192,27499,1,8,0:0:0:0:
256,192,27705,1,0,0:0:0:0:
256,192,27910,1,8,0:0:0:0:
256,192,28116,1,4,0:0:0:0:
256,192,28527,1,12,0:0:0:0:
256,192,28732,1,0,0:0:0:0:
256,192,28835,1,0,0:0:0:0:
256,192,28938,1,8,0:0:0:0:
256,192,29143,1,8,0:0:0:0:
256,192,29349,1,0,0:0:0:0:
256,192,29554,1,8,0:0:0:0:
256,192,29760,1,0,0:0:0:0:
260,192,29965,1,0,0:0:0:0:
256,192,30170,1,8,0:0:0:0:
256,192,30376,1,8,0:0:0:0:
256,192,30479,1,0,0:0:0:0:
256,192,30581,1,0,0:0:0:0:
256,192,30684,1,0,0:0:0:0:
256,192,30787,1,8,0:0:0:0:
256,192,30992,1,8,0:0:0:0:
256,192,31198,1,0,0:0:0:0:
260,192,31403,1,0,0:0:0:0:
256,196,31506,1,0,0:0:0:0:
260,192,31609,1,0,0:0:0:0:
264,192,31814,1,8,0:0:0:0:
264,192,32020,1,0,0:0:0:0:
256,192,32225,1,8,0:0:0:0:
256,184,32328,1,0,0:0:0:0:
256,192,32431,1,8,0:0:0:0:
256,192,32636,1,0,0:0:0:0:
256,192,32842,1,8,0:0:0:0:
260,192,33047,1,4,0:0:0:0:
260,192,33355,1,0,0:0:0:0:
264,192,33458,1,8,0:0:0:0:
264,192,33664,1,0,0:0:0:0:
260,188,33869,1,0,0:0:0:0:
260,188,33972,1,0,0:0:0:0:
260,188,34075,1,8,0:0:0:0:
264,188,34280,1,8,0:0:0:0:
264,188,34383,1,8,0:0:0:0:
264,188,34486,1,8,0:0:0:0:
264,188,34588,1,8,0:0:0:0:
260,192,34691,1,4,0:0:0:0:
256,192,37979,1,0,0:0:0:0:
256,192,38801,1,8,0:0:0:0:
256,192,39212,1,0,0:0:0:0:
256,192,39417,1,8,0:0:0:0:
256,192,39623,1,0,0:0:0:0:
256,192,40444,1,8,0:0:0:0:
256,192,40855,1,0,0:0:0:0:
256,200,41266,1,0,0:0:0:0:
256,200,42088,1,8,0:0:0:0:
256,200,42499,1,0,0:0:0:0:
256,200,42705,1,8,0:0:0:0:
256,200,42910,1,0,0:0:0:0:
260,192,43321,1,0,0:0:0:0:
256,200,43732,1,8,0:0:0:0:
252,192,44143,1,0,0:0:0:0:
256,200,44554,1,0,0:0:0:0:
256,192,45376,1,8,0:0:0:0:
256,192,45787,1,0,0:0:0:0:
256,192,45992,1,8,0:0:0:0:
256,192,46198,1,0,0:0:0:0:
256,192,46403,1,8,0:0:0:0:
256,192,46609,1,0,0:0:0:0:
256,192,47020,1,8,0:0:0:0:
256,192,47431,1,0,0:0:0:0:
256,192,47842,1,0,0:0:0:0:
256,192,48664,1,8,0:0:0:0:
256,192,49075,1,0,0:0:0:0:
256,192,49280,1,8,0:0:0:0:
256,192,49486,1,0,0:0:0:0:
256,192,49691,1,8,0:0:0:0:
248,196,49897,1,0,0:0:0:0:
256,192,50102,1,0,0:0:0:0:
244,196,50307,1,8,0:0:0:0:
252,200,50718,1,8,0:0:0:0:
252,200,51129,1,4,0:0:0:0:
248,196,51335,1,0,0:0:0:0:
240,192,51438,1,0,0:0:0:0:
248,196,51540,1,8,0:0:0:0:
248,200,51746,1,0,0:0:0:0:
244,204,51951,1,8,0:0:0:0:
244,204,52157,1,8,0:0:0:0:
244,204,52260,1,0,0:0:0:0:
244,204,52362,1,8,0:0:0:0:
244,204,52568,1,0,0:0:0:0:
248,208,52773,1,0,0:0:0:0:
248,200,52979,1,0,0:0:0:0:
216,204,53081,1,0,0:0:0:0:
244,208,53184,1,8,0:0:0:0:
240,208,53390,1,0,0:0:0:0:
244,204,53595,1,8,0:0:0:0:
244,204,53698,1,8,0:0:0:0:
244,204,53801,1,8,0:0:0:0:
232,212,53903,1,8,0:0:0:0:
244,204,54006,1,0,0:0:0:0:
244,204,54212,1,8,0:0:0:0:
240,204,54417,1,0,0:0:0:0:
244,208,54623,1,0,0:0:0:0:
244,208,54725,1,0,0:0:0:0:
248,208,54828,1,8,0:0:0:0:
248,208,55034,1,0,0:0:0:0:
248,208,55239,1,8,0:0:0:0:
248,208,55444,1,8,0:0:0:0:
248,208,55547,1,0,0:0:0:0:
248,208,55650,1,8,0:0:0:0:
248,208,55855,1,8,0:0:0:0:
248,208,56061,1,0,0:0:0:0:
240,212,56164,1,0,0:0:0:0:
228,220,56266,1,0,0:0:0:0:
244,212,56472,1,8,0:0:0:0:
244,212,56677,1,0,0:0:0:0:
248,208,56883,1,8,0:0:0:0:
248,208,57088,1,8,0:0:0:0:
248,208,57294,1,8,0:0:0:0:
248,208,57397,1,8,0:0:0:0:
248,208,57499,1,8,0:0:0:0:
248,208,57602,1,8,0:0:0:0:
248,208,57705,1,4,0:0:0:0:
248,212,58116,1,12,0:0:0:0:
248,216,58321,1,0,0:0:0:0:
248,212,58527,1,8,0:0:0:0:
248,212,58732,1,8,0:0:0:0:
248,216,58835,1,0,0:0:0:0:
248,216,58938,1,8,0:0:0:0:
248,216,59143,1,0,0:0:0:0:
248,216,59349,1,0,0:0:0:0:
240,216,59554,1,0,0:0:0:0:
240,216,59657,1,0,0:0:0:0:
248,212,59760,1,8,0:0:0:0:
248,216,59965,1,0,0:0:0:0:
248,212,60170,1,8,0:0:0:0:
248,212,60273,1,8,0:0:0:0:
248,212,60376,1,0,0:0:0:0:
248,212,60479,1,0,0:0:0:0:
248,216,60581,1,8,0:0:0:0:
248,208,60787,1,8,0:0:0:0:
248,216,60992,1,0,0:0:0:0:
248,216,61198,1,0,0:0:0:0:
248,216,61301,1,0,0:0:0:0:
248,212,61403,1,8,0:0:0:0:
248,216,61609,1,0,0:0:0:0:
248,212,61814,1,8,0:0:0:0:
248,212,62020,1,8,0:0:0:0:
248,212,62123,1,0,0:0:0:0:
248,212,62225,1,8,0:0:0:0:
244,216,62431,1,0,0:0:0:0:
256,196,62636,1,4,0:0:0:0:
260,192,62944,1,0,0:0:0:0:
260,192,63047,1,8,0:0:0:0:
260,192,63253,1,0,0:0:0:0:
260,192,63458,1,8,0:0:0:0:
260,192,63664,1,8,0:0:0:0:
264,192,63869,1,8,0:0:0:0:
268,192,63972,1,8,0:0:0:0:
264,192,64075,1,8,0:0:0:0:
268,192,64177,1,8,0:0:0:0:
272,192,64280,1,0,0:0:0:0:
272,188,64486,1,12,0:0:0:0:
272,188,64691,1,4,0:0:0:0:
272,188,64897,1,12,0:0:0:0:
260,192,65102,1,0,0:0:0:0:
272,188,65307,1,4,0:0:0:0:
272,188,65513,1,12,0:0:0:0:
272,188,65718,1,4,0:0:0:0:
272,192,65924,1,0,0:0:0:0:
272,188,66129,1,12,0:0:0:0:
272,188,66335,1,4,0:0:0:0:
272,188,66540,1,12,0:0:0:0:
276,184,66746,1,0,0:0:0:0:
272,188,66951,1,4,0:0:0:0:
272,188,67157,1,12,0:0:0:0:
272,188,67362,1,4,0:0:0:0:
276,184,67568,1,0,0:0:0:0:
272,188,67773,1,12,0:0:0:0:
272,188,67979,1,4,0:0:0:0:
272,188,68184,1,12,0:0:0:0:
276,184,68390,1,0,0:0:0:0:
280,184,68595,1,4,0:0:0:0:
280,184,68801,1,12,0:0:0:0:
280,184,69006,1,4,0:0:0:0:
284,188,69212,1,0,0:0:0:0:
284,188,69417,1,12,0:0:0:0:
284,188,69623,1,4,0:0:0:0:
284,188,69828,1,12,0:0:0:0:
284,188,70034,1,8,0:0:0:0:
284,188,70239,1,8,0:0:0:0:
284,188,70444,1,8,0:0:0:0:
284,188,70547,1,8,0:0:0:0:
284,188,70650,1,8,0:0:0:0:
284,188,70753,1,8,0:0:0:0:
284,188,70855,1,0,0:0:0:0:
280,184,71061,1,12,0:0:0:0:
280,184,71266,1,4,0:0:0:0:
280,184,71472,1,12,0:0:0:0:
276,180,71677,1,8,0:0:0:0:
276,180,71883,1,4,0:0:0:0:
276,180,72088,1,12,0:0:0:0:
276,180,72294,1,4,0:0:0:0:
276,180,72499,1,8,0:0:0:0:
280,184,72705,1,12,0:0:0:0:
280,184,72910,1,4,0:0:0:0:
280,184,73116,1,12,0:0:0:0:
276,180,73321,1,8,0:0:0:0:
276,180,73527,1,4,0:0:0:0:
276,180,73732,1,12,0:0:0:0:
276,180,73938,1,4,0:0:0:0:
276,180,74143,1,8,0:0:0:0:
280,184,74349,1,12,0:0:0:0:
280,184,74554,1,4,0:0:0:0:
280,184,74760,1,12,0:0:0:0:
276,180,74965,1,8,0:0:0:0:
276,180,75171,1,4,0:0:0:0:
276,180,75376,1,12,0:0:0:0:
276,180,75581,1,4,0:0:0:0:
276,180,75787,1,8,0:0:0:0:
260,180,76095,1,0,0:0:0:0:
260,180,76198,1,8,0:0:0:0:
260,180,76403,1,0,0:0:0:0:
260,180,76609,1,8,0:0:0:0:
260,180,76814,1,8,0:0:0:0:
260,180,77020,1,8,0:0:0:0:
260,184,77123,1,8,0:0:0:0:
260,184,77225,1,8,0:0:0:0:
260,184,77328,1,8,0:0:0:0:
260,180,77431,1,4,0:0:0:0:
264,184,77739,1,8,0:0:0:0:
264,184,77842,1,0,0:0:0:0:
264,184,78047,1,8,0:0:0:0:
264,184,78253,1,0,0:0:0:0:
264,184,78561,1,8,0:0:0:0:
264,184,78664,1,0,0:0:0:0:
264,184,78869,1,8,0:0:0:0:
264,184,79075,1,0,0:0:0:0:
264,184,79383,1,8,0:0:0:0:
264,184,79486,1,0,0:0:0:0:
264,184,79691,1,8,0:0:0:0:
264,184,79897,1,0,0:0:0:0:
272,192,79999,1,8,0:0:0:0:
272,192,80102,1,8,0:0:0:0:
272,192,80205,1,8,0:0:0:0:
272,192,80307,1,0,0:0:0:0:
272,192,80513,1,0,0:0:0:0:
268,188,80718,1,8,0:0:0:0:
260,192,81027,1,0,0:0:0:0:
260,192,81129,1,8,0:0:0:0:
260,192,81335,1,0,0:0:0:0:
260,192,81540,1,8,0:0:0:0:
260,192,81849,1,0,0:0:0:0:
260,192,81951,1,8,0:0:0:0:
260,192,82157,1,0,0:0:0:0:
260,192,82362,1,8,0:0:0:0:
260,192,82671,1,0,0:0:0:0:
260,192,82773,1,8,0:0:0:0:
260,192,82979,1,8,0:0:0:0:
264,196,83184,1,8,0:0:0:0:
264,196,83287,1,8,0:0:0:0:
264,196,83390,1,0,0:0:0:0:
264,196,83492,1,0,0:0:0:0:
264,196,83595,1,8,0:0:0:0:
264,196,83801,1,8,0:0:0:0:
264,196,84006,1,0,0:0:0:0:
264,196,84314,1,8,0:0:0:0:
264,196,84417,1,0,0:0:0:0:
264,196,84623,1,8,0:0:0:0:
264,196,84828,1,0,0:0:0:0:
264,196,85136,1,8,0:0:0:0:
264,196,85239,1,0,0:0:0:0:
264,196,85444,1,8,0:0:0:0:
264,196,85650,1,0,0:0:0:0:
264,196,85958,1,8,0:0:0:0:
264,196,86061,1,0,0:0:0:0:
264,196,86266,1,8,0:0:0:0:
268,200,86472,1,0,0:0:0:0:
268,200,86575,1,8,0:0:0:0:
268,200,86677,1,8,0:0:0:0:
268,200,86780,1,8,0:0:0:0:
268,200,86883,1,0,0:0:0:0:
268,200,87088,1,0,0:0:0:0:
268,188,87294,1,8,0:0:0:0:
260,192,87602,1,0,0:0:0:0:
260,192,87705,1,8,0:0:0:0:
260,192,87910,1,0,0:0:0:0:
260,192,88116,1,8,0:0:0:0:
260,192,88424,1,0,0:0:0:0:
260,192,88527,1,8,0:0:0:0:
260,192,88732,1,0,0:0:0:0:
260,192,88938,1,12,0:0:0:0:
260,192,89246,1,0,0:0:0:0:
260,192,89349,1,8,0:0:0:0:
260,192,89554,1,0,0:0:0:0:
264,196,89760,1,8,0:0:0:0:
264,196,89862,1,8,0:0:0:0:
264,196,89965,1,0,0:0:0:0:
264,196,90068,1,0,0:0:0:0:
264,196,90171,1,8,0:0:0:0:
264,196,90376,1,8,0:0:0:0:
264,200,90581,1,0,0:0:0:0:
260,204,90855,1,0,0:0:0:0:
272,196,90992,1,8,0:0:0:0:
252,200,91129,1,8,0:0:0:0:
252,200,91266,1,0,0:0:0:0:
272,196,91403,1,8,0:0:0:0:
268,192,91540,1,8,0:0:0:0:
268,192,91677,1,0,0:0:0:0:
272,196,91814,1,8,0:0:0:0:
268,192,92225,1,0,0:0:0:0:
268,192,92362,1,8,0:0:0:0:
268,196,92636,1,8,0:0:0:0:
268,196,92773,1,0,0:0:0:0:
276,200,93047,1,8,0:0:0:0:
276,200,93321,1,0,0:0:0:0:
276,200,93458,1,0,0:0:0:0:
276,200,93732,1,8,0:0:0:0:
276,200,93869,1,0,0:0:0:0:
276,200,94143,1,0,0:0:0:0:
276,200,94280,1,8,0:0:0:0:
276,200,94417,1,0,0:0:0:0:
276,200,94554,1,0,0:0:0:0:
276,200,94691,1,8,0:0:0:0:
272,208,94828,1,8,0:0:0:0:
276,200,94965,1,8,0:0:0:0:
276,200,95102,1,0,0:0:0:0:
276,200,95513,1,8,0:0:0:0:
276,200,95650,1,0,0:0:0:0:
276,200,95924,1,0,0:0:0:0:
276,200,96061,1,8,0:0:0:0:
276,200,96335,1,0,0:0:0:0:
276,200,96609,1,8,0:0:0:0:
276,200,96746,1,8,0:0:0:0:
276,200,97020,1,0,0:0:0:0:
276,200,97157,1,8,0:0:0:0:
264,204,97431,1,0,0:0:0:0:
256,200,97568,1,8,0:0:0:0:
256,200,97705,1,8,0:0:0:0:
256,200,97842,1,0,0:0:0:0:
256,200,97979,1,8,0:0:0:0:
256,200,98116,1,8,0:0:0:0:
256,200,98253,1,0,0:0:0:0:
256,200,98390,1,8,0:0:0:0:
256,200,98801,1,0,0:0:0:0:
256,200,98938,1,8,0:0:0:0:
256,200,99212,1,8,0:0:0:0:
256,200,99349,1,0,0:0:0:0:
252,204,99623,1,8,0:0:0:0:
252,204,99897,1,0,0:0:0:0:
252,204,100034,1,0,0:0:0:0:
252,204,100307,1,8,0:0:0:0:
252,204,100444,1,8,0:0:0:0:
256,200,100718,1,0,0:0:0:0:
256,200,100855,1,8,0:0:0:0:
256,200,100992,1,8,0:0:0:0:
252,204,101129,1,8,0:0:0:0:
252,204,101266,1,0,0:0:0:0:
252,204,101403,1,0,0:0:0:0:
252,204,101540,1,0,0:0:0:0:
252,204,101677,1,8,0:0:0:0:
252,204,102088,1,8,0:0:0:0:
252,204,102225,1,8,0:0:0:0:
256,200,102362,1,8,0:0:0:0:
256,200,102499,1,0,0:0:0:0:
252,204,102773,1,0,0:0:0:0:
252,204,102910,1,8,0:0:0:0:
252,204,103184,1,8,0:0:0:0:
252,204,103321,1,8,0:0:0:0:
252,204,103595,1,0,0:0:0:0:
264,200,103732,1,0,0:0:0:0:
252,204,103938,1,0,0:0:0:0:
252,204,104040,1,0,0:0:0:0:
256,200,104143,1,8,0:0:0:0:
252,204,104349,1,0,0:0:0:0:
252,204,104554,1,0,0:0:0:0:
252,204,104657,1,8,0:0:0:0:
252,204,104760,1,0,0:0:0:0:
252,204,104965,1,8,0:0:0:0:
252,204,105068,1,8,0:0:0:0:
252,204,105170,1,8,0:0:0:0:
252,204,105273,1,8,0:0:0:0:
256,192,105376,1,4,0:0:0:0:
256,192,105787,1,8,0:0:0:0:
256,192,105992,1,0,0:0:0:0:
256,192,106198,1,8,0:0:0:0:
256,192,106301,1,0,0:0:0:0:
256,192,106403,1,0,0:0:0:0:
256,192,106506,1,0,0:0:0:0:
256,192,106609,1,8,0:0:0:0:
256,192,106814,1,8,0:0:0:0:
248,192,107020,1,0,0:0:0:0:
256,204,107431,1,8,0:0:0:0:
256,204,107636,1,0,0:0:0:0:
264,200,107739,1,0,0:0:0:0:
256,204,107842,1,8,0:0:0:0:
256,204,107944,1,0,0:0:0:0:
256,204,108047,1,8,0:0:0:0:
256,204,108253,1,0,0:0:0:0:
256,204,108458,1,8,0:0:0:0:
264,200,108664,1,0,0:0:0:0:
256,204,109075,1,8,0:0:0:0:
264,200,109280,1,0,0:0:0:0:
264,200,109486,1,8,0:0:0:0:
264,204,109691,1,0,0:0:0:0:
264,204,109794,1,0,0:0:0:0:
264,204,109897,1,8,0:0:0:0:
264,204,110102,1,8,0:0:0:0:
264,204,110307,1,0,0:0:0:0:
264,216,110410,1,8,0:0:0:0:
264,216,110513,1,0,0:0:0:0:
264,216,110718,1,8,0:0:0:0:
264,216,110924,1,0,0:0:0:0:
264,216,111129,1,8,0:0:0:0:
264,216,111335,1,8,0:0:0:0:
264,216,111540,1,8,0:0:0:0:
264,216,111643,1,8,0:0:0:0:
264,216,111746,1,8,0:0:0:0:
264,216,111849,1,8,0:0:0:0:
264,216,111951,1,4,0:0:0:0:
264,216,112157,1,8,0:0:0:0:
264,216,112362,1,0,0:0:0:0:
264,216,112568,1,8,0:0:0:0:
268,208,112773,1,0,0:0:0:0:
264,192,112876,1,0,0:0:0:0:
268,208,112978,1,0,0:0:0:0:
264,208,113081,1,0,0:0:0:0:
268,208,113184,1,8,0:0:0:0:
264,216,113389,1,0,0:0:0:0:
268,208,113492,1,0,0:0:0:0:
268,208,113595,1,0,0:0:0:0:
268,212,113801,1,8,0:0:0:0:
268,212,114006,1,0,0:0:0:0:
268,212,114212,1,8,0:0:0:0:
268,208,114417,1,0,0:0:0:0:
268,208,114520,1,0,0:0:0:0:
268,208,114622,1,0,0:0:0:0:
268,208,114725,1,0,0:0:0:0:
268,208,114828,1,8,0:0:0:0:
268,208,115033,1,0,0:0:0:0:
268,208,115136,1,0,0:0:0:0:
268,208,115239,1,0,0:0:0:0:
268,212,115444,1,8,0:0:0:0:
268,212,115650,1,0,0:0:0:0:
268,212,115855,1,8,0:0:0:0:
268,208,116061,1,0,0:0:0:0:
268,208,116164,1,0,0:0:0:0:
268,208,116267,1,0,0:0:0:0:
284,232,116369,1,0,0:0:0:0:
268,208,116472,1,8,0:0:0:0:
268,208,116678,1,0,0:0:0:0:
268,208,116780,1,0,0:0:0:0:
268,208,116883,1,0,0:0:0:0:
268,212,117088,1,8,0:0:0:0:
268,212,117294,1,0,0:0:0:0:
268,212,117499,1,8,0:0:0:0:
268,208,117705,1,0,0:0:0:0:
268,208,117807,1,0,0:0:0:0:
268,208,117911,1,8,0:0:0:0:
268,208,118116,1,0,0:0:0:0:
268,208,118218,1,8,0:0:0:0:
268,208,118321,1,8,0:0:0:0:
268,208,118424,1,8,0:0:0:0:
268,208,118527,1,0,0:0:0:0:
