osu file format v14

[General]
AudioFilename: Kagami - 61 Degrees [ Rhythm Control 2 ].mp3
AudioLeadIn: 0
PreviewTime: 50718
Countdown: 0
SampleSet: Normal
StackLeniency: 0.7
Mode: 3
LetterboxInBreaks: 0
SpecialStyle: 0
WidescreenStoryboard: 1

[Editor]
Bookmarks: 8403,14978,34704,37992,51142,64293,77444,90594,103745,105389,118539
DistanceSpacing: 0.8
BeatDivisor: 4
GridSize: 4
TimelineZoom: 1

[Metadata]
Title:Kagami
TitleUnicode:Kagami
Artist:61 Degrees
ArtistUnicode:61 Degrees
Creator:eeezzzeee
Version:MX
Source:Rhythm Control 2
Tags:eze electro industrial
BeatmapID:900437
BeatmapSetID:304783

[Difficulty]
HPDrainRate:8
CircleSize:4
OverallDifficulty:8
ApproachRate:5
SliderMultiplier:1.4
SliderTickRate:1

[Events]
//Background and Video events
0,0,"bg.jpg",0,0
//Break Periods
//Storyboard Layer 0 (Background)
//Storyboard Layer 1 (Fail)
//Storyboard Layer 2 (Pass)
//Storyboard Layer 3 (Foreground)
//Storyboard Sound Samples

[TimingPoints]
171,410.958904109589,4,1,0,100,1,0
34794,-125,4,1,0,100,0,0
51129,-100,4,1,0,100,0,0
64280,-100,4,1,0,100,0,1
77431,-100,4,1,0,100,0,0
90581,-100,4,1,0,100,0,1
103938,-100,4,1,0,100,0,0

[HitObjects]
64,192,8390,5,0,0:0:0:0:
448,192,8390,1,0,0:0:0:0:
320,192,8390,1,0,0:0:0:0:
192,192,8595,1,0,0:0:0:0:
320,192,8801,1,0,0:0:0:0:
448,192,8801,1,0,0:0:0:0:
64,192,9006,1,0,0:0:0:0:
320,192,9212,128,0,9417:0:0:0:0:
448,192,9212,1,0,0:0:0:0:
64,192,9417,1,0,0:0:0:0:
448,192,9623,128,0,9828:0:0:0:0:
192,192,9623,1,0,0:0:0:0:
64,192,9828,1,0,0:0:0:0:
192,192,10034,1,0,0:0:0:0:
320,192,10034,1,0,0:0:0:0:
448,192,10239,1,0,0:0:0:0:
64,192,10444,1,0,0:0:0:0:
192,192,10444,1,0,0:0:0:0:
320,192,10650,1,0,0:0:0:0:
448,192,10855,128,0,11061:0:0:0:0:
192,192,10855,1,0,0:0:0:0:
64,192,11061,1,0,0:0:0:0:
192,192,11266,128,0,11472:0:0:0:0:
320,192,11266,1,0,0:0:0:0:
64,192,11472,1,0,0:0:0:0:
320,192,11677,1,0,0:0:0:0:
448,192,11677,1,0,0:0:0:0:
192,192,11883,1,0,0:0:0:0:
448,192,12088,1,0,0:0:0:0:
64,192,12088,1,0,0:0:0:0:
320,192,12294,1,0,0:0:0:0:
64,192,12499,128,0,12705:0:0:0:0:
192,192,12499,1,0,0:0:0:0:
320,192,12705,1,0,0:0:0:0:
192,192,12910,128,0,13116:0:0:0:0:
448,192,12910,1,0,0:0:0:0:
320,192,13116,1,0,0:0:0:0:
448,192,13321,1,0,0:0:0:0:
64,192,13321,1,0,0:0:0:0:
192,192,13527,1,0,0:0:0:0:
320,192,13732,1,0,0:0:0:0:
64,192,13732,1,0,0:0:0:0:
448,192,13938,1,0,0:0:0:0:
320,192,14143,128,0,14349:0:0:0:0:
64,192,14143,1,0,0:0:0:0:
192,192,14349,1,0,0:0:0:0:
64,192,14554,128,0,14760:0:0:0:0:
448,192,14554,1,0,0:0:0:0:
192,192,14760,1,0,0:0:0:0:
64,192,14965,1,0,0:0:0:0:
320,192,14965,1,0,0:0:0:0:
448,192,14965,1,0,0:0:0:0:
192,192,15170,1,0,0:0:0:0:
448,192,15376,1,0,0:0:0:0:
320,192,15376,1,0,0:0:0:0:
64,192,15581,1,0,0:0:0:0:
192,192,15684,1,0,0:0:0:0:
320,192,15787,1,0,0:0:0:0:
448,192,15787,1,0,0:0:0:0:
192,192,15890,1,0,0:0:0:0:
64,192,15992,1,0,0:0:0:0:
448,192,16198,1,0,0:0:0:0:
192,192,16198,1,0,0:0:0:0:
320,192,16403,1,0,0:0:0:0:
192,192,16609,1,0,0:0:0:0:
64,192,16609,1,0,0:0:0:0:
320,192,16712,1,0,0:0:0:0:
448,192,16814,1,0,0:0:0:0:
64,192,17020,1,0,0:0:0:0:
192,192,17020,1,0,0:0:0:0:
448,192,17225,1,0,0:0:0:0:
320,192,17328,1,0,0:0:0:0:
64,192,17431,1,0,0:0:0:0:
192,192,17431,1,0,0:0:0:0:
320,192,17534,1,0,0:0:0:0:
448,192,17636,1,0,0:0:0:0:
64,192,17842,1,0,0:0:0:0:
320,192,17842,1,0,0:0:0:0:
192,192,18047,1,0,0:0:0:0:
448,192,18253,1,0,0:0:0:0:
64,192,18253,1,0,0:0:0:0:
192,192,18355,1,0,0:0:0:0:
320,192,18458,1,0,0:0:0:0:
448,192,18664,1,0,0:0:0:0:
64,192,18664,1,0,0:0:0:0:
320,192,18869,1,0,0:0:0:0:
192,192,18972,1,0,0:0:0:0:
64,192,19075,1,0,0:0:0:0:
448,192,19075,1,0,0:0:0:0:
192,192,19177,1,0,0:0:0:0:
320,192,19280,1,0,0:0:0:0:
192,192,19486,1,0,0:0:0:0:
64,192,19486,1,0,0:0:0:0:
448,192,19691,1,0,0:0:0:0:
64,192,19897,128,0,20307:0:0:0:0:
320,192,19897,128,0,20205:0:0:0:0:
192,192,19897,1,0,0:0:0:0:
448,192,20205,1,0,0:0:0:0:
192,192,20307,1,0,0:0:0:0:
448,192,20513,1,0,0:0:0:0:
64,192,20718,1,0,0:0:0:0:
320,192,20718,1,0,0:0:0:0:
192,192,20821,1,0,0:0:0:0:
448,192,20924,1,0,0:0:0:0:
320,192,20924,1,0,0:0:0:0:
64,192,21027,1,0,0:0:0:0:
448,192,21129,1,0,0:0:0:0:
192,192,21129,1,0,0:0:0:0:
320,192,21198,1,0,0:0:0:0:
192,192,21266,1,0,0:0:0:0:
64,192,21335,1,0,0:0:0:0:
448,192,21403,1,0,0:0:0:0:
320,192,21472,1,0,0:0:0:0:
192,192,21540,1,0,0:0:0:0:
64,192,21540,1,0,0:0:0:0:
448,192,21540,1,0,0:0:0:0:
320,192,21746,1,0,0:0:0:0:
192,192,21951,1,0,0:0:0:0:
448,192,21951,1,0,0:0:0:0:
320,192,22157,1,0,0:0:0:0:
64,192,22260,1,0,0:0:0:0:
448,192,22362,1,0,0:0:0:0:
192,192,22362,1,0,0:0:0:0:
320,192,22465,1,0,0:0:0:0:
64,192,22568,1,0,0:0:0:0:
192,192,22773,1,0,0:0:0:0:
320,192,22773,1,0,0:0:0:0:
448,192,22979,1,0,0:0:0:0:
320,192,23184,1,0,0:0:0:0:
64,192,23184,1,0,0:0:0:0:
192,192,23287,1,0,0:0:0:0:
448,192,23390,1,0,0:0:0:0:
320,192,23595,1,0,0:0:0:0:
64,192,23595,1,0,0:0:0:0:
448,192,23801,1,0,0:0:0:0:
192,192,23903,1,0,0:0:0:0:
320,192,24006,1,0,0:0:0:0:
64,192,24006,1,0,0:0:0:0:
192,192,24109,1,0,0:0:0:0:
448,192,24212,1,0,0:0:0:0:
64,192,24417,1,0,0:0:0:0:
192,192,24417,1,0,0:0:0:0:
448,192,24623,1,0,0:0:0:0:
192,192,24828,1,0,0:0:0:0:
320,192,24828,1,0,0:0:0:0:
64,192,24931,1,0,0:0:0:0:
448,192,25034,1,0,0:0:0:0:
192,192,25239,1,0,0:0:0:0:
320,192,25239,1,0,0:0:0:0:
64,192,25444,1,0,0:0:0:0:
448,192,25547,1,0,0:0:0:0:
320,192,25650,1,0,0:0:0:0:
192,192,25650,1,0,0:0:0:0:
64,192,25753,1,0,0:0:0:0:
448,192,25855,1,0,0:0:0:0:
64,192,26061,1,0,0:0:0:0:
320,192,26061,1,0,0:0:0:0:
192,192,26266,1,0,0:0:0:0:
448,192,26472,1,0,0:0:0:0:
64,192,26472,1,0,0:0:0:0:
320,192,26575,1,0,0:0:0:0:
192,192,26677,1,0,0:0:0:0:
320,192,26883,1,0,0:0:0:0:
64,192,26883,1,0,0:0:0:0:
192,192,27088,1,0,0:0:0:0:
320,192,27191,1,0,0:0:0:0:
64,192,27294,1,0,0:0:0:0:
448,192,27294,1,0,0:0:0:0:
320,192,27397,1,0,0:0:0:0:
192,192,27499,1,0,0:0:0:0:
448,192,27705,1,0,0:0:0:0:
320,192,27705,1,0,0:0:0:0:
64,192,27910,1,0,0:0:0:0:
448,192,28116,128,0,28527:0:0:0:0:
320,192,28321,1,0,0:0:0:0:
192,192,28424,1,0,0:0:0:0:
64,192,28527,1,0,0:0:0:0:
320,192,28527,1,0,0:0:0:0:
192,192,28732,1,0,0:0:0:0:
320,192,28938,1,0,0:0:0:0:
64,192,28938,1,0,0:0:0:0:
320,192,29143,1,0,0:0:0:0:
448,192,29349,1,0,0:0:0:0:
192,192,29349,1,0,0:0:0:0:
192,192,29554,1,0,0:0:0:0:
64,192,29760,1,0,0:0:0:0:
448,192,29760,1,0,0:0:0:0:
320,192,29862,1,0,0:0:0:0:
448,192,29965,1,0,0:0:0:0:
192,192,29965,1,0,0:0:0:0:
64,192,30170,1,0,0:0:0:0:
320,192,30170,1,0,0:0:0:0:
320,192,30376,1,0,0:0:0:0:
64,192,30581,1,0,0:0:0:0:
192,192,30581,1,0,0:0:0:0:
64,192,30787,1,0,0:0:0:0:
320,192,30992,1,0,0:0:0:0:
448,192,30992,1,0,0:0:0:0:
448,192,31198,1,0,0:0:0:0:
64,192,31403,128,0,31814:0:0:0:0:
192,192,31403,1,0,0:0:0:0:
320,192,31403,1,0,0:0:0:0:
448,192,31609,1,0,0:0:0:0:
192,192,31814,128,0,32225:0:0:0:0:
320,192,31814,1,0,0:0:0:0:
448,192,32020,1,0,0:0:0:0:
320,192,32225,128,0,32636:0:0:0:0:
64,192,32225,1,0,0:0:0:0:
192,192,32431,1,0,0:0:0:0:
448,192,32636,128,0,33047:0:0:0:0:
64,192,32636,1,0,0:0:0:0:
192,192,32842,1,0,0:0:0:0:
64,192,33047,128,0,34691:0:0:0:0:
192,192,33047,128,0,33458:0:0:0:0:
448,192,33355,1,0,0:0:0:0:
320,192,33458,1,0,0:0:0:0:
448,192,33664,1,0,0:0:0:0:
192,192,33869,1,0,0:0:0:0:
448,192,33869,1,0,0:0:0:0:
320,192,33972,1,0,0:0:0:0:
448,192,34075,1,0,0:0:0:0:
320,192,34177,1,0,0:0:0:0:
192,192,34280,1,0,0:0:0:0:
448,192,34280,1,0,0:0:0:0:
320,192,34349,1,0,0:0:0:0:
448,192,34417,1,0,0:0:0:0:
192,192,34486,1,0,0:0:0:0:
320,192,34554,1,0,0:0:0:0:
448,192,34623,1,0,0:0:0:0:
320,192,34691,1,0,0:0:0:0:
192,192,34691,1,0,0:0:0:0:
448,192,34691,1,0,0:0:0:0:
192,192,37979,1,0,0:0:0:0:
320,192,38390,1,0,0:0:0:0:
448,192,38492,1,0,0:0:0:0:
320,192,38595,1,0,0:0:0:0:
192,192,38801,1,0,0:0:0:0:
64,192,38801,1,0,0:0:0:0:
320,192,39212,1,0,0:0:0:0:
448,192,39417,1,0,0:0:0:0:
192,192,39623,1,0,0:0:0:0:
64,192,39623,1,0,0:0:0:0:
320,192,39828,1,0,0:0:0:0:
448,192,40034,1,0,0:0:0:0:
320,192,40136,1,0,0:0:0:0:
192,192,40239,1,0,0:0:0:0:
64,192,40444,1,0,0:0:0:0:
448,192,40444,1,0,0:0:0:0:
320,192,40855,1,0,0:0:0:0:
64,192,40958,1,0,0:0:0:0:
192,192,41061,1,0,0:0:0:0:
320,192,41266,1,0,0:0:0:0:
448,192,41266,1,0,0:0:0:0:
192,192,41677,1,0,0:0:0:0:
64,192,41780,1,0,0:0:0:0:
192,192,41883,1,0,0:0:0:0:
64,192,42088,1,0,0:0:0:0:
320,192,42088,1,0,0:0:0:0:
64,192,42499,1,0,0:0:0:0:
320,192,42705,1,0,0:0:0:0:
192,192,42910,1,0,0:0:0:0:
448,192,43116,1,0,0:0:0:0:
320,192,43321,1,0,0:0:0:0:
192,192,43424,1,0,0:0:0:0:
64,192,43527,1,0,0:0:0:0:
192,192,43732,1,0,0:0:0:0:
448,192,43732,1,0,0:0:0:0:
320,192,44143,1,0,0:0:0:0:
448,192,44246,1,0,0:0:0:0:
192,192,44349,1,0,0:0:0:0:
64,192,44554,128,0,44965:0:0:0:0:
320,192,44554,1,0,0:0:0:0:
320,192,44965,128,0,45376:0:0:0:0:
192,192,44965,1,0,0:0:0:0:
448,192,45068,1,0,0:0:0:0:
64,192,45171,1,0,0:0:0:0:
192,192,45376,128,0,45787:0:0:0:0:
448,192,45376,1,0,0:0:0:0:
448,192,45787,128,0,46198:0:0:0:0:
64,192,45787,1,0,0:0:0:0:
320,192,45992,1,0,0:0:0:0:
64,192,46198,128,0,46609:0:0:0:0:
192,192,46198,1,0,0:0:0:0:
320,192,46403,1,0,0:0:0:0:
320,192,46609,128,0,47020:0:0:0:0:
448,192,46609,1,0,0:0:0:0:
192,192,46712,1,0,0:0:0:0:
64,192,46814,1,0,0:0:0:0:
448,192,47020,128,0,47431:0:0:0:0:
192,192,47020,1,0,0:0:0:0:
192,192,47431,128,0,47842:0:0:0:0:
64,192,47431,1,0,0:0:0:0:
320,192,47534,1,0,0:0:0:0:
448,192,47636,1,0,0:0:0:0:
64,192,47842,128,0,48664:0:0:0:0:
320,192,47842,1,0,0:0:0:0:
448,192,47842,1,0,0:0:0:0:
320,192,48253,1,0,0:0:0:0:
448,192,48355,1,0,0:0:0:0:
320,192,48458,1,0,0:0:0:0:
192,192,48664,128,0,49486:0:0:0:0:
448,192,48664,1,0,0:0:0:0:
64,192,49075,1,0,0:0:0:0:
448,192,49280,1,0,0:0:0:0:
320,192,49486,128,0,50307:0:0:0:0:
64,192,49486,1,0,0:0:0:0:
448,192,49691,1,0,0:0:0:0:
64,192,49897,1,0,0:0:0:0:
192,192,49999,1,0,0:0:0:0:
448,192,50102,1,0,0:0:0:0:
448,192,50307,128,0,51129:0:0:0:0:
64,192,50307,128,0,50513:0:0:0:0:
192,192,50513,1,0,0:0:0:0:
64,192,50718,128,0,51129:0:0:0:0:
320,192,50718,1,0,0:0:0:0:
192,192,51129,128,0,51335:0:0:0:0:
320,192,51129,128,0,51335:0:0:0:0:
64,192,51335,1,0,0:0:0:0:
448,192,51335,1,0,0:0:0:0:
64,192,51540,1,0,0:0:0:0:
320,192,51540,1,0,0:0:0:0:
192,192,51643,1,0,0:0:0:0:
448,192,51746,1,0,0:0:0:0:
320,192,51849,1,0,0:0:0:0:
448,192,51951,1,0,0:0:0:0:
192,192,51951,1,0,0:0:0:0:
192,192,52157,1,0,0:0:0:0:
320,192,52260,1,0,0:0:0:0:
448,192,52260,1,0,0:0:0:0:
192,192,52362,1,0,0:0:0:0:
64,192,52362,1,0,0:0:0:0:
192,192,52465,1,0,0:0:0:0:
320,192,52568,1,0,0:0:0:0:
448,192,52568,1,0,0:0:0:0:
192,192,52773,128,0,52979:0:0:0:0:
448,192,52773,128,0,52979:0:0:0:0:
320,192,52979,1,0,0:0:0:0:
64,192,52979,1,0,0:0:0:0:
192,192,53184,1,0,0:0:0:0:
320,192,53184,1,0,0:0:0:0:
448,192,53287,1,0,0:0:0:0:
192,192,53390,1,0,0:0:0:0:
64,192,53492,1,0,0:0:0:0:
192,192,53595,1,0,0:0:0:0:
448,192,53595,1,0,0:0:0:0:
320,192,53698,1,0,0:0:0:0:
64,192,53698,1,0,0:0:0:0:
192,192,53801,1,0,0:0:0:0:
448,192,53801,1,0,0:0:0:0:
320,192,53903,1,0,0:0:0:0:
64,192,54006,1,0,0:0:0:0:
192,192,54006,1,0,0:0:0:0:
320,192,54212,1,0,0:0:0:0:
448,192,54212,1,0,0:0:0:0:
192,192,54417,128,0,54623:0:0:0:0:
320,192,54417,128,0,54623:0:0:0:0:
64,192,54623,1,0,0:0:0:0:
448,192,54623,1,0,0:0:0:0:
64,192,54828,1,0,0:0:0:0:
320,192,54828,1,0,0:0:0:0:
448,192,54931,1,0,0:0:0:0:
320,192,55034,1,0,0:0:0:0:
64,192,55136,1,0,0:0:0:0:
192,192,55239,1,0,0:0:0:0:
448,192,55239,1,0,0:0:0:0:
320,192,55444,1,0,0:0:0:0:
192,192,55547,1,0,0:0:0:0:
64,192,55547,1,0,0:0:0:0:
448,192,55650,1,0,0:0:0:0:
320,192,55650,1,0,0:0:0:0:
320,192,55753,1,0,0:0:0:0:
192,192,55855,1,0,0:0:0:0:
64,192,55855,1,0,0:0:0:0:
448,192,56061,128,0,56266:0:0:0:0:
320,192,56061,1,0,0:0:0:0:
64,192,56266,1,0,0:0:0:0:
192,192,56369,1,0,0:0:0:0:
320,192,56472,1,0,0:0:0:0:
448,192,56472,1,0,0:0:0:0:
64,192,56677,1,0,0:0:0:0:
192,192,56677,1,0,0:0:0:0:
448,192,56883,1,0,0:0:0:0:
64,192,56883,1,0,0:0:0:0:
192,192,56986,1,0,0:0:0:0:
320,192,57088,1,0,0:0:0:0:
448,192,57088,1,0,0:0:0:0:
64,192,57191,1,0,0:0:0:0:
192,192,57294,1,0,0:0:0:0:
448,192,57294,1,0,0:0:0:0:
64,192,57397,1,0,0:0:0:0:
320,192,57397,1,0,0:0:0:0:
192,192,57499,1,0,0:0:0:0:
448,192,57499,1,0,0:0:0:0:
64,192,57602,1,0,0:0:0:0:
320,192,57602,1,0,0:0:0:0:
192,192,57705,128,0,58116:0:0:0:0:
448,192,57705,1,0,0:0:0:0:
320,192,57910,1,0,0:0:0:0:
64,192,58013,1,0,0:0:0:0:
448,192,58116,1,0,0:0:0:0:
320,192,58116,1,0,0:0:0:0:
64,192,58321,1,0,0:0:0:0:
192,192,58424,1,0,0:0:0:0:
320,192,58527,1,0,0:0:0:0:
448,192,58527,1,0,0:0:0:0:
192,192,58732,1,0,0:0:0:0:
64,192,58835,1,0,0:0:0:0:
320,192,58835,1,0,0:0:0:0:
192,192,58938,1,0,0:0:0:0:
448,192,58938,1,0,0:0:0:0:
192,192,59040,1,0,0:0:0:0:
320,192,59143,1,0,0:0:0:0:
64,192,59143,1,0,0:0:0:0:
448,192,59349,128,0,59554:0:0:0:0:
320,192,59349,128,0,59554:0:0:0:0:
64,192,59554,1,0,0:0:0:0:
192,192,59554,1,0,0:0:0:0:
192,192,59760,1,0,0:0:0:0:
448,192,59760,1,0,0:0:0:0:
320,192,59862,1,0,0:0:0:0:
192,192,59965,1,0,0:0:0:0:
64,192,60068,1,0,0:0:0:0:
320,192,60170,1,0,0:0:0:0:
448,192,60170,1,0,0:0:0:0:
192,192,60273,1,0,0:0:0:0:
64,192,60273,1,0,0:0:0:0:
320,192,60376,1,0,0:0:0:0:
448,192,60376,1,0,0:0:0:0:
64,192,60479,1,0,0:0:0:0:
192,192,60581,1,0,0:0:0:0:
448,192,60581,1,0,0:0:0:0:
64,192,60787,1,0,0:0:0:0:
320,192,60787,1,0,0:0:0:0:
192,192,60992,128,0,61198:0:0:0:0:
448,192,60992,128,0,61198:0:0:0:0:
320,192,61198,1,0,0:0:0:0:
64,192,61198,1,0,0:0:0:0:
448,192,61403,1,0,0:0:0:0:
64,192,61403,1,0,0:0:0:0:
192,192,61506,1,0,0:0:0:0:
448,192,61609,1,0,0:0:0:0:
320,192,61712,1,0,0:0:0:0:
192,192,61814,1,0,0:0:0:0:
64,192,61814,1,0,0:0:0:0:
320,192,62020,1,0,0:0:0:0:
448,192,62123,1,0,0:0:0:0:
192,192,62123,1,0,0:0:0:0:
64,192,62225,1,0,0:0:0:0:
320,192,62225,1,0,0:0:0:0:
320,192,62328,1,0,0:0:0:0:
448,192,62431,1,0,0:0:0:0:
192,192,62431,1,0,0:0:0:0:
64,192,62636,128,0,63047:0:0:0:0:
192,192,62636,128,0,62944:0:0:0:0:
320,192,62944,1,0,0:0:0:0:
448,192,63047,1,0,0:0:0:0:
320,192,63253,1,0,0:0:0:0:
64,192,63355,1,0,0:0:0:0:
320,192,63458,1,0,0:0:0:0:
448,192,63458,1,0,0:0:0:0:
192,192,63561,1,0,0:0:0:0:
64,192,63664,1,0,0:0:0:0:
320,192,63664,1,0,0:0:0:0:
448,192,63766,1,0,0:0:0:0:
192,192,63869,1,0,0:0:0:0:
64,192,63869,1,0,0:0:0:0:
320,192,63972,1,0,0:0:0:0:
448,192,63972,1,0,0:0:0:0:
64,192,64075,1,0,0:0:0:0:
192,192,64075,1,0,0:0:0:0:
320,192,64177,1,0,0:0:0:0:
448,192,64177,1,0,0:0:0:0:
64,192,64280,1,0,0:0:0:0:
192,192,64280,1,0,0:0:0:0:
448,192,64280,1,0,0:0:0:0:
320,192,64486,128,0,64691:0:0:0:0:
64,192,64486,1,0,0:0:0:0:
192,192,64691,128,0,64897:0:0:0:0:
448,192,64691,1,0,0:0:0:0:
64,192,64897,128,0,65102:0:0:0:0:
320,192,64897,1,0,0:0:0:0:
448,192,65102,1,0,0:0:0:0:
320,192,65205,1,0,0:0:0:0:
192,192,65307,1,0,0:0:0:0:
64,192,65307,128,0,65513:0:0:0:0:
320,192,65513,128,0,65718:0:0:0:0:
448,192,65513,1,0,0:0:0:0:
192,192,65718,128,0,65924:0:0:0:0:
64,192,65718,1,0,0:0:0:0:
448,192,65924,1,0,0:0:0:0:
64,192,65924,1,0,0:0:0:0:
320,192,66129,128,0,66335:0:0:0:0:
192,192,66129,1,0,0:0:0:0:
64,192,66335,128,0,66540:0:0:0:0:
448,192,66335,1,0,0:0:0:0:
448,192,66540,128,0,66746:0:0:0:0:
192,192,66540,1,0,0:0:0:0:
320,192,66643,1,0,0:0:0:0:
64,192,66746,1,0,0:0:0:0:
192,192,66849,1,0,0:0:0:0:
320,192,66951,128,0,67157:0:0:0:0:
448,192,66951,1,0,0:0:0:0:
192,192,67157,128,0,67362:0:0:0:0:
64,192,67157,1,0,0:0:0:0:
64,192,67362,128,0,67568:0:0:0:0:
448,192,67362,1,0,0:0:0:0:
448,192,67568,1,0,0:0:0:0:
192,192,67568,1,0,0:0:0:0:
192,192,67773,128,0,67979:0:0:0:0:
320,192,67773,1,0,0:0:0:0:
448,192,67979,128,0,68184:0:0:0:0:
64,192,67979,1,0,0:0:0:0:
320,192,68184,128,0,68390:0:0:0:0:
192,192,68184,1,0,0:0:0:0:
64,192,68390,1,0,0:0:0:0:
192,192,68595,128,0,68801:0:0:0:0:
448,192,68595,1,0,0:0:0:0:
320,192,68801,128,0,69006:0:0:0:0:
64,192,68801,1,0,0:0:0:0:
448,192,69006,128,0,69212:0:0:0:0:
192,192,69006,1,0,0:0:0:0:
64,192,69212,128,0,69417:0:0:0:0:
320,192,69212,1,0,0:0:0:0:
192,192,69417,1,0,0:0:0:0:
320,192,69520,1,0,0:0:0:0:
448,192,69623,1,0,0:0:0:0:
192,192,69623,1,0,0:0:0:0:
320,192,69828,1,0,0:0:0:0:
64,192,69828,1,0,0:0:0:0:
192,192,70034,1,0,0:0:0:0:
64,192,70034,1,0,0:0:0:0:
320,192,70136,1,0,0:0:0:0:
448,192,70239,1,0,0:0:0:0:
192,192,70239,1,0,0:0:0:0:
320,192,70342,1,0,0:0:0:0:
64,192,70444,1,0,0:0:0:0:
448,192,70444,1,0,0:0:0:0:
320,192,70547,1,0,0:0:0:0:
192,192,70547,1,0,0:0:0:0:
64,192,70650,1,0,0:0:0:0:
448,192,70650,1,0,0:0:0:0:
320,192,70753,1,0,0:0:0:0:
192,192,70753,1,0,0:0:0:0:
448,192,70855,128,0,71266:0:0:0:0:
64,192,70855,1,0,0:0:0:0:
192,192,71061,128,0,71266:0:0:0:0:
320,192,71061,1,0,0:0:0:0:
64,192,71164,1,0,0:0:0:0:
320,192,71266,128,0,71472:0:0:0:0:
64,192,71472,128,0,71677:0:0:0:0:
448,192,71472,1,0,0:0:0:0:
192,192,71677,1,0,0:0:0:0:
448,192,71780,1,0,0:0:0:0:
320,192,71883,1,0,0:0:0:0:
64,192,71883,128,0,72088:0:0:0:0:
192,192,72088,128,0,72294:0:0:0:0:
448,192,72088,1,0,0:0:0:0:
448,192,72294,128,0,72499:0:0:0:0:
320,192,72294,1,0,0:0:0:0:
64,192,72499,1,0,0:0:0:0:
192,192,72499,1,0,0:0:0:0:
320,192,72705,128,0,72910:0:0:0:0:
448,192,72705,1,0,0:0:0:0:
64,192,72910,128,0,73116:0:0:0:0:
192,192,72910,1,0,0:0:0:0:
448,192,73116,128,0,73321:0:0:0:0:
320,192,73116,1,0,0:0:0:0:
64,192,73321,1,0,0:0:0:0:
192,192,73424,1,0,0:0:0:0:
320,192,73527,1,0,0:0:0:0:
64,192,73527,128,0,73732:0:0:0:0:
448,192,73629,1,0,0:0:0:0:
320,192,73732,1,0,0:0:0:0:
192,192,73732,128,0,73938:0:0:0:0:
320,192,73938,128,0,74143:0:0:0:0:
448,192,73938,1,0,0:0:0:0:
64,192,74143,1,0,0:0:0:0:
192,192,74143,1,0,0:0:0:0:
448,192,74349,128,0,74554:0:0:0:0:
64,192,74349,1,0,0:0:0:0:
192,192,74554,128,0,74760:0:0:0:0:
320,192,74554,1,0,0:0:0:0:
320,192,74760,128,0,74965:0:0:0:0:
64,192,74760,1,0,0:0:0:0:
448,192,74965,1,0,0:0:0:0:
192,192,75171,128,0,75376:0:0:0:0:
64,192,75171,1,0,0:0:0:0:
64,192,75376,128,0,75581:0:0:0:0:
320,192,75376,1,0,0:0:0:0:
448,192,75581,128,0,75787:0:0:0:0:
192,192,75581,1,0,0:0:0:0:
64,192,75787,128,0,76198:0:0:0:0:
320,192,75787,128,0,76095:0:0:0:0:
192,192,76095,1,0,0:0:0:0:
448,192,76198,1,0,0:0:0:0:
192,192,76403,1,0,0:0:0:0:
448,192,76506,1,0,0:0:0:0:
192,192,76609,1,0,0:0:0:0:
64,192,76609,1,0,0:0:0:0:
448,192,76712,1,0,0:0:0:0:
320,192,76814,1,0,0:0:0:0:
64,192,76814,1,0,0:0:0:0:
192,192,76917,1,0,0:0:0:0:
448,192,77020,1,0,0:0:0:0:
320,192,77020,1,0,0:0:0:0:
192,192,77123,1,0,0:0:0:0:
64,192,77123,1,0,0:0:0:0:
320,192,77225,1,0,0:0:0:0:
448,192,77225,1,0,0:0:0:0:
192,192,77328,1,0,0:0:0:0:
64,192,77328,1,0,0:0:0:0:
448,192,77431,1,0,0:0:0:0:
64,192,77431,1,0,0:0:0:0:
320,192,77431,1,0,0:0:0:0:
