osu file format v14

[General]
AudioFilename: 5min.mp3
AudioLeadIn: 0
PreviewTime: -1
Countdown: 0
SampleSet: None
StackLeniency: 0.7
Mode: 3
LetterboxInBreaks: 0
SpecialStyle: 0
WidescreenStoryboard: 1

[Editor]
DistanceSpacing: 0.8
BeatDivisor: 2
GridSize: 16
TimelineZoom: 1

[Metadata]
Title:VSRG Pattern Training
TitleUnicode:VSRG Pattern Training
Artist:
ArtistUnicode:
Creator:iJinjin
Version:LN Shields 1.75x
Source:
Tags:
BeatmapID:754638
BeatmapSetID:341207

[Difficulty]
HPDrainRate:7
CircleSize:7
OverallDifficulty:0
ApproachRate:5
SliderMultiplier:1.4
SliderTickRate:1

[Events]
//Background and Video events
0,0,"vsrg practice wallpaper.jpg",0,0
//Break Periods
//Storyboard Layer 0 (Background)
//Storyboard Layer 1 (Fail)
//Storyboard Layer 2 (Pass)
//Storyboard Layer 3 (Foreground)
//Storyboard Sound Samples

[TimingPoints]
0,244.897959183673,4,2,0,5,1,0

[HitObjects]
36,192,0,5,0,0:0:0:0:
109,192,244,1,0,0:0:0:0:
36,192,244,128,0,1469:0:0:0:0:
182,192,489,1,0,0:0:0:0:
109,192,489,128,0,1714:0:0:0:0:
256,192,734,1,0,0:0:0:0:
182,192,734,128,0,1959:0:0:0:0:
329,192,979,1,0,0:0:0:0:
256,192,979,128,0,2204:0:0:0:0:
402,192,1224,1,0,0:0:0:0:
329,192,1224,128,0,2448:0:0:0:0:
475,192,1469,1,0,0:0:0:0:
402,192,1469,128,0,2693:0:0:0:0:
36,192,1714,1,0,0:0:0:0:
109,192,1959,1,0,0:0:0:0:
36,192,1959,128,0,3183:0:0:0:0:
182,192,2204,1,0,0:0:0:0:
109,192,2204,128,0,3428:0:0:0:0:
256,192,2448,1,0,0:0:0:0:
182,192,2448,128,0,3673:0:0:0:0:
329,192,2693,1,0,0:0:0:0:
256,192,2693,128,0,3918:0:0:0:0:
402,192,2938,1,0,0:0:0:0:
329,192,2938,128,0,4163:0:0:0:0:
475,192,3183,1,0,0:0:0:0:
402,192,3183,128,0,4408:0:0:0:0:
36,192,3428,1,0,0:0:0:0:
475,192,3428,128,0,4653:0:0:0:0:
109,192,3673,1,0,0:0:0:0:
182,192,3918,1,0,0:0:0:0:
256,192,4163,1,0,0:0:0:0:
329,192,4408,1,0,0:0:0:0:
402,192,4653,1,0,0:0:0:0:
475,192,4897,1,0,0:0:0:0:
402,192,5142,1,0,0:0:0:0:
475,192,5142,128,0,6367:0:0:0:0:
329,192,5387,1,0,0:0:0:0:
402,192,5387,128,0,6612:0:0:0:0:
256,192,5632,1,0,0:0:0:0:
329,192,5632,128,0,6857:0:0:0:0:
182,192,5877,1,0,0:0:0:0:
256,192,5877,128,0,7102:0:0:0:0:
109,192,6122,1,0,0:0:0:0:
182,192,6122,128,0,7346:0:0:0:0:
36,192,6367,1,0,0:0:0:0:
109,192,6367,128,0,7591:0:0:0:0:
36,192,6612,128,0,7836:0:0:0:0:
475,192,6612,1,0,0:0:0:0:
402,192,6857,1,0,0:0:0:0:
475,192,6857,128,0,10285:0:0:0:0:
402,192,7102,128,0,10040:0:0:0:0:
329,192,7102,1,0,0:0:0:0:
256,192,7346,1,0,0:0:0:0:
329,192,7346,128,0,9795:0:0:0:0:
182,192,7591,1,0,0:0:0:0:
256,192,7591,128,0,9551:0:0:0:0:
109,192,7836,1,0,0:0:0:0:
182,192,7836,128,0,9306:0:0:0:0:
36,192,8081,1,0,0:0:0:0:
109,192,8081,128,0,9061:0:0:0:0:
36,192,8326,128,0,8816:0:0:0:0:
36,192,9061,1,0,0:0:0:0:
109,192,9306,1,0,0:0:0:0:
36,192,9306,128,0,10775:0:0:0:0:
182,192,9551,1,0,0:0:0:0:
109,192,9551,128,0,10775:0:0:0:0:
256,192,9795,1,0,0:0:0:0:
182,192,9795,128,0,10775:0:0:0:0:
329,192,10040,1,0,0:0:0:0:
256,192,10040,128,0,10775:0:0:0:0:
329,192,10285,128,0,10775:0:0:0:0:
402,192,10285,1,0,0:0:0:0:
475,192,10530,1,0,0:0:0:0:
402,192,10530,128,0,10775:0:0:0:0:
475,192,10775,128,0,11265:0:0:0:0:
402,192,11020,128,0,11510:0:0:0:0:
329,192,11265,128,0,11755:0:0:0:0:
256,192,11510,128,0,11999:0:0:0:0:
475,192,11510,1,0,0:0:0:0:
182,192,11755,128,0,12244:0:0:0:0:
402,192,11755,1,0,0:0:0:0:
475,192,11755,128,0,12244:0:0:0:0:
109,192,11999,128,0,12489:0:0:0:0:
329,192,11999,1,0,0:0:0:0:
402,192,11999,128,0,12489:0:0:0:0:
36,192,12244,128,0,12734:0:0:0:0:
256,192,12244,1,0,0:0:0:0:
329,192,12244,128,0,12734:0:0:0:0:
182,192,12489,1,0,0:0:0:0:
256,192,12489,128,0,12979:0:0:0:0:
475,192,12489,1,0,0:0:0:0:
109,192,12734,1,0,0:0:0:0:
182,192,12734,128,0,13224:0:0:0:0:
475,192,12734,128,0,13469:0:0:0:0:
402,192,12734,1,0,0:0:0:0:
36,192,12979,1,0,0:0:0:0:
109,192,12979,128,0,13469:0:0:0:0:
329,192,12979,1,0,0:0:0:0:
402,192,12979,128,0,13714:0:0:0:0:
36,192,13224,128,0,13714:0:0:0:0:
256,192,13224,1,0,0:0:0:0:
329,192,13224,128,0,13959:0:0:0:0:
182,192,13469,1,0,0:0:0:0:
256,192,13469,128,0,14204:0:0:0:0:
109,192,13714,1,0,0:0:0:0:
182,192,13714,128,0,14448:0:0:0:0:
475,192,13714,1,0,0:0:0:0:
36,192,13959,1,0,0:0:0:0:
109,192,13959,128,0,14693:0:0:0:0:
402,192,13959,1,0,0:0:0:0:
475,192,13959,128,0,14938:0:0:0:0:
36,192,14204,128,0,14938:0:0:0:0:
329,192,14204,1,0,0:0:0:0:
402,192,14204,128,0,15183:0:0:0:0:
256,192,14448,1,0,0:0:0:0:
329,192,14448,128,0,15428:0:0:0:0:
182,192,14693,1,0,0:0:0:0:
256,192,14693,128,0,15673:0:0:0:0:
109,192,14938,1,0,0:0:0:0:
182,192,14938,128,0,15918:0:0:0:0:
36,192,15183,1,0,0:0:0:0:
109,192,15183,128,0,16163:0:0:0:0:
475,192,15183,1,0,0:0:0:0:
36,192,15428,128,0,16408:0:0:0:0:
402,192,15428,1,0,0:0:0:0:
329,192,15673,1,0,0:0:0:0:
256,192,15918,1,0,0:0:0:0:
182,192,16163,1,0,0:0:0:0:
109,192,16408,1,0,0:0:0:0:
36,192,16653,1,0,0:0:0:0:
475,192,16653,1,0,0:0:0:0:
329,192,16897,1,0,0:0:0:0:
475,192,16897,128,0,18612:0:0:0:0:
402,192,17142,1,0,0:0:0:0:
329,192,17142,128,0,18612:0:0:0:0:
256,192,17387,1,0,0:0:0:0:
402,192,17387,128,0,18612:0:0:0:0:
36,192,17632,1,0,0:0:0:0:
256,192,17632,128,0,18612:0:0:0:0:
182,192,17877,1,0,0:0:0:0:
36,192,17877,128,0,18612:0:0:0:0:
109,192,18122,1,0,0:0:0:0:
182,192,18122,128,0,18612:0:0:0:0:
109,192,18367,128,0,18612:0:0:0:0:
36,192,18857,1,0,0:0:0:0:
182,192,19102,1,0,0:0:0:0:
36,192,19102,128,0,20816:0:0:0:0:
329,192,19346,1,0,0:0:0:0:
182,192,19346,128,0,20816:0:0:0:0:
475,192,19591,1,0,0:0:0:0:
329,192,19591,128,0,20816:0:0:0:0:
109,192,19836,1,0,0:0:0:0:
475,192,19836,128,0,20816:0:0:0:0:
256,192,20081,1,0,0:0:0:0:
109,192,20081,128,0,20816:0:0:0:0:
402,192,20326,1,0,0:0:0:0:
256,192,20326,128,0,20816:0:0:0:0:
402,192,20571,128,0,20816:0:0:0:0:
475,192,21061,1,0,0:0:0:0:
402,192,21306,1,0,0:0:0:0:
475,192,21306,128,0,23020:0:0:0:0:
182,192,21551,1,0,0:0:0:0:
402,192,21551,128,0,23020:0:0:0:0:
329,192,21795,1,0,0:0:0:0:
182,192,21795,128,0,23020:0:0:0:0:
109,192,22040,1,0,0:0:0:0:
329,192,22040,128,0,23020:0:0:0:0:
36,192,22285,1,0,0:0:0:0:
109,192,22285,128,0,23020:0:0:0:0:
256,192,22530,1,0,0:0:0:0:
36,192,22530,128,0,23020:0:0:0:0:
256,192,22775,128,0,23020:0:0:0:0:
36,192,23510,1,0,0:0:0:0:
109,192,23632,1,0,0:0:0:0:
36,192,23632,128,0,23999:0:0:0:0:
182,192,23755,1,0,0:0:0:0:
109,192,23755,128,0,24122:0:0:0:0:
182,192,23877,128,0,24244:0:0:0:0:
475,192,24489,1,0,0:0:0:0:
402,192,24612,1,0,0:0:0:0:
475,192,24612,128,0,24979:0:0:0:0:
329,192,24734,1,0,0:0:0:0:
402,192,24734,128,0,25102:0:0:0:0:
329,192,24857,128,0,25224:0:0:0:0:
109,192,25469,1,0,0:0:0:0:
182,192,25591,1,0,0:0:0:0:
109,192,25591,128,0,25959:0:0:0:0:
256,192,25714,1,0,0:0:0:0:
182,192,25714,128,0,26081:0:0:0:0:
256,192,25836,128,0,26204:0:0:0:0:
402,192,26448,1,0,0:0:0:0:
329,192,26571,1,0,0:0:0:0:
402,192,26571,128,0,26938:0:0:0:0:
256,192,26693,1,0,0:0:0:0:
329,192,26693,128,0,27061:0:0:0:0:
256,192,26816,128,0,27183:0:0:0:0:
182,192,27428,1,0,0:0:0:0:
256,192,27551,1,0,0:0:0:0:
182,192,27551,128,0,27918:0:0:0:0:
329,192,27673,1,0,0:0:0:0:
256,192,27673,128,0,28040:0:0:0:0:
329,192,27795,128,0,28163:0:0:0:0:
36,192,28408,1,0,0:0:0:0:
109,192,28530,1,0,0:0:0:0:
36,192,28530,128,0,29142:0:0:0:0:
182,192,28653,1,0,0:0:0:0:
109,192,28653,128,0,29265:0:0:0:0:
256,192,28775,1,0,0:0:0:0:
182,192,28775,128,0,29387:0:0:0:0:
329,192,28897,1,0,0:0:0:0:
256,192,28897,128,0,29510:0:0:0:0:
329,192,29020,128,0,29632:0:0:0:0:
36,192,29265,1,0,0:0:0:0:
109,192,29387,1,0,0:0:0:0:
182,192,29510,1,0,0:0:0:0:
256,192,29632,1,0,0:0:0:0:
329,192,29755,1,0,0:0:0:0:
475,192,30367,1,0,0:0:0:0:
402,192,30489,1,0,0:0:0:0:
475,192,30489,128,0,31102:0:0:0:0:
329,192,30612,1,0,0:0:0:0:
402,192,30612,128,0,31224:0:0:0:0:
256,192,30734,1,0,0:0:0:0:
329,192,30734,128,0,31346:0:0:0:0:
182,192,30857,1,0,0:0:0:0:
256,192,30857,128,0,31469:0:0:0:0:
182,192,30979,128,0,31591:0:0:0:0:
475,192,31224,1,0,0:0:0:0:
402,192,31346,1,0,0:0:0:0:
329,192,31469,1,0,0:0:0:0:
256,192,31591,1,0,0:0:0:0:
182,192,31714,1,0,0:0:0:0:
36,192,32326,1,0,0:0:0:0:
109,192,32448,1,0,0:0:0:0:
36,192,32448,128,0,33306:0:0:0:0:
182,192,32571,1,0,0:0:0:0:
109,192,32571,128,0,33428:0:0:0:0:
256,192,32693,1,0,0:0:0:0:
182,192,32693,128,0,33551:0:0:0:0:
329,192,32816,1,0,0:0:0:0:
256,192,32816,128,0,33673:0:0:0:0:
402,192,32938,1,0,0:0:0:0:
329,192,32938,128,0,33795:0:0:0:0:
475,192,33061,1,0,0:0:0:0:
402,192,33061,128,0,33918:0:0:0:0:
475,192,33183,128,0,34040:0:0:0:0:
36,192,33428,1,0,0:0:0:0:
109,192,33551,1,0,0:0:0:0:
182,192,33673,1,0,0:0:0:0:
256,192,33795,1,0,0:0:0:0:
329,192,33918,1,0,0:0:0:0:
402,192,34040,1,0,0:0:0:0:
475,192,34163,1,0,0:0:0:0:
36,192,34285,1,0,0:0:0:0:
109,192,34408,1,0,0:0:0:0:
36,192,34408,128,0,35020:0:0:0:0:
182,192,34530,1,0,0:0:0:0:
109,192,34530,128,0,34897:0:0:0:0:
182,192,34653,128,0,34775:0:0:0:0:
182,192,34897,1,0,0:0:0:0:
109,192,35020,1,0,0:0:0:0:
36,192,35142,1,0,0:0:0:0:
475,192,35265,1,0,0:0:0:0:
402,192,35387,1,0,0:0:0:0:
475,192,35387,128,0,36244:0:0:0:0:
329,192,35510,1,0,0:0:0:0:
402,192,35510,128,0,36367:0:0:0:0:
256,192,35632,1,0,0:0:0:0:
329,192,35632,128,0,36489:0:0:0:0:
182,192,35755,1,0,0:0:0:0:
256,192,35755,128,0,36612:0:0:0:0:
109,192,35877,1,0,0:0:0:0:
182,192,35877,128,0,36734:0:0:0:0:
36,192,35999,1,0,0:0:0:0:
109,192,35999,128,0,36857:0:0:0:0:
36,192,36122,128,0,36979:0:0:0:0:
475,192,36367,1,0,0:0:0:0:
402,192,36489,1,0,0:0:0:0:
329,192,36612,1,0,0:0:0:0:
256,192,36734,1,0,0:0:0:0:
182,192,36857,1,0,0:0:0:0:
109,192,36979,1,0,0:0:0:0:
36,192,37102,1,0,0:0:0:0:
475,192,37224,1,0,0:0:0:0:
329,192,37346,1,0,0:0:0:0:
475,192,37346,128,0,38204:0:0:0:0:
182,192,37469,1,0,0:0:0:0:
329,192,37469,128,0,38204:0:0:0:0:
36,192,37591,1,0,0:0:0:0:
182,192,37591,128,0,38204:0:0:0:0:
402,192,37714,1,0,0:0:0:0:
36,192,37714,128,0,38204:0:0:0:0:
256,192,37836,1,0,0:0:0:0:
402,192,37836,128,0,38204:0:0:0:0:
109,192,37959,1,0,0:0:0:0:
256,192,37959,128,0,38204:0:0:0:0:
109,192,38081,128,0,38204:0:0:0:0:
36,192,39183,1,0,0:0:0:0:
182,192,39306,1,0,0:0:0:0:
36,192,39306,128,0,40163:0:0:0:0:
329,192,39428,1,0,0:0:0:0:
182,192,39428,128,0,40163:0:0:0:0:
475,192,39551,1,0,0:0:0:0:
329,192,39551,128,0,40163:0:0:0:0:
109,192,39673,1,0,0:0:0:0:
475,192,39673,128,0,40163:0:0:0:0:
256,192,39795,1,0,0:0:0:0:
109,192,39795,128,0,40163:0:0:0:0:
402,192,39918,1,0,0:0:0:0:
256,192,39918,128,0,40163:0:0:0:0:
402,192,40040,128,0,40163:0:0:0:0:
475,192,41142,1,0,0:0:0:0:
329,192,41265,1,0,0:0:0:0:
475,192,41265,128,0,42122:0:0:0:0:
402,192,41387,1,0,0:0:0:0:
329,192,41387,128,0,42122:0:0:0:0:
256,192,41510,1,0,0:0:0:0:
402,192,41510,128,0,42122:0:0:0:0:
109,192,41632,1,0,0:0:0:0:
256,192,41632,128,0,42122:0:0:0:0:
182,192,41755,1,0,0:0:0:0:
109,192,41755,128,0,42122:0:0:0:0:
36,192,41877,1,0,0:0:0:0:
182,192,41877,128,0,42122:0:0:0:0:
36,192,41999,128,0,42122:0:0:0:0:
36,192,43102,1,0,0:0:0:0:
182,192,43224,1,0,0:0:0:0:
36,192,43224,128,0,44081:0:0:0:0:
109,192,43346,1,0,0:0:0:0:
182,192,43346,128,0,44081:0:0:0:0:
109,192,43469,128,0,44081:0:0:0:0:
256,192,43469,1,0,0:0:0:0:
402,192,43591,1,0,0:0:0:0:
256,192,43591,128,0,44081:0:0:0:0:
329,192,43714,1,0,0:0:0:0:
402,192,43714,128,0,44081:0:0:0:0:
475,192,43836,1,0,0:0:0:0:
329,192,43836,128,0,44081:0:0:0:0:
475,192,43959,128,0,44081:0:0:0:0:
36,192,45061,1,0,0:0:0:0:
475,192,45061,1,0,0:0:0:0:
109,192,45306,1,0,0:0:0:0:
402,192,45306,1,0,0:0:0:0:
36,192,45306,128,0,46040:0:0:0:0:
475,192,45306,128,0,46040:0:0:0:0:
182,192,45551,1,0,0:0:0:0:
329,192,45551,1,0,0:0:0:0:
109,192,45551,128,0,46285:0:0:0:0:
402,192,45551,128,0,46285:0:0:0:0:
256,192,45795,1,0,0:0:0:0:
182,192,45795,128,0,46530:0:0:0:0:
329,192,45795,128,0,46530:0:0:0:0:
256,192,46040,128,0,46775:0:0:0:0:
36,192,46285,1,0,0:0:0:0:
475,192,46285,1,0,0:0:0:0:
109,192,46530,1,0,0:0:0:0:
402,192,46530,1,0,0:0:0:0:
36,192,46530,128,0,47755:0:0:0:0:
475,192,46530,128,0,47755:0:0:0:0:
182,192,46775,1,0,0:0:0:0:
329,192,46775,1,0,0:0:0:0:
109,192,46775,128,0,47510:0:0:0:0:
402,192,46775,128,0,47510:0:0:0:0:
256,192,47020,1,0,0:0:0:0:
182,192,47020,128,0,47265:0:0:0:0:
329,192,47020,128,0,47265:0:0:0:0:
256,192,47265,128,0,48734:0:0:0:0:
182,192,47510,1,0,0:0:0:0:
329,192,47510,1,0,0:0:0:0:
109,192,47755,1,0,0:0:0:0:
402,192,47755,1,0,0:0:0:0:
182,192,47755,128,0,48489:0:0:0:0:
329,192,47755,128,0,48489:0:0:0:0:
36,192,47999,1,0,0:0:0:0:
475,192,47999,1,0,0:0:0:0:
109,192,47999,128,0,48244:0:0:0:0:
402,192,47999,128,0,48244:0:0:0:0:
36,192,48244,128,0,48979:0:0:0:0:
475,192,48244,128,0,48979:0:0:0:0:
109,192,48489,1,0,0:0:0:0:
402,192,48489,1,0,0:0:0:0:
182,192,48734,1,0,0:0:0:0:
329,192,48734,1,0,0:0:0:0:
109,192,48734,128,0,49224:0:0:0:0:
402,192,48734,128,0,49224:0:0:0:0:
256,192,48979,1,0,0:0:0:0:
182,192,48979,128,0,49469:0:0:0:0:
329,192,48979,128,0,49469:0:0:0:0:
256,192,49224,128,0,49714:0:0:0:0:
36,192,49959,1,0,0:0:0:0:
182,192,49959,1,0,0:0:0:0:
109,192,50204,1,0,0:0:0:0:
256,192,50204,1,0,0:0:0:0:
36,192,50204,128,0,50938:0:0:0:0:
182,192,50204,128,0,50448:0:0:0:0:
329,192,50448,1,0,0:0:0:0:
475,192,50448,1,0,0:0:0:0:
109,192,50448,128,0,50693:0:0:0:0:
256,192,50448,128,0,50693:0:0:0:0:
182,192,50693,1,0,0:0:0:0:
402,192,50693,1,0,0:0:0:0:
329,192,50693,128,0,50938:0:0:0:0:
475,192,50693,128,0,51428:0:0:0:0:
256,192,50938,1,0,0:0:0:0:
109,192,50938,1,0,0:0:0:0:
402,192,50938,128,0,51183:0:0:0:0:
182,192,50938,128,0,51183:0:0:0:0:
36,192,51183,1,0,0:0:0:0:
329,192,51183,1,0,0:0:0:0:
109,192,51183,128,0,51673:0:0:0:0:
256,192,51183,128,0,51428:0:0:0:0:
182,192,51428,1,0,0:0:0:0:
402,192,51428,1,0,0:0:0:0:
36,192,51428,128,0,51918:0:0:0:0:
329,192,51428,128,0,51673:0:0:0:0:
256,192,51673,1,0,0:0:0:0:
475,192,51673,1,0,0:0:0:0:
182,192,51673,128,0,52163:0:0:0:0:
402,192,51673,128,0,52163:0:0:0:0:
109,192,51918,1,0,0:0:0:0:
329,192,51918,1,0,0:0:0:0:
475,192,51918,128,0,52653:0:0:0:0:
36,192,52163,1,0,0:0:0:0:
256,192,52163,1,0,0:0:0:0:
109,192,52163,128,0,52408:0:0:0:0:
329,192,52163,128,0,52408:0:0:0:0:
182,192,52408,1,0,0:0:0:0:
402,192,52408,1,0,0:0:0:0:
256,192,52408,128,0,52653:0:0:0:0:
36,192,52408,128,0,52897:0:0:0:0:
329,192,52653,1,0,0:0:0:0:
109,192,52653,1,0,0:0:0:0:
182,192,52653,128,0,52897:0:0:0:0:
402,192,52653,128,0,52897:0:0:0:0:
475,192,52897,1,0,0:0:0:0:
256,192,52897,128,0,54857:0:0:0:0:
36,192,53142,1,0,0:0:0:0:
475,192,53142,1,0,0:0:0:0:
109,192,53265,1,0,0:0:0:0:
402,192,53265,1,0,0:0:0:0:
36,192,53265,128,0,53877:0:0:0:0:
475,192,53265,128,0,53877:0:0:0:0:
182,192,53387,1,0,0:0:0:0:
329,192,53387,1,0,0:0:0:0:
109,192,53387,128,0,53755:0:0:0:0:
402,192,53387,128,0,53755:0:0:0:0:
182,192,53510,128,0,53632:0:0:0:0:
329,192,53510,128,0,53632:0:0:0:0:
182,192,53755,1,0,0:0:0:0:
329,192,53755,1,0,0:0:0:0:
109,192,53877,1,0,0:0:0:0:
402,192,53877,1,0,0:0:0:0:
36,192,53999,1,0,0:0:0:0:
475,192,53999,1,0,0:0:0:0:
