osu file format v14

[General]
AudioFilename: 5min.mp3
AudioLeadIn: 0
PreviewTime: -1
Countdown: 0
SampleSet: None
StackLeniency: 0.7
Mode: 3
LetterboxInBreaks: 0
SpecialStyle: 0
WidescreenStoryboard: 1

[Editor]
DistanceSpacing: 0.8
BeatDivisor: 2
GridSize: 16
TimelineZoom: 1

[Metadata]
Title:VSRG Pattern Training
TitleUnicode:VSRG Pattern Training
Artist:
ArtistUnicode:
Creator:iJinjin
Version:LN Shields 1.30x
Source:
Tags:
BeatmapID:754474
BeatmapSetID:341207

[Difficulty]
HPDrainRate:7
CircleSize:7
OverallDifficulty:0
ApproachRate:5
SliderMultiplier:1.4
SliderTickRate:1

[Events]
//Background and Video events
0,0,"vsrg practice wallpaper.jpg",0,0
//Break Periods
//Storyboard Layer 0 (Background)
//Storyboard Layer 1 (Fail)
//Storyboard Layer 2 (Pass)
//Storyboard Layer 3 (Foreground)
//Storyboard Sound Samples

[TimingPoints]
0,329.67032967033,4,2,0,5,1,0

[HitObjects]
36,192,0,5,0,0:0:0:0:
109,192,329,1,0,0:0:0:0:
36,192,329,128,0,1978:0:0:0:0:
182,192,659,1,0,0:0:0:0:
109,192,659,128,0,2307:0:0:0:0:
256,192,989,1,0,0:0:0:0:
182,192,989,128,0,2637:0:0:0:0:
329,192,1318,1,0,0:0:0:0:
256,192,1318,128,0,2967:0:0:0:0:
402,192,1648,1,0,0:0:0:0:
329,192,1648,128,0,3296:0:0:0:0:
475,192,1978,1,0,0:0:0:0:
402,192,1978,128,0,3626:0:0:0:0:
36,192,2307,1,0,0:0:0:0:
109,192,2637,1,0,0:0:0:0:
36,192,2637,128,0,4285:0:0:0:0:
182,192,2967,1,0,0:0:0:0:
109,192,2967,128,0,4615:0:0:0:0:
256,192,3296,1,0,0:0:0:0:
182,192,3296,128,0,4945:0:0:0:0:
329,192,3626,1,0,0:0:0:0:
256,192,3626,128,0,5274:0:0:0:0:
402,192,3956,1,0,0:0:0:0:
329,192,3956,128,0,5604:0:0:0:0:
475,192,4285,1,0,0:0:0:0:
402,192,4285,128,0,5934:0:0:0:0:
36,192,4615,1,0,0:0:0:0:
475,192,4615,128,0,6263:0:0:0:0:
109,192,4945,1,0,0:0:0:0:
182,192,5274,1,0,0:0:0:0:
256,192,5604,1,0,0:0:0:0:
329,192,5934,1,0,0:0:0:0:
402,192,6263,1,0,0:0:0:0:
475,192,6593,1,0,0:0:0:0:
402,192,6923,1,0,0:0:0:0:
475,192,6923,128,0,8571:0:0:0:0:
329,192,7252,1,0,0:0:0:0:
402,192,7252,128,0,8901:0:0:0:0:
256,192,7582,1,0,0:0:0:0:
329,192,7582,128,0,9230:0:0:0:0:
182,192,7912,1,0,0:0:0:0:
256,192,7912,128,0,9560:0:0:0:0:
109,192,8241,1,0,0:0:0:0:
182,192,8241,128,0,9890:0:0:0:0:
36,192,8571,1,0,0:0:0:0:
109,192,8571,128,0,10219:0:0:0:0:
36,192,8901,128,0,10549:0:0:0:0:
475,192,8901,1,0,0:0:0:0:
402,192,9230,1,0,0:0:0:0:
475,192,9230,128,0,13846:0:0:0:0:
329,192,9560,1,0,0:0:0:0:
402,192,9560,128,0,13516:0:0:0:0:
256,192,9890,1,0,0:0:0:0:
329,192,9890,128,0,13186:0:0:0:0:
182,192,10219,1,0,0:0:0:0:
256,192,10219,128,0,12857:0:0:0:0:
109,192,10549,1,0,0:0:0:0:
182,192,10549,128,0,12527:0:0:0:0:
36,192,10879,1,0,0:0:0:0:
109,192,10879,128,0,12197:0:0:0:0:
36,192,11208,128,0,11868:0:0:0:0:
36,192,12197,1,0,0:0:0:0:
109,192,12527,1,0,0:0:0:0:
36,192,12527,128,0,14505:0:0:0:0:
182,192,12857,1,0,0:0:0:0:
109,192,12857,128,0,14505:0:0:0:0:
256,192,13186,1,0,0:0:0:0:
182,192,13186,128,0,14505:0:0:0:0:
329,192,13516,1,0,0:0:0:0:
256,192,13516,128,0,14505:0:0:0:0:
329,192,13846,128,0,14505:0:0:0:0:
402,192,13846,1,0,0:0:0:0:
475,192,14175,1,0,0:0:0:0:
402,192,14175,128,0,14505:0:0:0:0:
475,192,14505,128,0,15164:0:0:0:0:
402,192,14835,128,0,15494:0:0:0:0:
329,192,15164,128,0,15824:0:0:0:0:
256,192,15494,128,0,16153:0:0:0:0:
475,192,15494,1,0,0:0:0:0:
182,192,15824,128,0,16483:0:0:0:0:
402,192,15824,1,0,0:0:0:0:
475,192,15824,128,0,16483:0:0:0:0:
109,192,16153,128,0,16813:0:0:0:0:
329,192,16153,1,0,0:0:0:0:
402,192,16153,128,0,16813:0:0:0:0:
36,192,16483,128,0,17142:0:0:0:0:
256,192,16483,1,0,0:0:0:0:
329,192,16483,128,0,17142:0:0:0:0:
182,192,16813,1,0,0:0:0:0:
256,192,16813,128,0,17472:0:0:0:0:
475,192,16813,1,0,0:0:0:0:
109,192,17142,1,0,0:0:0:0:
182,192,17142,128,0,17802:0:0:0:0:
475,192,17142,128,0,18131:0:0:0:0:
402,192,17142,1,0,0:0:0:0:
36,192,17472,1,0,0:0:0:0:
109,192,17472,128,0,18131:0:0:0:0:
329,192,17472,1,0,0:0:0:0:
402,192,17472,128,0,18461:0:0:0:0:
36,192,17802,128,0,18461:0:0:0:0:
256,192,17802,1,0,0:0:0:0:
329,192,17802,128,0,18791:0:0:0:0:
182,192,18131,1,0,0:0:0:0:
256,192,18131,128,0,19120:0:0:0:0:
109,192,18461,1,0,0:0:0:0:
182,192,18461,128,0,19450:0:0:0:0:
475,192,18461,1,0,0:0:0:0:
36,192,18791,1,0,0:0:0:0:
109,192,18791,128,0,19780:0:0:0:0:
402,192,18791,1,0,0:0:0:0:
475,192,18791,128,0,20109:0:0:0:0:
36,192,19120,128,0,20109:0:0:0:0:
329,192,19120,1,0,0:0:0:0:
402,192,19120,128,0,20439:0:0:0:0:
256,192,19450,1,0,0:0:0:0:
329,192,19450,128,0,20769:0:0:0:0:
182,192,19780,1,0,0:0:0:0:
256,192,19780,128,0,21098:0:0:0:0:
109,192,20109,1,0,0:0:0:0:
182,192,20109,128,0,21428:0:0:0:0:
36,192,20439,1,0,0:0:0:0:
109,192,20439,128,0,21758:0:0:0:0:
475,192,20439,1,0,0:0:0:0:
36,192,20769,128,0,22087:0:0:0:0:
402,192,20769,1,0,0:0:0:0:
329,192,21098,1,0,0:0:0:0:
256,192,21428,1,0,0:0:0:0:
182,192,21758,1,0,0:0:0:0:
109,192,22087,1,0,0:0:0:0:
36,192,22417,1,0,0:0:0:0:
475,192,22417,1,0,0:0:0:0:
329,192,22747,1,0,0:0:0:0:
475,192,22747,128,0,25054:0:0:0:0:
402,192,23076,1,0,0:0:0:0:
329,192,23076,128,0,25054:0:0:0:0:
256,192,23406,1,0,0:0:0:0:
402,192,23406,128,0,25054:0:0:0:0:
36,192,23736,1,0,0:0:0:0:
256,192,23736,128,0,25054:0:0:0:0:
182,192,24065,1,0,0:0:0:0:
36,192,24065,128,0,25054:0:0:0:0:
109,192,24395,1,0,0:0:0:0:
182,192,24395,128,0,25054:0:0:0:0:
109,192,24725,128,0,25054:0:0:0:0:
36,192,25384,1,0,0:0:0:0:
182,192,25714,1,0,0:0:0:0:
36,192,25714,128,0,28021:0:0:0:0:
329,192,26043,1,0,0:0:0:0:
182,192,26043,128,0,28021:0:0:0:0:
475,192,26373,1,0,0:0:0:0:
329,192,26373,128,0,28021:0:0:0:0:
109,192,26703,1,0,0:0:0:0:
475,192,26703,128,0,28021:0:0:0:0:
256,192,27032,1,0,0:0:0:0:
109,192,27032,128,0,28021:0:0:0:0:
402,192,27362,1,0,0:0:0:0:
256,192,27362,128,0,28021:0:0:0:0:
402,192,27692,128,0,28021:0:0:0:0:
475,192,28351,1,0,0:0:0:0:
402,192,28681,1,0,0:0:0:0:
475,192,28681,128,0,30989:0:0:0:0:
182,192,29010,1,0,0:0:0:0:
402,192,29010,128,0,30989:0:0:0:0:
329,192,29340,1,0,0:0:0:0:
182,192,29340,128,0,30989:0:0:0:0:
109,192,29670,1,0,0:0:0:0:
329,192,29670,128,0,30989:0:0:0:0:
36,192,30000,1,0,0:0:0:0:
109,192,30000,128,0,30989:0:0:0:0:
256,192,30329,1,0,0:0:0:0:
36,192,30329,128,0,30989:0:0:0:0:
256,192,30659,128,0,30989:0:0:0:0:
36,192,31648,1,0,0:0:0:0:
109,192,31813,1,0,0:0:0:0:
36,192,31813,128,0,32307:0:0:0:0:
182,192,31978,1,0,0:0:0:0:
109,192,31978,128,0,32472:0:0:0:0:
182,192,32142,128,0,32637:0:0:0:0:
475,192,32967,1,0,0:0:0:0:
402,192,33131,1,0,0:0:0:0:
475,192,33131,128,0,33626:0:0:0:0:
329,192,33296,1,0,0:0:0:0:
402,192,33296,128,0,33791:0:0:0:0:
329,192,33461,128,0,33956:0:0:0:0:
109,192,34285,1,0,0:0:0:0:
182,192,34450,1,0,0:0:0:0:
109,192,34450,128,0,34945:0:0:0:0:
256,192,34615,1,0,0:0:0:0:
182,192,34615,128,0,35109:0:0:0:0:
256,192,34780,128,0,35274:0:0:0:0:
402,192,35604,1,0,0:0:0:0:
329,192,35769,1,0,0:0:0:0:
402,192,35769,128,0,36263:0:0:0:0:
256,192,35934,1,0,0:0:0:0:
329,192,35934,128,0,36428:0:0:0:0:
256,192,36098,128,0,36593:0:0:0:0:
182,192,36923,1,0,0:0:0:0:
256,192,37087,1,0,0:0:0:0:
182,192,37087,128,0,37582:0:0:0:0:
329,192,37252,1,0,0:0:0:0:
256,192,37252,128,0,37747:0:0:0:0:
329,192,37417,128,0,37912:0:0:0:0:
36,192,38241,1,0,0:0:0:0:
109,192,38406,1,0,0:0:0:0:
36,192,38406,128,0,39230:0:0:0:0:
182,192,38571,1,0,0:0:0:0:
109,192,38571,128,0,39395:0:0:0:0:
256,192,38736,1,0,0:0:0:0:
182,192,38736,128,0,39560:0:0:0:0:
329,192,38901,1,0,0:0:0:0:
256,192,38901,128,0,39725:0:0:0:0:
329,192,39065,128,0,39890:0:0:0:0:
36,192,39395,1,0,0:0:0:0:
109,192,39560,1,0,0:0:0:0:
182,192,39725,1,0,0:0:0:0:
256,192,39890,1,0,0:0:0:0:
329,192,40054,1,0,0:0:0:0:
475,192,40879,1,0,0:0:0:0:
402,192,41043,1,0,0:0:0:0:
475,192,41043,128,0,41868:0:0:0:0:
329,192,41208,1,0,0:0:0:0:
402,192,41208,128,0,42032:0:0:0:0:
256,192,41373,1,0,0:0:0:0:
329,192,41373,128,0,42197:0:0:0:0:
182,192,41538,1,0,0:0:0:0:
256,192,41538,128,0,42362:0:0:0:0:
182,192,41703,128,0,42527:0:0:0:0:
475,192,42032,1,0,0:0:0:0:
402,192,42197,1,0,0:0:0:0:
329,192,42362,1,0,0:0:0:0:
256,192,42527,1,0,0:0:0:0:
182,192,42692,1,0,0:0:0:0:
36,192,43516,1,0,0:0:0:0:
109,192,43681,1,0,0:0:0:0:
36,192,43681,128,0,44835:0:0:0:0:
182,192,43846,1,0,0:0:0:0:
109,192,43846,128,0,45000:0:0:0:0:
256,192,44010,1,0,0:0:0:0:
182,192,44010,128,0,45164:0:0:0:0:
329,192,44175,1,0,0:0:0:0:
256,192,44175,128,0,45329:0:0:0:0:
402,192,44340,1,0,0:0:0:0:
329,192,44340,128,0,45494:0:0:0:0:
475,192,44505,1,0,0:0:0:0:
402,192,44505,128,0,45659:0:0:0:0:
475,192,44670,128,0,45824:0:0:0:0:
36,192,45000,1,0,0:0:0:0:
109,192,45164,1,0,0:0:0:0:
182,192,45329,1,0,0:0:0:0:
256,192,45494,1,0,0:0:0:0:
329,192,45659,1,0,0:0:0:0:
402,192,45824,1,0,0:0:0:0:
475,192,45989,1,0,0:0:0:0:
36,192,46153,1,0,0:0:0:0:
109,192,46318,1,0,0:0:0:0:
36,192,46318,128,0,47142:0:0:0:0:
182,192,46483,1,0,0:0:0:0:
109,192,46483,128,0,46978:0:0:0:0:
182,192,46648,128,0,46813:0:0:0:0:
182,192,46978,1,0,0:0:0:0:
109,192,47142,1,0,0:0:0:0:
36,192,47307,1,0,0:0:0:0:
475,192,47472,1,0,0:0:0:0:
402,192,47637,1,0,0:0:0:0:
475,192,47637,128,0,48791:0:0:0:0:
329,192,47802,1,0,0:0:0:0:
402,192,47802,128,0,48956:0:0:0:0:
256,192,47967,1,0,0:0:0:0:
329,192,47967,128,0,49120:0:0:0:0:
182,192,48131,1,0,0:0:0:0:
256,192,48131,128,0,49285:0:0:0:0:
109,192,48296,1,0,0:0:0:0:
182,192,48296,128,0,49450:0:0:0:0:
36,192,48461,1,0,0:0:0:0:
109,192,48461,128,0,49615:0:0:0:0:
36,192,48626,128,0,49780:0:0:0:0:
475,192,48956,1,0,0:0:0:0:
402,192,49120,1,0,0:0:0:0:
329,192,49285,1,0,0:0:0:0:
256,192,49450,1,0,0:0:0:0:
182,192,49615,1,0,0:0:0:0:
109,192,49780,1,0,0:0:0:0:
36,192,49945,1,0,0:0:0:0:
475,192,50109,1,0,0:0:0:0:
329,192,50274,1,0,0:0:0:0:
475,192,50274,128,0,51428:0:0:0:0:
182,192,50439,1,0,0:0:0:0:
329,192,50439,128,0,51428:0:0:0:0:
36,192,50604,1,0,0:0:0:0:
182,192,50604,128,0,51428:0:0:0:0:
402,192,50769,1,0,0:0:0:0:
36,192,50769,128,0,51428:0:0:0:0:
256,192,50934,1,0,0:0:0:0:
402,192,50934,128,0,51428:0:0:0:0:
109,192,51098,1,0,0:0:0:0:
256,192,51098,128,0,51428:0:0:0:0:
109,192,51263,128,0,51428:0:0:0:0:
36,192,52747,1,0,0:0:0:0:
182,192,52912,1,0,0:0:0:0:
36,192,52912,128,0,54065:0:0:0:0:
329,192,53076,1,0,0:0:0:0:
182,192,53076,128,0,54065:0:0:0:0:
475,192,53241,1,0,0:0:0:0:
329,192,53241,128,0,54065:0:0:0:0:
109,192,53406,1,0,0:0:0:0:
475,192,53406,128,0,54065:0:0:0:0:
256,192,53571,1,0,0:0:0:0:
109,192,53571,128,0,54065:0:0:0:0:
402,192,53736,1,0,0:0:0:0:
256,192,53736,128,0,54065:0:0:0:0:
402,192,53901,128,0,54065:0:0:0:0:
475,192,55384,1,0,0:0:0:0:
329,192,55549,1,0,0:0:0:0:
475,192,55549,128,0,56703:0:0:0:0:
402,192,55714,1,0,0:0:0:0:
329,192,55714,128,0,56703:0:0:0:0:
256,192,55879,1,0,0:0:0:0:
402,192,55879,128,0,56703:0:0:0:0:
109,192,56043,1,0,0:0:0:0:
256,192,56043,128,0,56703:0:0:0:0:
182,192,56208,1,0,0:0:0:0:
109,192,56208,128,0,56703:0:0:0:0:
36,192,56373,1,0,0:0:0:0:
182,192,56373,128,0,56703:0:0:0:0:
36,192,56538,128,0,56703:0:0:0:0:
36,192,58021,1,0,0:0:0:0:
182,192,58186,1,0,0:0:0:0:
36,192,58186,128,0,59340:0:0:0:0:
109,192,58351,1,0,0:0:0:0:
182,192,58351,128,0,59340:0:0:0:0:
109,192,58516,128,0,59340:0:0:0:0:
256,192,58516,1,0,0:0:0:0:
402,192,58681,1,0,0:0:0:0:
256,192,58681,128,0,59340:0:0:0:0:
329,192,58846,1,0,0:0:0:0:
402,192,58846,128,0,59340:0:0:0:0:
475,192,59010,1,0,0:0:0:0:
329,192,59010,128,0,59340:0:0:0:0:
475,192,59175,128,0,59340:0:0:0:0:
36,192,60659,1,0,0:0:0:0:
475,192,60659,1,0,0:0:0:0:
109,192,60989,1,0,0:0:0:0:
402,192,60989,1,0,0:0:0:0:
36,192,60989,128,0,61978:0:0:0:0:
475,192,60989,128,0,61978:0:0:0:0:
182,192,61318,1,0,0:0:0:0:
329,192,61318,1,0,0:0:0:0:
109,192,61318,128,0,62307:0:0:0:0:
402,192,61318,128,0,62307:0:0:0:0:
256,192,61648,1,0,0:0:0:0:
182,192,61648,128,0,62637:0:0:0:0:
329,192,61648,128,0,62637:0:0:0:0:
256,192,61978,128,0,62967:0:0:0:0:
36,192,62307,1,0,0:0:0:0:
475,192,62307,1,0,0:0:0:0:
109,192,62637,1,0,0:0:0:0:
402,192,62637,1,0,0:0:0:0:
36,192,62637,128,0,64285:0:0:0:0:
475,192,62637,128,0,64285:0:0:0:0:
182,192,62967,1,0,0:0:0:0:
329,192,62967,1,0,0:0:0:0:
109,192,62967,128,0,63956:0:0:0:0:
402,192,62967,128,0,63956:0:0:0:0:
256,192,63296,1,0,0:0:0:0:
182,192,63296,128,0,63626:0:0:0:0:
329,192,63296,128,0,63626:0:0:0:0:
256,192,63626,128,0,65604:0:0:0:0:
182,192,63956,1,0,0:0:0:0:
329,192,63956,1,0,0:0:0:0:
109,192,64285,1,0,0:0:0:0:
402,192,64285,1,0,0:0:0:0:
182,192,64285,128,0,65274:0:0:0:0:
329,192,64285,128,0,65274:0:0:0:0:
36,192,64615,1,0,0:0:0:0:
475,192,64615,1,0,0:0:0:0:
109,192,64615,128,0,64945:0:0:0:0:
402,192,64615,128,0,64945:0:0:0:0:
36,192,64945,128,0,65934:0:0:0:0:
475,192,64945,128,0,65934:0:0:0:0:
109,192,65274,1,0,0:0:0:0:
402,192,65274,1,0,0:0:0:0:
182,192,65604,1,0,0:0:0:0:
329,192,65604,1,0,0:0:0:0:
109,192,65604,128,0,66263:0:0:0:0:
402,192,65604,128,0,66263:0:0:0:0:
256,192,65934,1,0,0:0:0:0:
182,192,65934,128,0,66593:0:0:0:0:
329,192,65934,128,0,66593:0:0:0:0:
256,192,66263,128,0,66923:0:0:0:0:
36,192,67252,1,0,0:0:0:0:
182,192,67252,1,0,0:0:0:0:
109,192,67582,1,0,0:0:0:0:
256,192,67582,1,0,0:0:0:0:
36,192,67582,128,0,68571:0:0:0:0:
182,192,67582,128,0,67912:0:0:0:0:
329,192,67912,1,0,0:0:0:0:
475,192,67912,1,0,0:0:0:0:
109,192,67912,128,0,68241:0:0:0:0:
256,192,67912,128,0,68241:0:0:0:0:
182,192,68241,1,0,0:0:0:0:
402,192,68241,1,0,0:0:0:0:
329,192,68241,128,0,68571:0:0:0:0:
475,192,68241,128,0,69230:0:0:0:0:
256,192,68571,1,0,0:0:0:0:
109,192,68571,1,0,0:0:0:0:
402,192,68571,128,0,68901:0:0:0:0:
182,192,68571,128,0,68901:0:0:0:0:
36,192,68901,1,0,0:0:0:0:
329,192,68901,1,0,0:0:0:0:
109,192,68901,128,0,69560:0:0:0:0:
256,192,68901,128,0,69230:0:0:0:0:
182,192,69230,1,0,0:0:0:0:
402,192,69230,1,0,0:0:0:0:
36,192,69230,128,0,69890:0:0:0:0:
329,192,69230,128,0,69560:0:0:0:0:
256,192,69560,1,0,0:0:0:0:
475,192,69560,1,0,0:0:0:0:
182,192,69560,128,0,70219:0:0:0:0:
402,192,69560,128,0,70219:0:0:0:0:
109,192,69890,1,0,0:0:0:0:
329,192,69890,1,0,0:0:0:0:
475,192,69890,128,0,70879:0:0:0:0:
36,192,70219,1,0,0:0:0:0:
256,192,70219,1,0,0:0:0:0:
109,192,70219,128,0,70549:0:0:0:0:
329,192,70219,128,0,70549:0:0:0:0:
182,192,70549,1,0,0:0:0:0:
402,192,70549,1,0,0:0:0:0:
256,192,70549,128,0,70879:0:0:0:0:
36,192,70549,128,0,71208:0:0:0:0:
329,192,70879,1,0,0:0:0:0:
109,192,70879,1,0,0:0:0:0:
182,192,70879,128,0,71208:0:0:0:0:
402,192,70879,128,0,71208:0:0:0:0:
475,192,71208,1,0,0:0:0:0:
256,192,71208,128,0,73846:0:0:0:0:
36,192,71538,1,0,0:0:0:0:
475,192,71538,1,0,0:0:0:0:
109,192,71703,1,0,0:0:0:0:
402,192,71703,1,0,0:0:0:0:
36,192,71703,128,0,72527:0:0:0:0:
475,192,71703,128,0,72527:0:0:0:0:
182,192,71868,1,0,0:0:0:0:
329,192,71868,1,0,0:0:0:0:
109,192,71868,128,0,72362:0:0:0:0:
402,192,71868,128,0,72362:0:0:0:0:
182,192,72032,128,0,72197:0:0:0:0:
329,192,72032,128,0,72197:0:0:0:0:
182,192,72362,1,0,0:0:0:0:
329,192,72362,1,0,0:0:0:0:
109,192,72527,1,0,0:0:0:0:
402,192,72527,1,0,0:0:0:0:
36,192,72692,1,0,0:0:0:0:
475,192,72692,1,0,0:0:0:0:
