osu file format v14

[General]
AudioFilename: 5min.mp3
AudioLeadIn: 0
PreviewTime: -1
Countdown: 0
SampleSet: None
StackLeniency: 0.7
Mode: 3
LetterboxInBreaks: 0
SpecialStyle: 0
WidescreenStoryboard: 1

[Editor]
DistanceSpacing: 0.8
BeatDivisor: 4
GridSize: 16
TimelineZoom: 1.3

[Metadata]
Title:VSRG Pattern Training
TitleUnicode:VSRG Pattern Training
Artist:
ArtistUnicode:
Creator:iJinjin
Version:Jackhammer 1.75x
Source:
Tags:
BeatmapID:754636
BeatmapSetID:341207

[Difficulty]
HPDrainRate:7
CircleSize:7
OverallDifficulty:0
ApproachRate:5
SliderMultiplier:1.4
SliderTickRate:1

[Events]
//Background and Video events
0,0,"vsrg practice wallpaper.jpg",0,0
//Break Periods
//Storyboard Layer 0 (Background)
//Storyboard Layer 1 (Fail)
//Storyboard Layer 2 (Pass)
//Storyboard Layer 3 (Foreground)
//Storyboard Sound Samples

[TimingPoints]
0,171.428571428571,4,2,0,5,1,0

[HitObjects]
36,192,0,5,0,0:0:0:0:
36,192,85,1,0,0:0:0:0:
36,192,171,1,0,0:0:0:0:
36,192,257,1,0,0:0:0:0:
36,192,342,1,0,0:0:0:0:
109,192,685,1,0,0:0:0:0:
109,192,771,1,0,0:0:0:0:
109,192,857,1,0,0:0:0:0:
109,192,942,1,0,0:0:0:0:
109,192,1028,1,0,0:0:0:0:
182,192,1371,1,0,0:0:0:0:
182,192,1457,1,0,0:0:0:0:
182,192,1542,1,0,0:0:0:0:
182,192,1628,1,0,0:0:0:0:
182,192,1714,1,0,0:0:0:0:
256,192,2057,1,0,0:0:0:0:
256,192,2142,1,0,0:0:0:0:
256,192,2228,1,0,0:0:0:0:
256,192,2314,1,0,0:0:0:0:
256,192,2400,1,0,0:0:0:0:
329,192,2742,1,0,0:0:0:0:
329,192,2828,1,0,0:0:0:0:
329,192,2914,1,0,0:0:0:0:
329,192,3000,1,0,0:0:0:0:
329,192,3085,1,0,0:0:0:0:
402,192,3428,1,0,0:0:0:0:
402,192,3514,1,0,0:0:0:0:
402,192,3599,1,0,0:0:0:0:
402,192,3685,1,0,0:0:0:0:
402,192,3771,1,0,0:0:0:0:
475,192,4114,1,0,0:0:0:0:
475,192,4200,1,0,0:0:0:0:
475,192,4285,1,0,0:0:0:0:
475,192,4371,1,0,0:0:0:0:
475,192,4457,1,0,0:0:0:0:
182,192,4800,1,0,0:0:0:0:
329,192,4800,1,0,0:0:0:0:
182,192,4885,1,0,0:0:0:0:
329,192,4885,1,0,0:0:0:0:
182,192,4971,1,0,0:0:0:0:
329,192,4971,1,0,0:0:0:0:
182,192,5057,1,0,0:0:0:0:
329,192,5057,1,0,0:0:0:0:
182,192,5142,1,0,0:0:0:0:
329,192,5142,1,0,0:0:0:0:
109,192,5485,1,0,0:0:0:0:
402,192,5485,1,0,0:0:0:0:
109,192,5571,1,0,0:0:0:0:
402,192,5571,1,0,0:0:0:0:
109,192,5657,1,0,0:0:0:0:
402,192,5657,1,0,0:0:0:0:
109,192,5742,1,0,0:0:0:0:
402,192,5742,1,0,0:0:0:0:
109,192,5828,1,0,0:0:0:0:
402,192,5828,1,0,0:0:0:0:
36,192,6171,1,0,0:0:0:0:
475,192,6171,1,0,0:0:0:0:
36,192,6257,1,0,0:0:0:0:
475,192,6257,1,0,0:0:0:0:
36,192,6342,1,0,0:0:0:0:
475,192,6342,1,0,0:0:0:0:
36,192,6428,1,0,0:0:0:0:
475,192,6428,1,0,0:0:0:0:
475,192,6514,1,0,0:0:0:0:
36,192,6514,1,0,0:0:0:0:
182,192,6857,128,0,7199:0:0:0:0:
475,192,6857,1,0,0:0:0:0:
475,192,6942,1,0,0:0:0:0:
475,192,7028,1,0,0:0:0:0:
475,192,7114,1,0,0:0:0:0:
109,192,7199,128,0,7542:0:0:0:0:
402,192,7199,1,0,0:0:0:0:
402,192,7285,1,0,0:0:0:0:
402,192,7371,1,0,0:0:0:0:
402,192,7457,1,0,0:0:0:0:
36,192,7542,128,0,7885:0:0:0:0:
329,192,7542,1,0,0:0:0:0:
329,192,7628,1,0,0:0:0:0:
329,192,7714,1,0,0:0:0:0:
329,192,7799,1,0,0:0:0:0:
329,192,7885,1,0,0:0:0:0:
329,192,8228,128,0,8571:0:0:0:0:
36,192,8228,1,0,0:0:0:0:
36,192,8314,1,0,0:0:0:0:
36,192,8400,1,0,0:0:0:0:
36,192,8485,1,0,0:0:0:0:
402,192,8571,128,0,8914:0:0:0:0:
109,192,8571,1,0,0:0:0:0:
109,192,8657,1,0,0:0:0:0:
109,192,8742,1,0,0:0:0:0:
109,192,8828,1,0,0:0:0:0:
475,192,8914,128,0,9257:0:0:0:0:
182,192,8914,1,0,0:0:0:0:
182,192,9000,1,0,0:0:0:0:
182,192,9085,1,0,0:0:0:0:
182,192,9171,1,0,0:0:0:0:
182,192,9257,1,0,0:0:0:0:
36,192,9600,128,0,9942:0:0:0:0:
109,192,9600,1,0,0:0:0:0:
109,192,9685,1,0,0:0:0:0:
182,192,9771,1,0,0:0:0:0:
182,192,9857,1,0,0:0:0:0:
182,192,9942,128,0,10285:0:0:0:0:
109,192,9942,1,0,0:0:0:0:
109,192,10028,1,0,0:0:0:0:
36,192,10114,1,0,0:0:0:0:
36,192,10200,1,0,0:0:0:0:
36,192,10285,128,0,10628:0:0:0:0:
109,192,10285,1,0,0:0:0:0:
109,192,10371,1,0,0:0:0:0:
182,192,10457,1,0,0:0:0:0:
182,192,10542,1,0,0:0:0:0:
182,192,10628,128,0,10971:0:0:0:0:
109,192,10628,1,0,0:0:0:0:
109,192,10714,1,0,0:0:0:0:
36,192,10800,1,0,0:0:0:0:
36,192,10885,1,0,0:0:0:0:
402,192,10971,1,0,0:0:0:0:
475,192,10971,128,0,11314:0:0:0:0:
402,192,11057,1,0,0:0:0:0:
329,192,11142,1,0,0:0:0:0:
329,192,11228,1,0,0:0:0:0:
329,192,11314,128,0,11657:0:0:0:0:
402,192,11314,1,0,0:0:0:0:
402,192,11400,1,0,0:0:0:0:
475,192,11485,1,0,0:0:0:0:
475,192,11571,1,0,0:0:0:0:
402,192,11657,1,0,0:0:0:0:
475,192,11657,128,0,12000:0:0:0:0:
402,192,11742,1,0,0:0:0:0:
329,192,11828,1,0,0:0:0:0:
329,192,11914,1,0,0:0:0:0:
329,192,12000,128,0,12342:0:0:0:0:
402,192,12000,1,0,0:0:0:0:
402,192,12085,1,0,0:0:0:0:
475,192,12171,1,0,0:0:0:0:
475,192,12257,1,0,0:0:0:0:
36,192,12342,1,0,0:0:0:0:
182,192,12342,1,0,0:0:0:0:
182,192,12428,1,0,0:0:0:0:
36,192,12428,1,0,0:0:0:0:
36,192,12514,1,0,0:0:0:0:
182,192,12514,1,0,0:0:0:0:
182,192,12600,1,0,0:0:0:0:
36,192,12600,1,0,0:0:0:0:
329,192,12685,1,0,0:0:0:0:
475,192,12685,1,0,0:0:0:0:
475,192,12771,1,0,0:0:0:0:
329,192,12771,1,0,0:0:0:0:
329,192,12857,1,0,0:0:0:0:
475,192,12857,1,0,0:0:0:0:
475,192,12942,1,0,0:0:0:0:
329,192,12942,1,0,0:0:0:0:
109,192,13028,1,0,0:0:0:0:
182,192,13028,1,0,0:0:0:0:
109,192,13114,1,0,0:0:0:0:
182,192,13114,1,0,0:0:0:0:
182,192,13199,1,0,0:0:0:0:
109,192,13199,1,0,0:0:0:0:
109,192,13285,1,0,0:0:0:0:
182,192,13285,1,0,0:0:0:0:
329,192,13371,1,0,0:0:0:0:
402,192,13371,1,0,0:0:0:0:
402,192,13457,1,0,0:0:0:0:
329,192,13457,1,0,0:0:0:0:
402,192,13542,1,0,0:0:0:0:
329,192,13542,1,0,0:0:0:0:
402,192,13628,1,0,0:0:0:0:
329,192,13628,1,0,0:0:0:0:
36,192,13714,1,0,0:0:0:0:
109,192,13714,1,0,0:0:0:0:
109,192,13799,1,0,0:0:0:0:
36,192,13799,1,0,0:0:0:0:
36,192,13885,1,0,0:0:0:0:
109,192,13885,1,0,0:0:0:0:
109,192,13971,1,0,0:0:0:0:
36,192,13971,1,0,0:0:0:0:
402,192,14057,1,0,0:0:0:0:
475,192,14057,1,0,0:0:0:0:
402,192,14142,1,0,0:0:0:0:
475,192,14142,1,0,0:0:0:0:
402,192,14228,1,0,0:0:0:0:
475,192,14228,1,0,0:0:0:0:
402,192,14314,1,0,0:0:0:0:
475,192,14314,1,0,0:0:0:0:
36,192,14399,1,0,0:0:0:0:
109,192,14399,1,0,0:0:0:0:
182,192,14399,1,0,0:0:0:0:
329,192,14399,1,0,0:0:0:0:
402,192,14399,1,0,0:0:0:0:
475,192,14399,1,0,0:0:0:0:
36,192,14485,1,0,0:0:0:0:
109,192,14485,1,0,0:0:0:0:
182,192,14485,1,0,0:0:0:0:
475,192,14485,1,0,0:0:0:0:
402,192,14485,1,0,0:0:0:0:
329,192,14485,1,0,0:0:0:0:
36,192,14571,1,0,0:0:0:0:
109,192,14571,1,0,0:0:0:0:
182,192,14571,1,0,0:0:0:0:
402,192,14571,1,0,0:0:0:0:
475,192,14571,1,0,0:0:0:0:
329,192,14571,1,0,0:0:0:0:
36,192,14657,1,0,0:0:0:0:
109,192,14657,1,0,0:0:0:0:
182,192,14657,1,0,0:0:0:0:
329,192,14657,1,0,0:0:0:0:
402,192,14657,1,0,0:0:0:0:
475,192,14657,1,0,0:0:0:0:
36,192,14742,1,0,0:0:0:0:
109,192,14742,1,0,0:0:0:0:
182,192,14742,1,0,0:0:0:0:
329,192,14742,1,0,0:0:0:0:
402,192,14742,1,0,0:0:0:0:
475,192,14742,1,0,0:0:0:0:
36,192,15085,1,0,0:0:0:0:
109,192,15085,1,0,0:0:0:0:
109,192,15171,1,0,0:0:0:0:
182,192,15171,1,0,0:0:0:0:
182,192,15257,1,0,0:0:0:0:
256,192,15257,1,0,0:0:0:0:
109,192,15428,1,0,0:0:0:0:
182,192,15428,1,0,0:0:0:0:
182,192,15514,1,0,0:0:0:0:
256,192,15514,1,0,0:0:0:0:
256,192,15599,1,0,0:0:0:0:
329,192,15599,1,0,0:0:0:0:
182,192,15771,1,0,0:0:0:0:
256,192,15771,1,0,0:0:0:0:
256,192,15857,1,0,0:0:0:0:
329,192,15857,1,0,0:0:0:0:
329,192,15942,1,0,0:0:0:0:
402,192,15942,1,0,0:0:0:0:
256,192,16114,1,0,0:0:0:0:
329,192,16114,1,0,0:0:0:0:
329,192,16199,1,0,0:0:0:0:
402,192,16199,1,0,0:0:0:0:
402,192,16285,1,0,0:0:0:0:
475,192,16285,1,0,0:0:0:0:
402,192,16457,1,0,0:0:0:0:
475,192,16457,1,0,0:0:0:0:
402,192,16542,1,0,0:0:0:0:
329,192,16542,1,0,0:0:0:0:
256,192,16628,1,0,0:0:0:0:
329,192,16628,1,0,0:0:0:0:
402,192,16800,1,0,0:0:0:0:
329,192,16800,1,0,0:0:0:0:
329,192,16885,1,0,0:0:0:0:
256,192,16885,1,0,0:0:0:0:
256,192,16971,1,0,0:0:0:0:
182,192,16971,1,0,0:0:0:0:
329,192,17142,1,0,0:0:0:0:
256,192,17142,1,0,0:0:0:0:
256,192,17228,1,0,0:0:0:0:
182,192,17228,1,0,0:0:0:0:
182,192,17314,1,0,0:0:0:0:
109,192,17314,1,0,0:0:0:0:
256,192,17485,1,0,0:0:0:0:
182,192,17485,1,0,0:0:0:0:
182,192,17571,1,0,0:0:0:0:
109,192,17571,1,0,0:0:0:0:
109,192,17657,1,0,0:0:0:0:
36,192,17657,1,0,0:0:0:0:
36,192,17828,1,0,0:0:0:0:
109,192,17828,1,0,0:0:0:0:
182,192,17828,1,0,0:0:0:0:
109,192,17914,1,0,0:0:0:0:
182,192,17914,1,0,0:0:0:0:
256,192,17914,1,0,0:0:0:0:
182,192,18000,1,0,0:0:0:0:
256,192,18000,1,0,0:0:0:0:
329,192,18000,1,0,0:0:0:0:
109,192,18085,1,0,0:0:0:0:
256,192,18085,1,0,0:0:0:0:
182,192,18085,1,0,0:0:0:0:
182,192,18171,1,0,0:0:0:0:
109,192,18171,1,0,0:0:0:0:
36,192,18171,1,0,0:0:0:0:
329,192,18514,1,0,0:0:0:0:
402,192,18514,1,0,0:0:0:0:
475,192,18514,1,0,0:0:0:0:
402,192,18600,1,0,0:0:0:0:
329,192,18600,1,0,0:0:0:0:
256,192,18600,1,0,0:0:0:0:
182,192,18685,1,0,0:0:0:0:
329,192,18685,1,0,0:0:0:0:
256,192,18685,1,0,0:0:0:0:
256,192,18771,1,0,0:0:0:0:
329,192,18771,1,0,0:0:0:0:
402,192,18771,1,0,0:0:0:0:
329,192,18857,1,0,0:0:0:0:
402,192,18857,1,0,0:0:0:0:
475,192,18857,1,0,0:0:0:0:
36,192,19200,1,0,0:0:0:0:
109,192,19200,1,0,0:0:0:0:
109,192,19285,1,0,0:0:0:0:
182,192,19285,1,0,0:0:0:0:
182,192,19371,1,0,0:0:0:0:
256,192,19371,1,0,0:0:0:0:
256,192,19457,1,0,0:0:0:0:
329,192,19457,1,0,0:0:0:0:
329,192,19542,1,0,0:0:0:0:
402,192,19542,1,0,0:0:0:0:
109,192,19542,1,0,0:0:0:0:
182,192,19542,1,0,0:0:0:0:
182,192,19628,1,0,0:0:0:0:
256,192,19628,1,0,0:0:0:0:
256,192,19714,1,0,0:0:0:0:
329,192,19714,1,0,0:0:0:0:
329,192,19800,1,0,0:0:0:0:
402,192,19800,1,0,0:0:0:0:
402,192,19885,1,0,0:0:0:0:
475,192,19885,1,0,0:0:0:0:
402,192,20571,1,0,0:0:0:0:
475,192,20571,1,0,0:0:0:0:
329,192,20571,1,0,0:0:0:0:
256,192,20657,1,0,0:0:0:0:
329,192,20657,1,0,0:0:0:0:
402,192,20657,1,0,0:0:0:0:
329,192,20742,1,0,0:0:0:0:
256,192,20742,1,0,0:0:0:0:
182,192,20742,1,0,0:0:0:0:
109,192,20828,1,0,0:0:0:0:
182,192,20828,1,0,0:0:0:0:
256,192,20828,1,0,0:0:0:0:
402,192,20914,1,0,0:0:0:0:
329,192,20914,1,0,0:0:0:0:
475,192,20914,1,0,0:0:0:0:
256,192,21000,1,0,0:0:0:0:
329,192,21000,1,0,0:0:0:0:
402,192,21000,1,0,0:0:0:0:
182,192,21085,1,0,0:0:0:0:
256,192,21085,1,0,0:0:0:0:
329,192,21085,1,0,0:0:0:0:
256,192,21171,1,0,0:0:0:0:
182,192,21171,1,0,0:0:0:0:
109,192,21171,1,0,0:0:0:0:
36,192,21257,1,0,0:0:0:0:
182,192,21257,1,0,0:0:0:0:
109,192,21257,1,0,0:0:0:0:
109,192,21342,1,0,0:0:0:0:
182,192,21342,1,0,0:0:0:0:
256,192,21342,1,0,0:0:0:0:
182,192,21428,1,0,0:0:0:0:
256,192,21428,1,0,0:0:0:0:
329,192,21428,1,0,0:0:0:0:
256,192,21514,1,0,0:0:0:0:
329,192,21514,1,0,0:0:0:0:
402,192,21514,1,0,0:0:0:0:
36,192,21600,1,0,0:0:0:0:
109,192,21600,1,0,0:0:0:0:
182,192,21600,1,0,0:0:0:0:
109,192,21685,1,0,0:0:0:0:
182,192,21685,1,0,0:0:0:0:
256,192,21685,1,0,0:0:0:0:
182,192,21771,1,0,0:0:0:0:
256,192,21771,1,0,0:0:0:0:
329,192,21771,1,0,0:0:0:0:
256,192,21857,1,0,0:0:0:0:
329,192,21857,1,0,0:0:0:0:
402,192,21857,1,0,0:0:0:0:
329,192,21942,1,0,0:0:0:0:
402,192,21942,1,0,0:0:0:0:
475,192,21942,1,0,0:0:0:0:
36,192,22628,1,0,0:0:0:0:
109,192,22628,1,0,0:0:0:0:
182,192,22628,1,0,0:0:0:0:
256,192,22628,1,0,0:0:0:0:
329,192,22628,1,0,0:0:0:0:
402,192,22628,1,0,0:0:0:0:
475,192,22628,1,0,0:0:0:0:
109,192,22714,1,0,0:0:0:0:
182,192,22714,1,0,0:0:0:0:
329,192,22714,1,0,0:0:0:0:
182,192,22800,1,0,0:0:0:0:
109,192,22800,1,0,0:0:0:0:
402,192,22800,1,0,0:0:0:0:
109,192,22885,1,0,0:0:0:0:
182,192,22885,1,0,0:0:0:0:
475,192,22885,1,0,0:0:0:0:
36,192,22971,1,0,0:0:0:0:
109,192,22971,1,0,0:0:0:0:
182,192,22971,1,0,0:0:0:0:
256,192,22971,1,0,0:0:0:0:
329,192,22971,1,0,0:0:0:0:
402,192,22971,1,0,0:0:0:0:
475,192,22971,1,0,0:0:0:0:
329,192,23057,1,0,0:0:0:0:
402,192,23057,1,0,0:0:0:0:
36,192,23057,1,0,0:0:0:0:
402,192,23142,1,0,0:0:0:0:
329,192,23142,1,0,0:0:0:0:
109,192,23142,1,0,0:0:0:0:
329,192,23228,1,0,0:0:0:0:
402,192,23228,1,0,0:0:0:0:
182,192,23228,1,0,0:0:0:0:
109,192,23314,1,0,0:0:0:0:
182,192,23314,1,0,0:0:0:0:
256,192,23314,1,0,0:0:0:0:
36,192,23314,1,0,0:0:0:0:
329,192,23314,1,0,0:0:0:0:
402,192,23314,1,0,0:0:0:0:
475,192,23314,1,0,0:0:0:0:
36,192,23400,1,0,0:0:0:0:
109,192,23400,1,0,0:0:0:0:
182,192,23400,1,0,0:0:0:0:
36,192,23485,1,0,0:0:0:0:
109,192,23485,1,0,0:0:0:0:
182,192,23485,1,0,0:0:0:0:
329,192,23485,1,0,0:0:0:0:
402,192,23485,1,0,0:0:0:0:
182,192,23571,1,0,0:0:0:0:
109,192,23571,1,0,0:0:0:0:
36,192,23571,1,0,0:0:0:0:
36,192,23657,1,0,0:0:0:0:
109,192,23657,1,0,0:0:0:0:
182,192,23657,1,0,0:0:0:0:
256,192,23657,1,0,0:0:0:0:
329,192,23657,1,0,0:0:0:0:
402,192,23657,1,0,0:0:0:0:
475,192,23657,1,0,0:0:0:0:
329,192,23742,1,0,0:0:0:0:
402,192,23742,1,0,0:0:0:0:
475,192,23742,1,0,0:0:0:0:
329,192,23828,1,0,0:0:0:0:
402,192,23828,1,0,0:0:0:0:
475,192,23828,1,0,0:0:0:0:
109,192,23828,1,0,0:0:0:0:
182,192,23828,1,0,0:0:0:0:
329,192,23914,1,0,0:0:0:0:
402,192,23914,1,0,0:0:0:0:
475,192,23914,1,0,0:0:0:0:
36,192,24000,1,0,0:0:0:0:
109,192,24000,1,0,0:0:0:0:
182,192,24000,1,0,0:0:0:0:
256,192,24000,1,0,0:0:0:0:
329,192,24000,1,0,0:0:0:0:
402,192,24000,1,0,0:0:0:0:
475,192,24000,1,0,0:0:0:0:
36,192,24085,1,0,0:0:0:0:
182,192,24085,1,0,0:0:0:0:
36,192,24171,1,0,0:0:0:0:
182,192,24171,1,0,0:0:0:0:
329,192,24171,1,0,0:0:0:0:
402,192,24171,1,0,0:0:0:0:
36,192,24257,1,0,0:0:0:0:
182,192,24257,1,0,0:0:0:0:
36,192,24342,1,0,0:0:0:0:
109,192,24342,1,0,0:0:0:0:
182,192,24342,1,0,0:0:0:0:
256,192,24342,1,0,0:0:0:0:
329,192,24342,1,0,0:0:0:0:
402,192,24342,1,0,0:0:0:0:
475,192,24342,1,0,0:0:0:0:
329,192,24428,1,0,0:0:0:0:
475,192,24428,1,0,0:0:0:0:
329,192,24514,1,0,0:0:0:0:
475,192,24514,1,0,0:0:0:0:
109,192,24514,1,0,0:0:0:0:
182,192,24514,1,0,0:0:0:0:
329,192,24600,1,0,0:0:0:0:
475,192,24600,1,0,0:0:0:0:
475,192,24685,1,0,0:0:0:0:
329,192,24685,1,0,0:0:0:0:
256,192,24685,1,0,0:0:0:0:
182,192,24685,1,0,0:0:0:0:
109,192,24685,1,0,0:0:0:0:
36,192,24685,1,0,0:0:0:0:
402,192,24685,1,0,0:0:0:0:
109,192,24771,1,0,0:0:0:0:
256,192,24771,1,0,0:0:0:0:
182,192,24857,1,0,0:0:0:0:
329,192,24857,1,0,0:0:0:0:
182,192,24942,1,0,0:0:0:0:
329,192,24942,1,0,0:0:0:0:
36,192,25028,1,0,0:0:0:0:
109,192,25028,1,0,0:0:0:0:
182,192,25028,1,0,0:0:0:0:
256,192,25028,1,0,0:0:0:0:
329,192,25028,1,0,0:0:0:0:
402,192,25028,1,0,0:0:0:0:
475,192,25028,1,0,0:0:0:0:
256,192,25114,1,0,0:0:0:0:
402,192,25114,1,0,0:0:0:0:
182,192,25200,1,0,0:0:0:0:
329,192,25200,1,0,0:0:0:0:
182,192,25285,1,0,0:0:0:0:
329,192,25285,1,0,0:0:0:0:
36,192,25371,1,0,0:0:0:0:
109,192,25371,1,0,0:0:0:0:
182,192,25371,1,0,0:0:0:0:
256,192,25371,1,0,0:0:0:0:
329,192,25371,1,0,0:0:0:0:
402,192,25371,1,0,0:0:0:0:
475,192,25371,1,0,0:0:0:0:
109,192,25457,1,0,0:0:0:0:
256,192,25457,1,0,0:0:0:0:
402,192,25457,1,0,0:0:0:0:
182,192,25542,1,0,0:0:0:0:
329,192,25542,1,0,0:0:0:0:
109,192,25628,1,0,0:0:0:0:
256,192,25628,1,0,0:0:0:0:
402,192,25628,1,0,0:0:0:0:
329,192,25714,1,0,0:0:0:0:
256,192,25714,1,0,0:0:0:0:
182,192,25714,1,0,0:0:0:0:
109,192,25714,1,0,0:0:0:0:
36,192,25714,1,0,0:0:0:0:
402,192,25714,1,0,0:0:0:0:
475,192,25714,1,0,0:0:0:0:
182,192,25799,1,0,0:0:0:0:
36,192,25799,1,0,0:0:0:0:
329,192,25799,1,0,0:0:0:0:
402,192,25799,1,0,0:0:0:0:
402,192,25885,1,0,0:0:0:0:
329,192,25885,1,0,0:0:0:0:
182,192,25885,1,0,0:0:0:0:
109,192,25885,1,0,0:0:0:0:
36,192,25971,1,0,0:0:0:0:
182,192,25971,1,0,0:0:0:0:
329,192,25971,1,0,0:0:0:0:
475,192,25971,1,0,0:0:0:0:
256,192,26057,1,0,0:0:0:0:
182,192,26057,1,0,0:0:0:0:
109,192,26057,1,0,0:0:0:0:
36,192,26057,1,0,0:0:0:0:
402,192,26057,1,0,0:0:0:0:
329,192,26057,1,0,0:0:0:0:
475,192,26057,1,0,0:0:0:0:
256,192,26142,1,0,0:0:0:0:
109,192,26142,1,0,0:0:0:0:
402,192,26142,1,0,0:0:0:0:
402,192,26228,1,0,0:0:0:0:
256,192,26228,1,0,0:0:0:0:
109,192,26228,1,0,0:0:0:0:
329,192,26228,1,0,0:0:0:0:
109,192,26314,1,0,0:0:0:0:
256,192,26314,1,0,0:0:0:0:
402,192,26314,1,0,0:0:0:0:
402,192,26399,1,0,0:0:0:0:
256,192,26399,1,0,0:0:0:0:
182,192,26399,1,0,0:0:0:0:
109,192,26399,1,0,0:0:0:0:
36,192,26399,1,0,0:0:0:0:
329,192,26399,1,0,0:0:0:0:
475,192,26399,1,0,0:0:0:0:
182,192,26485,1,0,0:0:0:0:
329,192,26485,1,0,0:0:0:0:
475,192,26485,1,0,0:0:0:0:
475,192,26571,1,0,0:0:0:0:
182,192,26571,1,0,0:0:0:0:
329,192,26571,1,0,0:0:0:0:
36,192,26571,1,0,0:0:0:0:
109,192,26571,1,0,0:0:0:0:
182,192,26657,1,0,0:0:0:0:
329,192,26657,1,0,0:0:0:0:
475,192,26657,1,0,0:0:0:0:
36,192,26742,1,0,0:0:0:0:
109,192,26742,1,0,0:0:0:0:
182,192,26742,1,0,0:0:0:0:
256,192,26742,1,0,0:0:0:0:
329,192,26742,1,0,0:0:0:0:
402,192,26742,1,0,0:0:0:0:
475,192,26742,1,0,0:0:0:0:
36,192,26828,1,0,0:0:0:0:
109,192,26828,1,0,0:0:0:0:
256,192,26828,1,0,0:0:0:0:
402,192,26828,1,0,0:0:0:0:
402,192,26914,1,0,0:0:0:0:
256,192,26914,1,0,0:0:0:0:
109,192,26914,1,0,0:0:0:0:
36,192,26914,1,0,0:0:0:0:
329,192,26914,1,0,0:0:0:0:
475,192,26914,1,0,0:0:0:0:
256,192,26999,1,0,0:0:0:0:
402,192,26999,1,0,0:0:0:0:
109,192,26999,1,0,0:0:0:0:
36,192,26999,1,0,0:0:0:0:
36,192,27085,1,0,0:0:0:0:
109,192,27085,1,0,0:0:0:0:
182,192,27085,1,0,0:0:0:0:
256,192,27085,1,0,0:0:0:0:
329,192,27085,1,0,0:0:0:0:
402,192,27085,1,0,0:0:0:0:
475,192,27085,1,0,0:0:0:0:
182,192,27428,128,0,28114:0:0:0:0:
329,192,27428,128,0,28114:0:0:0:0:
36,192,27428,1,0,0:0:0:0:
475,192,27428,1,0,0:0:0:0:
36,192,27514,1,0,0:0:0:0:
475,192,27514,1,0,0:0:0:0:
36,192,27599,1,0,0:0:0:0:
475,192,27599,1,0,0:0:0:0:
36,192,27685,1,0,0:0:0:0:
475,192,27685,1,0,0:0:0:0:
36,192,27771,1,0,0:0:0:0:
109,192,27771,1,0,0:0:0:0:
402,192,27771,1,0,0:0:0:0:
475,192,27771,1,0,0:0:0:0:
109,192,27857,1,0,0:0:0:0:
36,192,27857,1,0,0:0:0:0:
475,192,27857,1,0,0:0:0:0:
402,192,27857,1,0,0:0:0:0:
36,192,27942,1,0,0:0:0:0:
109,192,27942,1,0,0:0:0:0:
402,192,27942,1,0,0:0:0:0:
475,192,27942,1,0,0:0:0:0:
109,192,28028,1,0,0:0:0:0:
36,192,28028,1,0,0:0:0:0:
475,192,28028,1,0,0:0:0:0:
402,192,28028,1,0,0:0:0:0:
36,192,28114,1,0,0:0:0:0:
109,192,28114,1,0,0:0:0:0:
402,192,28114,1,0,0:0:0:0:
475,192,28114,1,0,0:0:0:0:
256,192,28114,1,0,0:0:0:0:
109,192,28799,128,0,29485:0:0:0:0:
402,192,28799,128,0,29485:0:0:0:0:
182,192,28799,1,0,0:0:0:0:
329,192,28799,1,0,0:0:0:0:
182,192,28885,1,0,0:0:0:0:
329,192,28885,1,0,0:0:0:0:
182,192,28971,1,0,0:0:0:0:
329,192,28971,1,0,0:0:0:0:
182,192,29057,1,0,0:0:0:0:
329,192,29057,1,0,0:0:0:0:
182,192,29142,1,0,0:0:0:0:
36,192,29142,1,0,0:0:0:0:
329,192,29142,1,0,0:0:0:0:
475,192,29142,1,0,0:0:0:0:
182,192,29228,1,0,0:0:0:0:
36,192,29228,1,0,0:0:0:0:
329,192,29228,1,0,0:0:0:0:
475,192,29228,1,0,0:0:0:0:
182,192,29314,1,0,0:0:0:0:
36,192,29314,1,0,0:0:0:0:
329,192,29314,1,0,0:0:0:0:
475,192,29314,1,0,0:0:0:0:
182,192,29399,1,0,0:0:0:0:
36,192,29399,1,0,0:0:0:0:
329,192,29399,1,0,0:0:0:0:
475,192,29399,1,0,0:0:0:0:
182,192,29485,1,0,0:0:0:0:
36,192,29485,1,0,0:0:0:0:
256,192,29485,1,0,0:0:0:0:
329,192,29485,1,0,0:0:0:0:
475,192,29485,1,0,0:0:0:0:
36,192,30171,1,0,0:0:0:0:
109,192,30171,1,0,0:0:0:0:
182,192,30171,1,0,0:0:0:0:
256,192,30171,1,0,0:0:0:0:
109,192,30257,1,0,0:0:0:0:
182,192,30257,1,0,0:0:0:0:
256,192,30257,1,0,0:0:0:0:
329,192,30257,1,0,0:0:0:0:
182,192,30342,1,0,0:0:0:0:
256,192,30342,1,0,0:0:0:0:
329,192,30342,1,0,0:0:0:0:
402,192,30342,1,0,0:0:0:0:
256,192,30428,1,0,0:0:0:0:
329,192,30428,1,0,0:0:0:0:
402,192,30428,1,0,0:0:0:0:
475,192,30428,1,0,0:0:0:0:
256,192,30514,1,0,0:0:0:0:
329,192,30514,1,0,0:0:0:0:
475,192,30514,1,0,0:0:0:0:
402,192,30514,1,0,0:0:0:0:
256,192,30599,1,0,0:0:0:0:
329,192,30599,1,0,0:0:0:0:
402,192,30599,1,0,0:0:0:0:
475,192,30599,1,0,0:0:0:0:
256,192,30685,1,0,0:0:0:0:
329,192,30685,1,0,0:0:0:0:
402,192,30685,1,0,0:0:0:0:
475,192,30685,1,0,0:0:0:0:
182,192,30685,1,0,0:0:0:0:
256,192,30771,1,0,0:0:0:0:
329,192,30771,1,0,0:0:0:0:
402,192,30771,1,0,0:0:0:0:
475,192,30771,1,0,0:0:0:0:
109,192,30771,1,0,0:0:0:0:
182,192,30771,1,0,0:0:0:0:
36,192,30857,1,0,0:0:0:0:
109,192,30857,1,0,0:0:0:0:
182,192,30857,1,0,0:0:0:0:
256,192,30857,1,0,0:0:0:0:
329,192,30857,1,0,0:0:0:0:
475,192,30857,1,0,0:0:0:0:
402,192,30857,1,0,0:0:0:0:
256,192,31542,1,0,0:0:0:0:
329,192,31542,1,0,0:0:0:0:
402,192,31542,1,0,0:0:0:0:
475,192,31542,1,0,0:0:0:0:
329,192,31628,1,0,0:0:0:0:
402,192,31628,1,0,0:0:0:0:
182,192,31628,1,0,0:0:0:0:
256,192,31628,1,0,0:0:0:0:
329,192,31714,1,0,0:0:0:0:
256,192,31714,1,0,0:0:0:0:
182,192,31714,1,0,0:0:0:0:
109,192,31714,1,0,0:0:0:0:
36,192,31799,1,0,0:0:0:0:
109,192,31799,1,0,0:0:0:0:
182,192,31799,1,0,0:0:0:0:
256,192,31799,1,0,0:0:0:0:
36,192,31885,1,0,0:0:0:0:
109,192,31885,1,0,0:0:0:0:
182,192,31885,1,0,0:0:0:0:
256,192,31885,1,0,0:0:0:0:
36,192,31971,1,0,0:0:0:0:
109,192,31971,1,0,0:0:0:0:
256,192,31971,1,0,0:0:0:0:
182,192,31971,1,0,0:0:0:0:
109,192,32057,1,0,0:0:0:0:
36,192,32057,1,0,0:0:0:0:
256,192,32057,1,0,0:0:0:0:
182,192,32057,1,0,0:0:0:0:
329,192,32057,1,0,0:0:0:0:
36,192,32142,1,0,0:0:0:0:
109,192,32142,1,0,0:0:0:0:
256,192,32142,1,0,0:0:0:0:
182,192,32142,1,0,0:0:0:0:
402,192,32142,1,0,0:0:0:0:
329,192,32142,1,0,0:0:0:0:
109,192,32228,1,0,0:0:0:0:
36,192,32228,1,0,0:0:0:0:
182,192,32228,1,0,0:0:0:0:
256,192,32228,1,0,0:0:0:0:
329,192,32228,1,0,0:0:0:0:
402,192,32228,1,0,0:0:0:0:
475,192,32228,1,0,0:0:0:0:
36,192,32914,1,0,0:0:0:0:
36,192,33000,1,0,0:0:0:0:
109,192,33000,1,0,0:0:0:0:
36,192,33085,1,0,0:0:0:0:
182,192,33085,1,0,0:0:0:0:
109,192,33085,1,0,0:0:0:0:
36,192,33171,1,0,0:0:0:0:
109,192,33171,1,0,0:0:0:0:
182,192,33171,1,0,0:0:0:0:
256,192,33171,1,0,0:0:0:0:
36,192,33257,1,0,0:0:0:0:
256,192,33257,1,0,0:0:0:0:
182,192,33257,1,0,0:0:0:0:
109,192,33257,1,0,0:0:0:0:
329,192,33257,1,0,0:0:0:0:
36,192,33342,1,0,0:0:0:0:
402,192,33342,1,0,0:0:0:0:
329,192,33342,1,0,0:0:0:0:
256,192,33342,1,0,0:0:0:0:
182,192,33342,1,0,0:0:0:0:
109,192,33342,1,0,0:0:0:0:
36,192,33428,1,0,0:0:0:0:
109,192,33428,1,0,0:0:0:0:
182,192,33428,1,0,0:0:0:0:
256,192,33428,1,0,0:0:0:0:
329,192,33428,1,0,0:0:0:0:
402,192,33428,1,0,0:0:0:0:
475,192,33428,1,0,0:0:0:0:
109,192,33514,1,0,0:0:0:0:
182,192,33514,1,0,0:0:0:0:
256,192,33514,1,0,0:0:0:0:
329,192,33514,1,0,0:0:0:0:
402,192,33514,1,0,0:0:0:0:
475,192,33514,1,0,0:0:0:0:
182,192,33600,1,0,0:0:0:0:
256,192,33600,1,0,0:0:0:0:
402,192,33600,1,0,0:0:0:0:
475,192,33600,1,0,0:0:0:0:
329,192,33600,1,0,0:0:0:0:
256,192,33685,1,0,0:0:0:0:
329,192,33685,1,0,0:0:0:0:
402,192,33685,1,0,0:0:0:0:
475,192,33685,1,0,0:0:0:0:
475,192,33771,1,0,0:0:0:0:
402,192,33771,1,0,0:0:0:0:
329,192,33771,1,0,0:0:0:0:
402,192,33857,1,0,0:0:0:0:
475,192,33857,1,0,0:0:0:0:
475,192,33942,1,0,0:0:0:0:
36,192,34285,1,0,0:0:0:0:
182,192,34285,1,0,0:0:0:0:
329,192,34285,1,0,0:0:0:0:
475,192,34285,1,0,0:0:0:0:
182,192,34971,1,0,0:0:0:0:
182,192,35057,1,0,0:0:0:0:
329,192,35142,1,0,0:0:0:0:
329,192,35228,1,0,0:0:0:0:
256,192,35314,1,0,0:0:0:0:
256,192,35400,1,0,0:0:0:0:
109,192,35485,1,0,0:0:0:0:
109,192,35571,1,0,0:0:0:0:
402,192,35657,1,0,0:0:0:0:
402,192,35742,1,0,0:0:0:0:
475,192,35828,1,0,0:0:0:0:
475,192,35914,1,0,0:0:0:0:
182,192,36000,1,0,0:0:0:0:
182,192,36085,1,0,0:0:0:0:
36,192,36171,1,0,0:0:0:0:
36,192,36257,1,0,0:0:0:0:
329,192,36342,1,0,0:0:0:0:
329,192,36428,1,0,0:0:0:0:
256,192,36514,1,0,0:0:0:0:
256,192,36600,1,0,0:0:0:0:
182,192,36685,1,0,0:0:0:0:
182,192,36771,1,0,0:0:0:0:
109,192,36857,1,0,0:0:0:0:
109,192,36942,1,0,0:0:0:0:
402,192,37028,1,0,0:0:0:0:
402,192,37114,1,0,0:0:0:0:
329,192,37200,1,0,0:0:0:0:
329,192,37285,1,0,0:0:0:0:
256,192,37371,1,0,0:0:0:0:
256,192,37457,1,0,0:0:0:0:
182,192,37542,1,0,0:0:0:0:
182,192,37628,1,0,0:0:0:0:
36,192,37714,1,0,0:0:0:0:
36,192,37800,1,0,0:0:0:0:
256,192,37885,1,0,0:0:0:0:
256,192,37971,1,0,0:0:0:0:
109,192,38057,1,0,0:0:0:0:
109,192,38142,1,0,0:0:0:0:
329,192,38228,1,0,0:0:0:0:
329,192,38314,1,0,0:0:0:0:
475,192,38400,1,0,0:0:0:0:
475,192,38485,1,0,0:0:0:0:
256,192,38571,1,0,0:0:0:0:
256,192,38657,1,0,0:0:0:0:
402,192,38742,1,0,0:0:0:0:
402,192,38828,1,0,0:0:0:0:
182,192,38914,1,0,0:0:0:0:
182,192,39000,1,0,0:0:0:0:
36,192,39085,1,0,0:0:0:0:
329,192,39085,1,0,0:0:0:0:
329,192,39171,1,0,0:0:0:0:
36,192,39171,1,0,0:0:0:0:
182,192,39257,1,0,0:0:0:0:
402,192,39257,1,0,0:0:0:0:
182,192,39342,1,0,0:0:0:0:
402,192,39342,1,0,0:0:0:0:
109,192,39428,1,0,0:0:0:0:
475,192,39428,1,0,0:0:0:0:
475,192,39514,1,0,0:0:0:0:
109,192,39514,1,0,0:0:0:0:
36,192,39600,1,0,0:0:0:0:
329,192,39600,1,0,0:0:0:0:
329,192,39685,1,0,0:0:0:0:
36,192,39685,1,0,0:0:0:0:
256,192,39771,1,0,0:0:0:0:
109,192,39771,1,0,0:0:0:0:
109,192,39857,1,0,0:0:0:0:
256,192,39857,1,0,0:0:0:0:
402,192,39942,1,0,0:0:0:0:
475,192,39942,1,0,0:0:0:0:
402,192,40028,1,0,0:0:0:0:
475,192,40028,1,0,0:0:0:0:
182,192,40114,1,0,0:0:0:0:
329,192,40114,1,0,0:0:0:0:
329,192,40200,1,0,0:0:0:0:
182,192,40200,1,0,0:0:0:0:
36,192,40285,1,0,0:0:0:0:
109,192,40285,1,0,0:0:0:0:
109,192,40371,1,0,0:0:0:0:
36,192,40371,1,0,0:0:0:0:
256,192,40457,1,0,0:0:0:0:
475,192,40457,1,0,0:0:0:0:
475,192,40542,1,0,0:0:0:0:
256,192,40542,1,0,0:0:0:0:
182,192,40628,1,0,0:0:0:0:
402,192,40628,1,0,0:0:0:0:
402,192,40714,1,0,0:0:0:0:
182,192,40714,1,0,0:0:0:0:
109,192,40800,1,0,0:0:0:0:
329,192,40800,1,0,0:0:0:0:
109,192,40885,1,0,0:0:0:0:
329,192,40885,1,0,0:0:0:0:
36,192,40971,1,0,0:0:0:0:
256,192,40971,1,0,0:0:0:0:
36,192,41057,1,0,0:0:0:0:
256,192,41057,1,0,0:0:0:0:
182,192,41142,1,0,0:0:0:0:
402,192,41142,1,0,0:0:0:0:
475,192,41142,1,0,0:0:0:0:
182,192,41228,1,0,0:0:0:0:
402,192,41228,1,0,0:0:0:0:
475,192,41228,1,0,0:0:0:0:
109,192,41314,1,0,0:0:0:0:
256,192,41314,1,0,0:0:0:0:
329,192,41314,1,0,0:0:0:0:
329,192,41400,1,0,0:0:0:0:
256,192,41400,1,0,0:0:0:0:
109,192,41400,1,0,0:0:0:0:
36,192,41485,1,0,0:0:0:0:
182,192,41485,1,0,0:0:0:0:
402,192,41485,1,0,0:0:0:0:
402,192,41571,1,0,0:0:0:0:
182,192,41571,1,0,0:0:0:0:
36,192,41571,1,0,0:0:0:0:
109,192,41657,1,0,0:0:0:0:
329,192,41657,1,0,0:0:0:0:
475,192,41657,1,0,0:0:0:0:
475,192,41742,1,0,0:0:0:0:
329,192,41742,1,0,0:0:0:0:
109,192,41742,1,0,0:0:0:0:
182,192,41828,1,0,0:0:0:0:
256,192,41828,1,0,0:0:0:0:
402,192,41828,1,0,0:0:0:0:
402,192,41914,1,0,0:0:0:0:
256,192,41914,1,0,0:0:0:0:
182,192,41914,1,0,0:0:0:0:
109,192,42000,1,0,0:0:0:0:
36,192,42000,1,0,0:0:0:0:
329,192,42000,1,0,0:0:0:0:
329,192,42085,1,0,0:0:0:0:
109,192,42085,1,0,0:0:0:0:
36,192,42085,1,0,0:0:0:0:
402,192,42171,1,0,0:0:0:0:
475,192,42171,1,0,0:0:0:0:
182,192,42171,1,0,0:0:0:0:
182,192,42257,1,0,0:0:0:0:
402,192,42257,1,0,0:0:0:0:
475,192,42257,1,0,0:0:0:0:
329,192,42342,1,0,0:0:0:0:
256,192,42342,1,0,0:0:0:0:
109,192,42342,1,0,0:0:0:0:
109,192,42428,1,0,0:0:0:0:
256,192,42428,1,0,0:0:0:0:
329,192,42428,1,0,0:0:0:0:
36,192,42514,1,0,0:0:0:0:
182,192,42514,1,0,0:0:0:0:
402,192,42514,1,0,0:0:0:0:
475,192,42514,1,0,0:0:0:0:
109,192,42514,1,0,0:0:0:0:
256,192,42514,1,0,0:0:0:0:
329,192,42514,1,0,0:0:0:0:
36,192,43200,1,0,0:0:0:0:
36,192,43242,1,0,0:0:0:0:
182,192,43285,1,0,0:0:0:0:
182,192,43328,1,0,0:0:0:0:
402,192,43371,1,0,0:0:0:0:
402,192,43414,1,0,0:0:0:0:
256,192,43457,1,0,0:0:0:0:
256,192,43500,1,0,0:0:0:0:
109,192,43542,1,0,0:0:0:0:
109,192,43585,1,0,0:0:0:0:
475,192,43628,1,0,0:0:0:0:
475,192,43671,1,0,0:0:0:0:
329,192,43714,1,0,0:0:0:0:
329,192,43757,1,0,0:0:0:0:
182,192,43800,1,0,0:0:0:0:
182,192,43842,1,0,0:0:0:0:
36,192,43885,1,0,0:0:0:0:
475,192,43885,1,0,0:0:0:0:
475,192,43928,1,0,0:0:0:0:
36,192,43928,1,0,0:0:0:0:
402,192,43971,1,0,0:0:0:0:
109,192,43971,1,0,0:0:0:0:
402,192,44014,1,0,0:0:0:0:
109,192,44014,1,0,0:0:0:0:
329,192,44057,1,0,0:0:0:0:
182,192,44057,1,0,0:0:0:0:
329,192,44100,1,0,0:0:0:0:
182,192,44100,1,0,0:0:0:0:
329,192,44142,1,0,0:0:0:0:
182,192,44142,1,0,0:0:0:0:
329,192,44185,1,0,0:0:0:0:
182,192,44185,1,0,0:0:0:0:
475,192,44228,1,0,0:0:0:0:
402,192,44228,1,0,0:0:0:0:
329,192,44228,1,0,0:0:0:0:
256,192,44228,1,0,0:0:0:0:
109,192,44228,1,0,0:0:0:0:
182,192,44228,1,0,0:0:0:0:
36,192,44228,1,0,0:0:0:0:
