osu file format v14

[General]
AudioFilename: 5min.mp3
AudioLeadIn: 0
PreviewTime: -1
Countdown: 0
SampleSet: None
StackLeniency: 0.7
Mode: 3
LetterboxInBreaks: 0
SpecialStyle: 0
WidescreenStoryboard: 1

[Editor]
DistanceSpacing: 0.8
BeatDivisor: 4
GridSize: 16
TimelineZoom: 1.3

[Metadata]
Title:VSRG Pattern Training
TitleUnicode:VSRG Pattern Training
Artist:
ArtistUnicode:
Creator:iJinjin
Version:Jackhammer 1.40x
Source:
Tags:
BeatmapID:754634
BeatmapSetID:341207

[Difficulty]
HPDrainRate:7
CircleSize:7
OverallDifficulty:0
ApproachRate:5
SliderMultiplier:1.4
SliderTickRate:1

[Events]
//Background and Video events
0,0,"vsrg practice wallpaper.jpg",0,0
//Break Periods
//Storyboard Layer 0 (Background)
//Storyboard Layer 1 (Fail)
//Storyboard Layer 2 (Pass)
//Storyboard Layer 3 (Foreground)
//Storyboard Sound Samples

[TimingPoints]
0,214.285714285714,4,2,0,5,1,0

[HitObjects]
36,192,0,5,0,0:0:0:0:
36,192,107,1,0,0:0:0:0:
36,192,214,1,0,0:0:0:0:
36,192,321,1,0,0:0:0:0:
36,192,428,1,0,0:0:0:0:
109,192,857,1,0,0:0:0:0:
109,192,964,1,0,0:0:0:0:
109,192,1071,1,0,0:0:0:0:
109,192,1178,1,0,0:0:0:0:
109,192,1285,1,0,0:0:0:0:
182,192,1714,1,0,0:0:0:0:
182,192,1821,1,0,0:0:0:0:
182,192,1928,1,0,0:0:0:0:
182,192,2035,1,0,0:0:0:0:
182,192,2142,1,0,0:0:0:0:
256,192,2571,1,0,0:0:0:0:
256,192,2678,1,0,0:0:0:0:
256,192,2785,1,0,0:0:0:0:
256,192,2892,1,0,0:0:0:0:
256,192,3000,1,0,0:0:0:0:
329,192,3428,1,0,0:0:0:0:
329,192,3535,1,0,0:0:0:0:
329,192,3642,1,0,0:0:0:0:
329,192,3750,1,0,0:0:0:0:
329,192,3857,1,0,0:0:0:0:
402,192,4285,1,0,0:0:0:0:
402,192,4392,1,0,0:0:0:0:
402,192,4500,1,0,0:0:0:0:
402,192,4607,1,0,0:0:0:0:
402,192,4714,1,0,0:0:0:0:
475,192,5142,1,0,0:0:0:0:
475,192,5250,1,0,0:0:0:0:
475,192,5357,1,0,0:0:0:0:
475,192,5464,1,0,0:0:0:0:
475,192,5571,1,0,0:0:0:0:
182,192,6000,1,0,0:0:0:0:
329,192,6000,1,0,0:0:0:0:
182,192,6107,1,0,0:0:0:0:
329,192,6107,1,0,0:0:0:0:
182,192,6214,1,0,0:0:0:0:
329,192,6214,1,0,0:0:0:0:
182,192,6321,1,0,0:0:0:0:
329,192,6321,1,0,0:0:0:0:
182,192,6428,1,0,0:0:0:0:
329,192,6428,1,0,0:0:0:0:
109,192,6857,1,0,0:0:0:0:
402,192,6857,1,0,0:0:0:0:
109,192,6964,1,0,0:0:0:0:
402,192,6964,1,0,0:0:0:0:
109,192,7071,1,0,0:0:0:0:
402,192,7071,1,0,0:0:0:0:
109,192,7178,1,0,0:0:0:0:
402,192,7178,1,0,0:0:0:0:
109,192,7285,1,0,0:0:0:0:
402,192,7285,1,0,0:0:0:0:
36,192,7714,1,0,0:0:0:0:
475,192,7714,1,0,0:0:0:0:
36,192,7821,1,0,0:0:0:0:
475,192,7821,1,0,0:0:0:0:
36,192,7928,1,0,0:0:0:0:
475,192,7928,1,0,0:0:0:0:
36,192,8035,1,0,0:0:0:0:
475,192,8035,1,0,0:0:0:0:
475,192,8142,1,0,0:0:0:0:
36,192,8142,1,0,0:0:0:0:
182,192,8571,128,0,9000:0:0:0:0:
475,192,8571,1,0,0:0:0:0:
475,192,8678,1,0,0:0:0:0:
475,192,8785,1,0,0:0:0:0:
475,192,8892,1,0,0:0:0:0:
109,192,9000,128,0,9428:0:0:0:0:
402,192,9000,1,0,0:0:0:0:
402,192,9107,1,0,0:0:0:0:
402,192,9214,1,0,0:0:0:0:
402,192,9321,1,0,0:0:0:0:
36,192,9428,128,0,9857:0:0:0:0:
329,192,9428,1,0,0:0:0:0:
329,192,9535,1,0,0:0:0:0:
329,192,9642,1,0,0:0:0:0:
329,192,9750,1,0,0:0:0:0:
329,192,9857,1,0,0:0:0:0:
329,192,10285,128,0,10714:0:0:0:0:
36,192,10285,1,0,0:0:0:0:
36,192,10392,1,0,0:0:0:0:
36,192,10500,1,0,0:0:0:0:
36,192,10607,1,0,0:0:0:0:
402,192,10714,128,0,11142:0:0:0:0:
109,192,10714,1,0,0:0:0:0:
109,192,10821,1,0,0:0:0:0:
109,192,10928,1,0,0:0:0:0:
109,192,11035,1,0,0:0:0:0:
475,192,11142,128,0,11571:0:0:0:0:
182,192,11142,1,0,0:0:0:0:
182,192,11250,1,0,0:0:0:0:
182,192,11357,1,0,0:0:0:0:
182,192,11464,1,0,0:0:0:0:
182,192,11571,1,0,0:0:0:0:
36,192,12000,128,0,12428:0:0:0:0:
109,192,12000,1,0,0:0:0:0:
109,192,12107,1,0,0:0:0:0:
182,192,12214,1,0,0:0:0:0:
182,192,12321,1,0,0:0:0:0:
182,192,12428,128,0,12857:0:0:0:0:
109,192,12428,1,0,0:0:0:0:
109,192,12535,1,0,0:0:0:0:
36,192,12642,1,0,0:0:0:0:
36,192,12750,1,0,0:0:0:0:
36,192,12857,128,0,13285:0:0:0:0:
109,192,12857,1,0,0:0:0:0:
109,192,12964,1,0,0:0:0:0:
182,192,13071,1,0,0:0:0:0:
182,192,13178,1,0,0:0:0:0:
182,192,13285,128,0,13714:0:0:0:0:
109,192,13285,1,0,0:0:0:0:
109,192,13392,1,0,0:0:0:0:
36,192,13500,1,0,0:0:0:0:
36,192,13607,1,0,0:0:0:0:
402,192,13714,1,0,0:0:0:0:
475,192,13714,128,0,14142:0:0:0:0:
402,192,13821,1,0,0:0:0:0:
329,192,13928,1,0,0:0:0:0:
329,192,14035,1,0,0:0:0:0:
329,192,14142,128,0,14571:0:0:0:0:
402,192,14142,1,0,0:0:0:0:
402,192,14250,1,0,0:0:0:0:
475,192,14357,1,0,0:0:0:0:
475,192,14464,1,0,0:0:0:0:
402,192,14571,1,0,0:0:0:0:
475,192,14571,128,0,15000:0:0:0:0:
402,192,14678,1,0,0:0:0:0:
329,192,14785,1,0,0:0:0:0:
329,192,14892,1,0,0:0:0:0:
329,192,15000,128,0,15428:0:0:0:0:
402,192,15000,1,0,0:0:0:0:
402,192,15107,1,0,0:0:0:0:
475,192,15214,1,0,0:0:0:0:
475,192,15321,1,0,0:0:0:0:
36,192,15428,1,0,0:0:0:0:
182,192,15428,1,0,0:0:0:0:
182,192,15535,1,0,0:0:0:0:
36,192,15535,1,0,0:0:0:0:
36,192,15642,1,0,0:0:0:0:
182,192,15642,1,0,0:0:0:0:
182,192,15750,1,0,0:0:0:0:
36,192,15750,1,0,0:0:0:0:
329,192,15857,1,0,0:0:0:0:
475,192,15857,1,0,0:0:0:0:
475,192,15964,1,0,0:0:0:0:
329,192,15964,1,0,0:0:0:0:
329,192,16071,1,0,0:0:0:0:
475,192,16071,1,0,0:0:0:0:
475,192,16178,1,0,0:0:0:0:
329,192,16178,1,0,0:0:0:0:
109,192,16285,1,0,0:0:0:0:
182,192,16285,1,0,0:0:0:0:
109,192,16392,1,0,0:0:0:0:
182,192,16392,1,0,0:0:0:0:
182,192,16500,1,0,0:0:0:0:
109,192,16500,1,0,0:0:0:0:
109,192,16607,1,0,0:0:0:0:
182,192,16607,1,0,0:0:0:0:
329,192,16714,1,0,0:0:0:0:
402,192,16714,1,0,0:0:0:0:
402,192,16821,1,0,0:0:0:0:
329,192,16821,1,0,0:0:0:0:
402,192,16928,1,0,0:0:0:0:
329,192,16928,1,0,0:0:0:0:
402,192,17035,1,0,0:0:0:0:
329,192,17035,1,0,0:0:0:0:
36,192,17142,1,0,0:0:0:0:
109,192,17142,1,0,0:0:0:0:
109,192,17250,1,0,0:0:0:0:
36,192,17250,1,0,0:0:0:0:
36,192,17357,1,0,0:0:0:0:
109,192,17357,1,0,0:0:0:0:
109,192,17464,1,0,0:0:0:0:
36,192,17464,1,0,0:0:0:0:
402,192,17571,1,0,0:0:0:0:
475,192,17571,1,0,0:0:0:0:
402,192,17678,1,0,0:0:0:0:
475,192,17678,1,0,0:0:0:0:
402,192,17785,1,0,0:0:0:0:
475,192,17785,1,0,0:0:0:0:
402,192,17892,1,0,0:0:0:0:
475,192,17892,1,0,0:0:0:0:
36,192,18000,1,0,0:0:0:0:
109,192,18000,1,0,0:0:0:0:
182,192,18000,1,0,0:0:0:0:
329,192,18000,1,0,0:0:0:0:
402,192,18000,1,0,0:0:0:0:
475,192,18000,1,0,0:0:0:0:
36,192,18107,1,0,0:0:0:0:
109,192,18107,1,0,0:0:0:0:
182,192,18107,1,0,0:0:0:0:
475,192,18107,1,0,0:0:0:0:
402,192,18107,1,0,0:0:0:0:
329,192,18107,1,0,0:0:0:0:
36,192,18214,1,0,0:0:0:0:
109,192,18214,1,0,0:0:0:0:
182,192,18214,1,0,0:0:0:0:
402,192,18214,1,0,0:0:0:0:
475,192,18214,1,0,0:0:0:0:
329,192,18214,1,0,0:0:0:0:
36,192,18321,1,0,0:0:0:0:
109,192,18321,1,0,0:0:0:0:
182,192,18321,1,0,0:0:0:0:
329,192,18321,1,0,0:0:0:0:
402,192,18321,1,0,0:0:0:0:
475,192,18321,1,0,0:0:0:0:
36,192,18428,1,0,0:0:0:0:
109,192,18428,1,0,0:0:0:0:
182,192,18428,1,0,0:0:0:0:
329,192,18428,1,0,0:0:0:0:
402,192,18428,1,0,0:0:0:0:
475,192,18428,1,0,0:0:0:0:
36,192,18857,1,0,0:0:0:0:
109,192,18857,1,0,0:0:0:0:
109,192,18964,1,0,0:0:0:0:
182,192,18964,1,0,0:0:0:0:
182,192,19071,1,0,0:0:0:0:
256,192,19071,1,0,0:0:0:0:
109,192,19285,1,0,0:0:0:0:
182,192,19285,1,0,0:0:0:0:
182,192,19392,1,0,0:0:0:0:
256,192,19392,1,0,0:0:0:0:
256,192,19500,1,0,0:0:0:0:
329,192,19500,1,0,0:0:0:0:
182,192,19714,1,0,0:0:0:0:
256,192,19714,1,0,0:0:0:0:
256,192,19821,1,0,0:0:0:0:
329,192,19821,1,0,0:0:0:0:
329,192,19928,1,0,0:0:0:0:
402,192,19928,1,0,0:0:0:0:
256,192,20142,1,0,0:0:0:0:
329,192,20142,1,0,0:0:0:0:
329,192,20250,1,0,0:0:0:0:
402,192,20250,1,0,0:0:0:0:
402,192,20357,1,0,0:0:0:0:
475,192,20357,1,0,0:0:0:0:
402,192,20571,1,0,0:0:0:0:
475,192,20571,1,0,0:0:0:0:
402,192,20678,1,0,0:0:0:0:
329,192,20678,1,0,0:0:0:0:
256,192,20785,1,0,0:0:0:0:
329,192,20785,1,0,0:0:0:0:
402,192,21000,1,0,0:0:0:0:
329,192,21000,1,0,0:0:0:0:
329,192,21107,1,0,0:0:0:0:
256,192,21107,1,0,0:0:0:0:
256,192,21214,1,0,0:0:0:0:
182,192,21214,1,0,0:0:0:0:
329,192,21428,1,0,0:0:0:0:
256,192,21428,1,0,0:0:0:0:
256,192,21535,1,0,0:0:0:0:
182,192,21535,1,0,0:0:0:0:
182,192,21642,1,0,0:0:0:0:
109,192,21642,1,0,0:0:0:0:
256,192,21857,1,0,0:0:0:0:
182,192,21857,1,0,0:0:0:0:
182,192,21964,1,0,0:0:0:0:
109,192,21964,1,0,0:0:0:0:
109,192,22071,1,0,0:0:0:0:
36,192,22071,1,0,0:0:0:0:
36,192,22285,1,0,0:0:0:0:
109,192,22285,1,0,0:0:0:0:
182,192,22285,1,0,0:0:0:0:
109,192,22392,1,0,0:0:0:0:
182,192,22392,1,0,0:0:0:0:
256,192,22392,1,0,0:0:0:0:
182,192,22500,1,0,0:0:0:0:
256,192,22500,1,0,0:0:0:0:
329,192,22500,1,0,0:0:0:0:
109,192,22607,1,0,0:0:0:0:
256,192,22607,1,0,0:0:0:0:
182,192,22607,1,0,0:0:0:0:
182,192,22714,1,0,0:0:0:0:
109,192,22714,1,0,0:0:0:0:
36,192,22714,1,0,0:0:0:0:
329,192,23142,1,0,0:0:0:0:
402,192,23142,1,0,0:0:0:0:
475,192,23142,1,0,0:0:0:0:
402,192,23250,1,0,0:0:0:0:
329,192,23250,1,0,0:0:0:0:
256,192,23250,1,0,0:0:0:0:
182,192,23357,1,0,0:0:0:0:
329,192,23357,1,0,0:0:0:0:
256,192,23357,1,0,0:0:0:0:
256,192,23464,1,0,0:0:0:0:
329,192,23464,1,0,0:0:0:0:
402,192,23464,1,0,0:0:0:0:
329,192,23571,1,0,0:0:0:0:
402,192,23571,1,0,0:0:0:0:
475,192,23571,1,0,0:0:0:0:
36,192,24000,1,0,0:0:0:0:
109,192,24000,1,0,0:0:0:0:
109,192,24107,1,0,0:0:0:0:
182,192,24107,1,0,0:0:0:0:
182,192,24214,1,0,0:0:0:0:
256,192,24214,1,0,0:0:0:0:
256,192,24321,1,0,0:0:0:0:
329,192,24321,1,0,0:0:0:0:
329,192,24428,1,0,0:0:0:0:
402,192,24428,1,0,0:0:0:0:
109,192,24428,1,0,0:0:0:0:
182,192,24428,1,0,0:0:0:0:
182,192,24535,1,0,0:0:0:0:
256,192,24535,1,0,0:0:0:0:
256,192,24642,1,0,0:0:0:0:
329,192,24642,1,0,0:0:0:0:
329,192,24750,1,0,0:0:0:0:
402,192,24750,1,0,0:0:0:0:
402,192,24857,1,0,0:0:0:0:
475,192,24857,1,0,0:0:0:0:
402,192,25714,1,0,0:0:0:0:
475,192,25714,1,0,0:0:0:0:
329,192,25714,1,0,0:0:0:0:
256,192,25821,1,0,0:0:0:0:
329,192,25821,1,0,0:0:0:0:
402,192,25821,1,0,0:0:0:0:
329,192,25928,1,0,0:0:0:0:
256,192,25928,1,0,0:0:0:0:
182,192,25928,1,0,0:0:0:0:
109,192,26035,1,0,0:0:0:0:
182,192,26035,1,0,0:0:0:0:
256,192,26035,1,0,0:0:0:0:
402,192,26142,1,0,0:0:0:0:
329,192,26142,1,0,0:0:0:0:
475,192,26142,1,0,0:0:0:0:
256,192,26250,1,0,0:0:0:0:
329,192,26250,1,0,0:0:0:0:
402,192,26250,1,0,0:0:0:0:
182,192,26357,1,0,0:0:0:0:
256,192,26357,1,0,0:0:0:0:
329,192,26357,1,0,0:0:0:0:
256,192,26464,1,0,0:0:0:0:
182,192,26464,1,0,0:0:0:0:
109,192,26464,1,0,0:0:0:0:
36,192,26571,1,0,0:0:0:0:
182,192,26571,1,0,0:0:0:0:
109,192,26571,1,0,0:0:0:0:
109,192,26678,1,0,0:0:0:0:
182,192,26678,1,0,0:0:0:0:
256,192,26678,1,0,0:0:0:0:
182,192,26785,1,0,0:0:0:0:
256,192,26785,1,0,0:0:0:0:
329,192,26785,1,0,0:0:0:0:
256,192,26892,1,0,0:0:0:0:
329,192,26892,1,0,0:0:0:0:
402,192,26892,1,0,0:0:0:0:
36,192,27000,1,0,0:0:0:0:
109,192,27000,1,0,0:0:0:0:
182,192,27000,1,0,0:0:0:0:
109,192,27107,1,0,0:0:0:0:
182,192,27107,1,0,0:0:0:0:
256,192,27107,1,0,0:0:0:0:
182,192,27214,1,0,0:0:0:0:
256,192,27214,1,0,0:0:0:0:
329,192,27214,1,0,0:0:0:0:
256,192,27321,1,0,0:0:0:0:
329,192,27321,1,0,0:0:0:0:
402,192,27321,1,0,0:0:0:0:
329,192,27428,1,0,0:0:0:0:
402,192,27428,1,0,0:0:0:0:
475,192,27428,1,0,0:0:0:0:
36,192,28285,1,0,0:0:0:0:
109,192,28285,1,0,0:0:0:0:
182,192,28285,1,0,0:0:0:0:
256,192,28285,1,0,0:0:0:0:
329,192,28285,1,0,0:0:0:0:
402,192,28285,1,0,0:0:0:0:
475,192,28285,1,0,0:0:0:0:
109,192,28392,1,0,0:0:0:0:
182,192,28392,1,0,0:0:0:0:
329,192,28392,1,0,0:0:0:0:
182,192,28500,1,0,0:0:0:0:
109,192,28500,1,0,0:0:0:0:
402,192,28500,1,0,0:0:0:0:
109,192,28607,1,0,0:0:0:0:
182,192,28607,1,0,0:0:0:0:
475,192,28607,1,0,0:0:0:0:
36,192,28714,1,0,0:0:0:0:
109,192,28714,1,0,0:0:0:0:
182,192,28714,1,0,0:0:0:0:
256,192,28714,1,0,0:0:0:0:
329,192,28714,1,0,0:0:0:0:
402,192,28714,1,0,0:0:0:0:
475,192,28714,1,0,0:0:0:0:
329,192,28821,1,0,0:0:0:0:
402,192,28821,1,0,0:0:0:0:
36,192,28821,1,0,0:0:0:0:
402,192,28928,1,0,0:0:0:0:
329,192,28928,1,0,0:0:0:0:
109,192,28928,1,0,0:0:0:0:
329,192,29035,1,0,0:0:0:0:
402,192,29035,1,0,0:0:0:0:
182,192,29035,1,0,0:0:0:0:
109,192,29142,1,0,0:0:0:0:
182,192,29142,1,0,0:0:0:0:
256,192,29142,1,0,0:0:0:0:
36,192,29142,1,0,0:0:0:0:
329,192,29142,1,0,0:0:0:0:
402,192,29142,1,0,0:0:0:0:
475,192,29142,1,0,0:0:0:0:
36,192,29250,1,0,0:0:0:0:
109,192,29250,1,0,0:0:0:0:
182,192,29250,1,0,0:0:0:0:
36,192,29357,1,0,0:0:0:0:
109,192,29357,1,0,0:0:0:0:
182,192,29357,1,0,0:0:0:0:
329,192,29357,1,0,0:0:0:0:
402,192,29357,1,0,0:0:0:0:
182,192,29464,1,0,0:0:0:0:
109,192,29464,1,0,0:0:0:0:
36,192,29464,1,0,0:0:0:0:
36,192,29571,1,0,0:0:0:0:
109,192,29571,1,0,0:0:0:0:
182,192,29571,1,0,0:0:0:0:
256,192,29571,1,0,0:0:0:0:
329,192,29571,1,0,0:0:0:0:
402,192,29571,1,0,0:0:0:0:
475,192,29571,1,0,0:0:0:0:
329,192,29678,1,0,0:0:0:0:
402,192,29678,1,0,0:0:0:0:
475,192,29678,1,0,0:0:0:0:
329,192,29785,1,0,0:0:0:0:
402,192,29785,1,0,0:0:0:0:
475,192,29785,1,0,0:0:0:0:
109,192,29785,1,0,0:0:0:0:
182,192,29785,1,0,0:0:0:0:
329,192,29892,1,0,0:0:0:0:
402,192,29892,1,0,0:0:0:0:
475,192,29892,1,0,0:0:0:0:
36,192,30000,1,0,0:0:0:0:
109,192,30000,1,0,0:0:0:0:
182,192,30000,1,0,0:0:0:0:
256,192,30000,1,0,0:0:0:0:
329,192,30000,1,0,0:0:0:0:
402,192,30000,1,0,0:0:0:0:
475,192,30000,1,0,0:0:0:0:
36,192,30107,1,0,0:0:0:0:
182,192,30107,1,0,0:0:0:0:
36,192,30214,1,0,0:0:0:0:
182,192,30214,1,0,0:0:0:0:
329,192,30214,1,0,0:0:0:0:
402,192,30214,1,0,0:0:0:0:
36,192,30321,1,0,0:0:0:0:
182,192,30321,1,0,0:0:0:0:
36,192,30428,1,0,0:0:0:0:
109,192,30428,1,0,0:0:0:0:
182,192,30428,1,0,0:0:0:0:
256,192,30428,1,0,0:0:0:0:
329,192,30428,1,0,0:0:0:0:
402,192,30428,1,0,0:0:0:0:
475,192,30428,1,0,0:0:0:0:
329,192,30535,1,0,0:0:0:0:
475,192,30535,1,0,0:0:0:0:
329,192,30642,1,0,0:0:0:0:
475,192,30642,1,0,0:0:0:0:
109,192,30642,1,0,0:0:0:0:
182,192,30642,1,0,0:0:0:0:
329,192,30750,1,0,0:0:0:0:
475,192,30750,1,0,0:0:0:0:
475,192,30857,1,0,0:0:0:0:
329,192,30857,1,0,0:0:0:0:
256,192,30857,1,0,0:0:0:0:
182,192,30857,1,0,0:0:0:0:
109,192,30857,1,0,0:0:0:0:
36,192,30857,1,0,0:0:0:0:
402,192,30857,1,0,0:0:0:0:
109,192,30964,1,0,0:0:0:0:
256,192,30964,1,0,0:0:0:0:
182,192,31071,1,0,0:0:0:0:
329,192,31071,1,0,0:0:0:0:
182,192,31178,1,0,0:0:0:0:
329,192,31178,1,0,0:0:0:0:
36,192,31285,1,0,0:0:0:0:
109,192,31285,1,0,0:0:0:0:
182,192,31285,1,0,0:0:0:0:
256,192,31285,1,0,0:0:0:0:
329,192,31285,1,0,0:0:0:0:
402,192,31285,1,0,0:0:0:0:
475,192,31285,1,0,0:0:0:0:
256,192,31392,1,0,0:0:0:0:
402,192,31392,1,0,0:0:0:0:
182,192,31500,1,0,0:0:0:0:
329,192,31500,1,0,0:0:0:0:
182,192,31607,1,0,0:0:0:0:
329,192,31607,1,0,0:0:0:0:
36,192,31714,1,0,0:0:0:0:
109,192,31714,1,0,0:0:0:0:
182,192,31714,1,0,0:0:0:0:
256,192,31714,1,0,0:0:0:0:
329,192,31714,1,0,0:0:0:0:
402,192,31714,1,0,0:0:0:0:
475,192,31714,1,0,0:0:0:0:
109,192,31821,1,0,0:0:0:0:
256,192,31821,1,0,0:0:0:0:
402,192,31821,1,0,0:0:0:0:
182,192,31928,1,0,0:0:0:0:
329,192,31928,1,0,0:0:0:0:
109,192,32035,1,0,0:0:0:0:
256,192,32035,1,0,0:0:0:0:
402,192,32035,1,0,0:0:0:0:
329,192,32142,1,0,0:0:0:0:
256,192,32142,1,0,0:0:0:0:
182,192,32142,1,0,0:0:0:0:
109,192,32142,1,0,0:0:0:0:
36,192,32142,1,0,0:0:0:0:
402,192,32142,1,0,0:0:0:0:
475,192,32142,1,0,0:0:0:0:
182,192,32250,1,0,0:0:0:0:
36,192,32250,1,0,0:0:0:0:
329,192,32250,1,0,0:0:0:0:
402,192,32250,1,0,0:0:0:0:
402,192,32357,1,0,0:0:0:0:
329,192,32357,1,0,0:0:0:0:
182,192,32357,1,0,0:0:0:0:
109,192,32357,1,0,0:0:0:0:
36,192,32464,1,0,0:0:0:0:
182,192,32464,1,0,0:0:0:0:
329,192,32464,1,0,0:0:0:0:
475,192,32464,1,0,0:0:0:0:
256,192,32571,1,0,0:0:0:0:
182,192,32571,1,0,0:0:0:0:
109,192,32571,1,0,0:0:0:0:
36,192,32571,1,0,0:0:0:0:
402,192,32571,1,0,0:0:0:0:
329,192,32571,1,0,0:0:0:0:
475,192,32571,1,0,0:0:0:0:
256,192,32678,1,0,0:0:0:0:
109,192,32678,1,0,0:0:0:0:
402,192,32678,1,0,0:0:0:0:
402,192,32785,1,0,0:0:0:0:
256,192,32785,1,0,0:0:0:0:
109,192,32785,1,0,0:0:0:0:
329,192,32785,1,0,0:0:0:0:
109,192,32892,1,0,0:0:0:0:
256,192,32892,1,0,0:0:0:0:
402,192,32892,1,0,0:0:0:0:
402,192,33000,1,0,0:0:0:0:
256,192,33000,1,0,0:0:0:0:
182,192,33000,1,0,0:0:0:0:
109,192,33000,1,0,0:0:0:0:
36,192,33000,1,0,0:0:0:0:
329,192,33000,1,0,0:0:0:0:
475,192,33000,1,0,0:0:0:0:
182,192,33107,1,0,0:0:0:0:
329,192,33107,1,0,0:0:0:0:
475,192,33107,1,0,0:0:0:0:
475,192,33214,1,0,0:0:0:0:
182,192,33214,1,0,0:0:0:0:
329,192,33214,1,0,0:0:0:0:
36,192,33214,1,0,0:0:0:0:
109,192,33214,1,0,0:0:0:0:
182,192,33321,1,0,0:0:0:0:
329,192,33321,1,0,0:0:0:0:
475,192,33321,1,0,0:0:0:0:
36,192,33428,1,0,0:0:0:0:
109,192,33428,1,0,0:0:0:0:
182,192,33428,1,0,0:0:0:0:
256,192,33428,1,0,0:0:0:0:
329,192,33428,1,0,0:0:0:0:
402,192,33428,1,0,0:0:0:0:
475,192,33428,1,0,0:0:0:0:
36,192,33535,1,0,0:0:0:0:
109,192,33535,1,0,0:0:0:0:
256,192,33535,1,0,0:0:0:0:
402,192,33535,1,0,0:0:0:0:
402,192,33642,1,0,0:0:0:0:
256,192,33642,1,0,0:0:0:0:
109,192,33642,1,0,0:0:0:0:
36,192,33642,1,0,0:0:0:0:
329,192,33642,1,0,0:0:0:0:
475,192,33642,1,0,0:0:0:0:
256,192,33750,1,0,0:0:0:0:
402,192,33750,1,0,0:0:0:0:
109,192,33750,1,0,0:0:0:0:
36,192,33750,1,0,0:0:0:0:
36,192,33857,1,0,0:0:0:0:
109,192,33857,1,0,0:0:0:0:
182,192,33857,1,0,0:0:0:0:
256,192,33857,1,0,0:0:0:0:
329,192,33857,1,0,0:0:0:0:
402,192,33857,1,0,0:0:0:0:
475,192,33857,1,0,0:0:0:0:
182,192,34285,128,0,35142:0:0:0:0:
329,192,34285,128,0,35142:0:0:0:0:
36,192,34285,1,0,0:0:0:0:
475,192,34285,1,0,0:0:0:0:
36,192,34392,1,0,0:0:0:0:
475,192,34392,1,0,0:0:0:0:
36,192,34500,1,0,0:0:0:0:
475,192,34500,1,0,0:0:0:0:
36,192,34607,1,0,0:0:0:0:
475,192,34607,1,0,0:0:0:0:
36,192,34714,1,0,0:0:0:0:
109,192,34714,1,0,0:0:0:0:
402,192,34714,1,0,0:0:0:0:
475,192,34714,1,0,0:0:0:0:
109,192,34821,1,0,0:0:0:0:
36,192,34821,1,0,0:0:0:0:
475,192,34821,1,0,0:0:0:0:
402,192,34821,1,0,0:0:0:0:
36,192,34928,1,0,0:0:0:0:
109,192,34928,1,0,0:0:0:0:
402,192,34928,1,0,0:0:0:0:
475,192,34928,1,0,0:0:0:0:
109,192,35035,1,0,0:0:0:0:
36,192,35035,1,0,0:0:0:0:
475,192,35035,1,0,0:0:0:0:
402,192,35035,1,0,0:0:0:0:
36,192,35142,1,0,0:0:0:0:
109,192,35142,1,0,0:0:0:0:
402,192,35142,1,0,0:0:0:0:
475,192,35142,1,0,0:0:0:0:
256,192,35142,1,0,0:0:0:0:
109,192,36000,128,0,36857:0:0:0:0:
402,192,36000,128,0,36857:0:0:0:0:
182,192,36000,1,0,0:0:0:0:
329,192,36000,1,0,0:0:0:0:
182,192,36107,1,0,0:0:0:0:
329,192,36107,1,0,0:0:0:0:
182,192,36214,1,0,0:0:0:0:
329,192,36214,1,0,0:0:0:0:
182,192,36321,1,0,0:0:0:0:
329,192,36321,1,0,0:0:0:0:
182,192,36428,1,0,0:0:0:0:
36,192,36428,1,0,0:0:0:0:
329,192,36428,1,0,0:0:0:0:
475,192,36428,1,0,0:0:0:0:
182,192,36535,1,0,0:0:0:0:
36,192,36535,1,0,0:0:0:0:
329,192,36535,1,0,0:0:0:0:
475,192,36535,1,0,0:0:0:0:
182,192,36642,1,0,0:0:0:0:
36,192,36642,1,0,0:0:0:0:
329,192,36642,1,0,0:0:0:0:
475,192,36642,1,0,0:0:0:0:
182,192,36750,1,0,0:0:0:0:
36,192,36750,1,0,0:0:0:0:
329,192,36750,1,0,0:0:0:0:
475,192,36750,1,0,0:0:0:0:
182,192,36857,1,0,0:0:0:0:
36,192,36857,1,0,0:0:0:0:
256,192,36857,1,0,0:0:0:0:
329,192,36857,1,0,0:0:0:0:
475,192,36857,1,0,0:0:0:0:
36,192,37714,1,0,0:0:0:0:
109,192,37714,1,0,0:0:0:0:
182,192,37714,1,0,0:0:0:0:
256,192,37714,1,0,0:0:0:0:
109,192,37821,1,0,0:0:0:0:
182,192,37821,1,0,0:0:0:0:
256,192,37821,1,0,0:0:0:0:
329,192,37821,1,0,0:0:0:0:
182,192,37928,1,0,0:0:0:0:
256,192,37928,1,0,0:0:0:0:
329,192,37928,1,0,0:0:0:0:
402,192,37928,1,0,0:0:0:0:
256,192,38035,1,0,0:0:0:0:
329,192,38035,1,0,0:0:0:0:
402,192,38035,1,0,0:0:0:0:
475,192,38035,1,0,0:0:0:0:
256,192,38142,1,0,0:0:0:0:
329,192,38142,1,0,0:0:0:0:
475,192,38142,1,0,0:0:0:0:
402,192,38142,1,0,0:0:0:0:
256,192,38250,1,0,0:0:0:0:
329,192,38250,1,0,0:0:0:0:
402,192,38250,1,0,0:0:0:0:
475,192,38250,1,0,0:0:0:0:
256,192,38357,1,0,0:0:0:0:
329,192,38357,1,0,0:0:0:0:
402,192,38357,1,0,0:0:0:0:
475,192,38357,1,0,0:0:0:0:
182,192,38357,1,0,0:0:0:0:
256,192,38464,1,0,0:0:0:0:
329,192,38464,1,0,0:0:0:0:
402,192,38464,1,0,0:0:0:0:
475,192,38464,1,0,0:0:0:0:
109,192,38464,1,0,0:0:0:0:
182,192,38464,1,0,0:0:0:0:
36,192,38571,1,0,0:0:0:0:
109,192,38571,1,0,0:0:0:0:
182,192,38571,1,0,0:0:0:0:
256,192,38571,1,0,0:0:0:0:
329,192,38571,1,0,0:0:0:0:
475,192,38571,1,0,0:0:0:0:
402,192,38571,1,0,0:0:0:0:
256,192,39428,1,0,0:0:0:0:
329,192,39428,1,0,0:0:0:0:
402,192,39428,1,0,0:0:0:0:
475,192,39428,1,0,0:0:0:0:
329,192,39535,1,0,0:0:0:0:
402,192,39535,1,0,0:0:0:0:
182,192,39535,1,0,0:0:0:0:
256,192,39535,1,0,0:0:0:0:
329,192,39642,1,0,0:0:0:0:
256,192,39642,1,0,0:0:0:0:
182,192,39642,1,0,0:0:0:0:
109,192,39642,1,0,0:0:0:0:
36,192,39750,1,0,0:0:0:0:
109,192,39750,1,0,0:0:0:0:
182,192,39750,1,0,0:0:0:0:
256,192,39750,1,0,0:0:0:0:
36,192,39857,1,0,0:0:0:0:
109,192,39857,1,0,0:0:0:0:
182,192,39857,1,0,0:0:0:0:
256,192,39857,1,0,0:0:0:0:
36,192,39964,1,0,0:0:0:0:
109,192,39964,1,0,0:0:0:0:
256,192,39964,1,0,0:0:0:0:
182,192,39964,1,0,0:0:0:0:
109,192,40071,1,0,0:0:0:0:
36,192,40071,1,0,0:0:0:0:
256,192,40071,1,0,0:0:0:0:
182,192,40071,1,0,0:0:0:0:
329,192,40071,1,0,0:0:0:0:
36,192,40178,1,0,0:0:0:0:
109,192,40178,1,0,0:0:0:0:
256,192,40178,1,0,0:0:0:0:
182,192,40178,1,0,0:0:0:0:
402,192,40178,1,0,0:0:0:0:
329,192,40178,1,0,0:0:0:0:
109,192,40285,1,0,0:0:0:0:
36,192,40285,1,0,0:0:0:0:
182,192,40285,1,0,0:0:0:0:
256,192,40285,1,0,0:0:0:0:
329,192,40285,1,0,0:0:0:0:
402,192,40285,1,0,0:0:0:0:
475,192,40285,1,0,0:0:0:0:
36,192,41142,1,0,0:0:0:0:
36,192,41250,1,0,0:0:0:0:
109,192,41250,1,0,0:0:0:0:
36,192,41357,1,0,0:0:0:0:
182,192,41357,1,0,0:0:0:0:
109,192,41357,1,0,0:0:0:0:
36,192,41464,1,0,0:0:0:0:
109,192,41464,1,0,0:0:0:0:
182,192,41464,1,0,0:0:0:0:
256,192,41464,1,0,0:0:0:0:
36,192,41571,1,0,0:0:0:0:
256,192,41571,1,0,0:0:0:0:
182,192,41571,1,0,0:0:0:0:
109,192,41571,1,0,0:0:0:0:
329,192,41571,1,0,0:0:0:0:
36,192,41678,1,0,0:0:0:0:
402,192,41678,1,0,0:0:0:0:
329,192,41678,1,0,0:0:0:0:
256,192,41678,1,0,0:0:0:0:
182,192,41678,1,0,0:0:0:0:
109,192,41678,1,0,0:0:0:0:
36,192,41785,1,0,0:0:0:0:
109,192,41785,1,0,0:0:0:0:
182,192,41785,1,0,0:0:0:0:
256,192,41785,1,0,0:0:0:0:
329,192,41785,1,0,0:0:0:0:
402,192,41785,1,0,0:0:0:0:
475,192,41785,1,0,0:0:0:0:
109,192,41892,1,0,0:0:0:0:
182,192,41892,1,0,0:0:0:0:
256,192,41892,1,0,0:0:0:0:
329,192,41892,1,0,0:0:0:0:
402,192,41892,1,0,0:0:0:0:
475,192,41892,1,0,0:0:0:0:
182,192,42000,1,0,0:0:0:0:
256,192,42000,1,0,0:0:0:0:
402,192,42000,1,0,0:0:0:0:
475,192,42000,1,0,0:0:0:0:
329,192,42000,1,0,0:0:0:0:
256,192,42107,1,0,0:0:0:0:
329,192,42107,1,0,0:0:0:0:
402,192,42107,1,0,0:0:0:0:
475,192,42107,1,0,0:0:0:0:
475,192,42214,1,0,0:0:0:0:
402,192,42214,1,0,0:0:0:0:
329,192,42214,1,0,0:0:0:0:
402,192,42321,1,0,0:0:0:0:
475,192,42321,1,0,0:0:0:0:
475,192,42428,1,0,0:0:0:0:
36,192,42857,1,0,0:0:0:0:
182,192,42857,1,0,0:0:0:0:
329,192,42857,1,0,0:0:0:0:
475,192,42857,1,0,0:0:0:0:
182,192,43714,1,0,0:0:0:0:
182,192,43821,1,0,0:0:0:0:
329,192,43928,1,0,0:0:0:0:
329,192,44035,1,0,0:0:0:0:
256,192,44142,1,0,0:0:0:0:
256,192,44250,1,0,0:0:0:0:
109,192,44357,1,0,0:0:0:0:
109,192,44464,1,0,0:0:0:0:
402,192,44571,1,0,0:0:0:0:
402,192,44678,1,0,0:0:0:0:
475,192,44785,1,0,0:0:0:0:
475,192,44892,1,0,0:0:0:0:
182,192,45000,1,0,0:0:0:0:
182,192,45107,1,0,0:0:0:0:
36,192,45214,1,0,0:0:0:0:
36,192,45321,1,0,0:0:0:0:
329,192,45428,1,0,0:0:0:0:
329,192,45535,1,0,0:0:0:0:
256,192,45642,1,0,0:0:0:0:
256,192,45750,1,0,0:0:0:0:
182,192,45857,1,0,0:0:0:0:
182,192,45964,1,0,0:0:0:0:
109,192,46071,1,0,0:0:0:0:
109,192,46178,1,0,0:0:0:0:
402,192,46285,1,0,0:0:0:0:
402,192,46392,1,0,0:0:0:0:
329,192,46500,1,0,0:0:0:0:
329,192,46607,1,0,0:0:0:0:
256,192,46714,1,0,0:0:0:0:
256,192,46821,1,0,0:0:0:0:
182,192,46928,1,0,0:0:0:0:
182,192,47035,1,0,0:0:0:0:
36,192,47142,1,0,0:0:0:0:
36,192,47250,1,0,0:0:0:0:
256,192,47357,1,0,0:0:0:0:
256,192,47464,1,0,0:0:0:0:
109,192,47571,1,0,0:0:0:0:
109,192,47678,1,0,0:0:0:0:
329,192,47785,1,0,0:0:0:0:
329,192,47892,1,0,0:0:0:0:
475,192,48000,1,0,0:0:0:0:
475,192,48107,1,0,0:0:0:0:
256,192,48214,1,0,0:0:0:0:
256,192,48321,1,0,0:0:0:0:
402,192,48428,1,0,0:0:0:0:
402,192,48535,1,0,0:0:0:0:
182,192,48642,1,0,0:0:0:0:
182,192,48750,1,0,0:0:0:0:
36,192,48857,1,0,0:0:0:0:
329,192,48857,1,0,0:0:0:0:
329,192,48964,1,0,0:0:0:0:
36,192,48964,1,0,0:0:0:0:
182,192,49071,1,0,0:0:0:0:
402,192,49071,1,0,0:0:0:0:
182,192,49178,1,0,0:0:0:0:
402,192,49178,1,0,0:0:0:0:
109,192,49285,1,0,0:0:0:0:
475,192,49285,1,0,0:0:0:0:
475,192,49392,1,0,0:0:0:0:
109,192,49392,1,0,0:0:0:0:
36,192,49500,1,0,0:0:0:0:
329,192,49500,1,0,0:0:0:0:
329,192,49607,1,0,0:0:0:0:
36,192,49607,1,0,0:0:0:0:
256,192,49714,1,0,0:0:0:0:
109,192,49714,1,0,0:0:0:0:
109,192,49821,1,0,0:0:0:0:
256,192,49821,1,0,0:0:0:0:
402,192,49928,1,0,0:0:0:0:
475,192,49928,1,0,0:0:0:0:
402,192,50035,1,0,0:0:0:0:
475,192,50035,1,0,0:0:0:0:
182,192,50142,1,0,0:0:0:0:
329,192,50142,1,0,0:0:0:0:
329,192,50250,1,0,0:0:0:0:
182,192,50250,1,0,0:0:0:0:
36,192,50357,1,0,0:0:0:0:
109,192,50357,1,0,0:0:0:0:
109,192,50464,1,0,0:0:0:0:
36,192,50464,1,0,0:0:0:0:
256,192,50571,1,0,0:0:0:0:
475,192,50571,1,0,0:0:0:0:
475,192,50678,1,0,0:0:0:0:
256,192,50678,1,0,0:0:0:0:
182,192,50785,1,0,0:0:0:0:
402,192,50785,1,0,0:0:0:0:
402,192,50892,1,0,0:0:0:0:
182,192,50892,1,0,0:0:0:0:
109,192,51000,1,0,0:0:0:0:
329,192,51000,1,0,0:0:0:0:
109,192,51107,1,0,0:0:0:0:
329,192,51107,1,0,0:0:0:0:
36,192,51214,1,0,0:0:0:0:
256,192,51214,1,0,0:0:0:0:
36,192,51321,1,0,0:0:0:0:
256,192,51321,1,0,0:0:0:0:
182,192,51428,1,0,0:0:0:0:
402,192,51428,1,0,0:0:0:0:
475,192,51428,1,0,0:0:0:0:
182,192,51535,1,0,0:0:0:0:
402,192,51535,1,0,0:0:0:0:
475,192,51535,1,0,0:0:0:0:
109,192,51642,1,0,0:0:0:0:
256,192,51642,1,0,0:0:0:0:
329,192,51642,1,0,0:0:0:0:
329,192,51750,1,0,0:0:0:0:
256,192,51750,1,0,0:0:0:0:
109,192,51750,1,0,0:0:0:0:
36,192,51857,1,0,0:0:0:0:
182,192,51857,1,0,0:0:0:0:
402,192,51857,1,0,0:0:0:0:
402,192,51964,1,0,0:0:0:0:
182,192,51964,1,0,0:0:0:0:
36,192,51964,1,0,0:0:0:0:
109,192,52071,1,0,0:0:0:0:
329,192,52071,1,0,0:0:0:0:
475,192,52071,1,0,0:0:0:0:
475,192,52178,1,0,0:0:0:0:
329,192,52178,1,0,0:0:0:0:
109,192,52178,1,0,0:0:0:0:
182,192,52285,1,0,0:0:0:0:
256,192,52285,1,0,0:0:0:0:
402,192,52285,1,0,0:0:0:0:
402,192,52392,1,0,0:0:0:0:
256,192,52392,1,0,0:0:0:0:
182,192,52392,1,0,0:0:0:0:
109,192,52500,1,0,0:0:0:0:
36,192,52500,1,0,0:0:0:0:
329,192,52500,1,0,0:0:0:0:
329,192,52607,1,0,0:0:0:0:
109,192,52607,1,0,0:0:0:0:
36,192,52607,1,0,0:0:0:0:
402,192,52714,1,0,0:0:0:0:
475,192,52714,1,0,0:0:0:0:
182,192,52714,1,0,0:0:0:0:
182,192,52821,1,0,0:0:0:0:
402,192,52821,1,0,0:0:0:0:
475,192,52821,1,0,0:0:0:0:
329,192,52928,1,0,0:0:0:0:
256,192,52928,1,0,0:0:0:0:
109,192,52928,1,0,0:0:0:0:
109,192,53035,1,0,0:0:0:0:
256,192,53035,1,0,0:0:0:0:
329,192,53035,1,0,0:0:0:0:
36,192,53142,1,0,0:0:0:0:
182,192,53142,1,0,0:0:0:0:
402,192,53142,1,0,0:0:0:0:
475,192,53142,1,0,0:0:0:0:
109,192,53142,1,0,0:0:0:0:
256,192,53142,1,0,0:0:0:0:
329,192,53142,1,0,0:0:0:0:
36,192,54000,1,0,0:0:0:0:
36,192,54053,1,0,0:0:0:0:
182,192,54107,1,0,0:0:0:0:
182,192,54160,1,0,0:0:0:0:
402,192,54214,1,0,0:0:0:0:
402,192,54267,1,0,0:0:0:0:
256,192,54321,1,0,0:0:0:0:
256,192,54375,1,0,0:0:0:0:
109,192,54428,1,0,0:0:0:0:
109,192,54482,1,0,0:0:0:0:
475,192,54535,1,0,0:0:0:0:
475,192,54589,1,0,0:0:0:0:
329,192,54642,1,0,0:0:0:0:
329,192,54696,1,0,0:0:0:0:
182,192,54750,1,0,0:0:0:0:
182,192,54803,1,0,0:0:0:0:
36,192,54857,1,0,0:0:0:0:
475,192,54857,1,0,0:0:0:0:
475,192,54910,1,0,0:0:0:0:
36,192,54910,1,0,0:0:0:0:
402,192,54964,1,0,0:0:0:0:
109,192,54964,1,0,0:0:0:0:
402,192,55017,1,0,0:0:0:0:
109,192,55017,1,0,0:0:0:0:
329,192,55071,1,0,0:0:0:0:
182,192,55071,1,0,0:0:0:0:
329,192,55125,1,0,0:0:0:0:
182,192,55125,1,0,0:0:0:0:
329,192,55178,1,0,0:0:0:0:
182,192,55178,1,0,0:0:0:0:
329,192,55232,1,0,0:0:0:0:
182,192,55232,1,0,0:0:0:0:
475,192,55285,1,0,0:0:0:0:
402,192,55285,1,0,0:0:0:0:
329,192,55285,1,0,0:0:0:0:
256,192,55285,1,0,0:0:0:0:
109,192,55285,1,0,0:0:0:0:
182,192,55285,1,0,0:0:0:0:
36,192,55285,1,0,0:0:0:0:
