osu file format v14

[General]
AudioFilename: 5min.mp3
AudioLeadIn: 0
PreviewTime: -1
Countdown: 0
SampleSet: None
StackLeniency: 0.7
Mode: 3
LetterboxInBreaks: 0
SpecialStyle: 0
WidescreenStoryboard: 1

[Editor]
DistanceSpacing: 0.8
BeatDivisor: 4
GridSize: 16
TimelineZoom: 1.3

[Metadata]
Title:VSRG Pattern Training
TitleUnicode:VSRG Pattern Training
Artist:
ArtistUnicode:
Creator:iJinjin
Version:Jackhammer 1.30x
Source:
Tags:
BeatmapID:754633
BeatmapSetID:341207

[Difficulty]
HPDrainRate:7
CircleSize:7
OverallDifficulty:0
ApproachRate:5
SliderMultiplier:1.4
SliderTickRate:1

[Events]
//Background and Video events
0,0,"vsrg practice wallpaper.jpg",0,0
//Break Periods
//Storyboard Layer 0 (Background)
//Storyboard Layer 1 (Fail)
//Storyboard Layer 2 (Pass)
//Storyboard Layer 3 (Foreground)
//Storyboard Sound Samples

[TimingPoints]
0,230.769230769231,4,2,0,5,1,0

[HitObjects]
36,192,0,5,0,0:0:0:0:
36,192,115,1,0,0:0:0:0:
36,192,230,1,0,0:0:0:0:
36,192,346,1,0,0:0:0:0:
36,192,461,1,0,0:0:0:0:
109,192,923,1,0,0:0:0:0:
109,192,1038,1,0,0:0:0:0:
109,192,1153,1,0,0:0:0:0:
109,192,1269,1,0,0:0:0:0:
109,192,1384,1,0,0:0:0:0:
182,192,1846,1,0,0:0:0:0:
182,192,1961,1,0,0:0:0:0:
182,192,2076,1,0,0:0:0:0:
182,192,2192,1,0,0:0:0:0:
182,192,2307,1,0,0:0:0:0:
256,192,2769,1,0,0:0:0:0:
256,192,2884,1,0,0:0:0:0:
256,192,3000,1,0,0:0:0:0:
256,192,3115,1,0,0:0:0:0:
256,192,3230,1,0,0:0:0:0:
329,192,3692,1,0,0:0:0:0:
329,192,3807,1,0,0:0:0:0:
329,192,3923,1,0,0:0:0:0:
329,192,4038,1,0,0:0:0:0:
329,192,4153,1,0,0:0:0:0:
402,192,4615,1,0,0:0:0:0:
402,192,4730,1,0,0:0:0:0:
402,192,4846,1,0,0:0:0:0:
402,192,4961,1,0,0:0:0:0:
402,192,5076,1,0,0:0:0:0:
475,192,5538,1,0,0:0:0:0:
475,192,5653,1,0,0:0:0:0:
475,192,5769,1,0,0:0:0:0:
475,192,5884,1,0,0:0:0:0:
475,192,6000,1,0,0:0:0:0:
182,192,6461,1,0,0:0:0:0:
329,192,6461,1,0,0:0:0:0:
182,192,6576,1,0,0:0:0:0:
329,192,6576,1,0,0:0:0:0:
182,192,6692,1,0,0:0:0:0:
329,192,6692,1,0,0:0:0:0:
182,192,6807,1,0,0:0:0:0:
329,192,6807,1,0,0:0:0:0:
182,192,6923,1,0,0:0:0:0:
329,192,6923,1,0,0:0:0:0:
109,192,7384,1,0,0:0:0:0:
402,192,7384,1,0,0:0:0:0:
109,192,7500,1,0,0:0:0:0:
402,192,7500,1,0,0:0:0:0:
109,192,7615,1,0,0:0:0:0:
402,192,7615,1,0,0:0:0:0:
109,192,7730,1,0,0:0:0:0:
402,192,7730,1,0,0:0:0:0:
109,192,7846,1,0,0:0:0:0:
402,192,7846,1,0,0:0:0:0:
36,192,8307,1,0,0:0:0:0:
475,192,8307,1,0,0:0:0:0:
36,192,8423,1,0,0:0:0:0:
475,192,8423,1,0,0:0:0:0:
36,192,8538,1,0,0:0:0:0:
475,192,8538,1,0,0:0:0:0:
36,192,8653,1,0,0:0:0:0:
475,192,8653,1,0,0:0:0:0:
475,192,8769,1,0,0:0:0:0:
36,192,8769,1,0,0:0:0:0:
182,192,9230,128,0,9692:0:0:0:0:
475,192,9230,1,0,0:0:0:0:
475,192,9346,1,0,0:0:0:0:
475,192,9461,1,0,0:0:0:0:
475,192,9576,1,0,0:0:0:0:
109,192,9692,128,0,10153:0:0:0:0:
402,192,9692,1,0,0:0:0:0:
402,192,9807,1,0,0:0:0:0:
402,192,9923,1,0,0:0:0:0:
402,192,10038,1,0,0:0:0:0:
36,192,10153,128,0,10615:0:0:0:0:
329,192,10153,1,0,0:0:0:0:
329,192,10269,1,0,0:0:0:0:
329,192,10384,1,0,0:0:0:0:
329,192,10500,1,0,0:0:0:0:
329,192,10615,1,0,0:0:0:0:
329,192,11076,128,0,11538:0:0:0:0:
36,192,11076,1,0,0:0:0:0:
36,192,11192,1,0,0:0:0:0:
36,192,11307,1,0,0:0:0:0:
36,192,11423,1,0,0:0:0:0:
402,192,11538,128,0,12000:0:0:0:0:
109,192,11538,1,0,0:0:0:0:
109,192,11653,1,0,0:0:0:0:
109,192,11769,1,0,0:0:0:0:
109,192,11884,1,0,0:0:0:0:
475,192,12000,128,0,12461:0:0:0:0:
182,192,12000,1,0,0:0:0:0:
182,192,12115,1,0,0:0:0:0:
182,192,12230,1,0,0:0:0:0:
182,192,12346,1,0,0:0:0:0:
182,192,12461,1,0,0:0:0:0:
36,192,12923,128,0,13384:0:0:0:0:
109,192,12923,1,0,0:0:0:0:
109,192,13038,1,0,0:0:0:0:
182,192,13153,1,0,0:0:0:0:
182,192,13269,1,0,0:0:0:0:
182,192,13384,128,0,13846:0:0:0:0:
109,192,13384,1,0,0:0:0:0:
109,192,13500,1,0,0:0:0:0:
36,192,13615,1,0,0:0:0:0:
36,192,13730,1,0,0:0:0:0:
36,192,13846,128,0,14307:0:0:0:0:
109,192,13846,1,0,0:0:0:0:
109,192,13961,1,0,0:0:0:0:
182,192,14076,1,0,0:0:0:0:
182,192,14192,1,0,0:0:0:0:
182,192,14307,128,0,14769:0:0:0:0:
109,192,14307,1,0,0:0:0:0:
109,192,14423,1,0,0:0:0:0:
36,192,14538,1,0,0:0:0:0:
36,192,14653,1,0,0:0:0:0:
402,192,14769,1,0,0:0:0:0:
475,192,14769,128,0,15230:0:0:0:0:
402,192,14884,1,0,0:0:0:0:
329,192,15000,1,0,0:0:0:0:
329,192,15115,1,0,0:0:0:0:
329,192,15230,128,0,15692:0:0:0:0:
402,192,15230,1,0,0:0:0:0:
402,192,15346,1,0,0:0:0:0:
475,192,15461,1,0,0:0:0:0:
475,192,15576,1,0,0:0:0:0:
402,192,15692,1,0,0:0:0:0:
475,192,15692,128,0,16153:0:0:0:0:
402,192,15807,1,0,0:0:0:0:
329,192,15923,1,0,0:0:0:0:
329,192,16038,1,0,0:0:0:0:
329,192,16153,128,0,16615:0:0:0:0:
402,192,16153,1,0,0:0:0:0:
402,192,16269,1,0,0:0:0:0:
475,192,16384,1,0,0:0:0:0:
475,192,16500,1,0,0:0:0:0:
36,192,16615,1,0,0:0:0:0:
182,192,16615,1,0,0:0:0:0:
182,192,16730,1,0,0:0:0:0:
36,192,16730,1,0,0:0:0:0:
36,192,16846,1,0,0:0:0:0:
182,192,16846,1,0,0:0:0:0:
182,192,16961,1,0,0:0:0:0:
36,192,16961,1,0,0:0:0:0:
329,192,17076,1,0,0:0:0:0:
475,192,17076,1,0,0:0:0:0:
475,192,17192,1,0,0:0:0:0:
329,192,17192,1,0,0:0:0:0:
329,192,17307,1,0,0:0:0:0:
475,192,17307,1,0,0:0:0:0:
475,192,17423,1,0,0:0:0:0:
329,192,17423,1,0,0:0:0:0:
109,192,17538,1,0,0:0:0:0:
182,192,17538,1,0,0:0:0:0:
109,192,17653,1,0,0:0:0:0:
182,192,17653,1,0,0:0:0:0:
182,192,17769,1,0,0:0:0:0:
109,192,17769,1,0,0:0:0:0:
109,192,17884,1,0,0:0:0:0:
182,192,17884,1,0,0:0:0:0:
329,192,18000,1,0,0:0:0:0:
402,192,18000,1,0,0:0:0:0:
402,192,18115,1,0,0:0:0:0:
329,192,18115,1,0,0:0:0:0:
402,192,18230,1,0,0:0:0:0:
329,192,18230,1,0,0:0:0:0:
402,192,18346,1,0,0:0:0:0:
329,192,18346,1,0,0:0:0:0:
36,192,18461,1,0,0:0:0:0:
109,192,18461,1,0,0:0:0:0:
109,192,18576,1,0,0:0:0:0:
36,192,18576,1,0,0:0:0:0:
36,192,18692,1,0,0:0:0:0:
109,192,18692,1,0,0:0:0:0:
109,192,18807,1,0,0:0:0:0:
36,192,18807,1,0,0:0:0:0:
402,192,18923,1,0,0:0:0:0:
475,192,18923,1,0,0:0:0:0:
402,192,19038,1,0,0:0:0:0:
475,192,19038,1,0,0:0:0:0:
402,192,19153,1,0,0:0:0:0:
475,192,19153,1,0,0:0:0:0:
402,192,19269,1,0,0:0:0:0:
475,192,19269,1,0,0:0:0:0:
36,192,19384,1,0,0:0:0:0:
109,192,19384,1,0,0:0:0:0:
182,192,19384,1,0,0:0:0:0:
329,192,19384,1,0,0:0:0:0:
402,192,19384,1,0,0:0:0:0:
475,192,19384,1,0,0:0:0:0:
36,192,19500,1,0,0:0:0:0:
109,192,19500,1,0,0:0:0:0:
182,192,19500,1,0,0:0:0:0:
475,192,19500,1,0,0:0:0:0:
402,192,19500,1,0,0:0:0:0:
329,192,19500,1,0,0:0:0:0:
36,192,19615,1,0,0:0:0:0:
109,192,19615,1,0,0:0:0:0:
182,192,19615,1,0,0:0:0:0:
402,192,19615,1,0,0:0:0:0:
475,192,19615,1,0,0:0:0:0:
329,192,19615,1,0,0:0:0:0:
36,192,19730,1,0,0:0:0:0:
109,192,19730,1,0,0:0:0:0:
182,192,19730,1,0,0:0:0:0:
329,192,19730,1,0,0:0:0:0:
402,192,19730,1,0,0:0:0:0:
475,192,19730,1,0,0:0:0:0:
36,192,19846,1,0,0:0:0:0:
109,192,19846,1,0,0:0:0:0:
182,192,19846,1,0,0:0:0:0:
329,192,19846,1,0,0:0:0:0:
402,192,19846,1,0,0:0:0:0:
475,192,19846,1,0,0:0:0:0:
36,192,20307,1,0,0:0:0:0:
109,192,20307,1,0,0:0:0:0:
109,192,20423,1,0,0:0:0:0:
182,192,20423,1,0,0:0:0:0:
182,192,20538,1,0,0:0:0:0:
256,192,20538,1,0,0:0:0:0:
109,192,20769,1,0,0:0:0:0:
182,192,20769,1,0,0:0:0:0:
182,192,20884,1,0,0:0:0:0:
256,192,20884,1,0,0:0:0:0:
256,192,21000,1,0,0:0:0:0:
329,192,21000,1,0,0:0:0:0:
182,192,21230,1,0,0:0:0:0:
256,192,21230,1,0,0:0:0:0:
256,192,21346,1,0,0:0:0:0:
329,192,21346,1,0,0:0:0:0:
329,192,21461,1,0,0:0:0:0:
402,192,21461,1,0,0:0:0:0:
256,192,21692,1,0,0:0:0:0:
329,192,21692,1,0,0:0:0:0:
329,192,21807,1,0,0:0:0:0:
402,192,21807,1,0,0:0:0:0:
402,192,21923,1,0,0:0:0:0:
475,192,21923,1,0,0:0:0:0:
402,192,22153,1,0,0:0:0:0:
475,192,22153,1,0,0:0:0:0:
402,192,22269,1,0,0:0:0:0:
329,192,22269,1,0,0:0:0:0:
256,192,22384,1,0,0:0:0:0:
329,192,22384,1,0,0:0:0:0:
402,192,22615,1,0,0:0:0:0:
329,192,22615,1,0,0:0:0:0:
329,192,22730,1,0,0:0:0:0:
256,192,22730,1,0,0:0:0:0:
256,192,22846,1,0,0:0:0:0:
182,192,22846,1,0,0:0:0:0:
329,192,23076,1,0,0:0:0:0:
256,192,23076,1,0,0:0:0:0:
256,192,23192,1,0,0:0:0:0:
182,192,23192,1,0,0:0:0:0:
182,192,23307,1,0,0:0:0:0:
109,192,23307,1,0,0:0:0:0:
256,192,23538,1,0,0:0:0:0:
182,192,23538,1,0,0:0:0:0:
182,192,23653,1,0,0:0:0:0:
109,192,23653,1,0,0:0:0:0:
109,192,23769,1,0,0:0:0:0:
36,192,23769,1,0,0:0:0:0:
36,192,24000,1,0,0:0:0:0:
109,192,24000,1,0,0:0:0:0:
182,192,24000,1,0,0:0:0:0:
109,192,24115,1,0,0:0:0:0:
182,192,24115,1,0,0:0:0:0:
256,192,24115,1,0,0:0:0:0:
182,192,24230,1,0,0:0:0:0:
256,192,24230,1,0,0:0:0:0:
329,192,24230,1,0,0:0:0:0:
109,192,24346,1,0,0:0:0:0:
256,192,24346,1,0,0:0:0:0:
182,192,24346,1,0,0:0:0:0:
182,192,24461,1,0,0:0:0:0:
109,192,24461,1,0,0:0:0:0:
36,192,24461,1,0,0:0:0:0:
329,192,24923,1,0,0:0:0:0:
402,192,24923,1,0,0:0:0:0:
475,192,24923,1,0,0:0:0:0:
402,192,25038,1,0,0:0:0:0:
329,192,25038,1,0,0:0:0:0:
256,192,25038,1,0,0:0:0:0:
182,192,25153,1,0,0:0:0:0:
329,192,25153,1,0,0:0:0:0:
256,192,25153,1,0,0:0:0:0:
256,192,25269,1,0,0:0:0:0:
329,192,25269,1,0,0:0:0:0:
402,192,25269,1,0,0:0:0:0:
329,192,25384,1,0,0:0:0:0:
402,192,25384,1,0,0:0:0:0:
475,192,25384,1,0,0:0:0:0:
36,192,25846,1,0,0:0:0:0:
109,192,25846,1,0,0:0:0:0:
109,192,25961,1,0,0:0:0:0:
182,192,25961,1,0,0:0:0:0:
182,192,26076,1,0,0:0:0:0:
256,192,26076,1,0,0:0:0:0:
256,192,26192,1,0,0:0:0:0:
329,192,26192,1,0,0:0:0:0:
329,192,26307,1,0,0:0:0:0:
402,192,26307,1,0,0:0:0:0:
109,192,26307,1,0,0:0:0:0:
182,192,26307,1,0,0:0:0:0:
182,192,26423,1,0,0:0:0:0:
256,192,26423,1,0,0:0:0:0:
256,192,26538,1,0,0:0:0:0:
329,192,26538,1,0,0:0:0:0:
329,192,26653,1,0,0:0:0:0:
402,192,26653,1,0,0:0:0:0:
402,192,26769,1,0,0:0:0:0:
475,192,26769,1,0,0:0:0:0:
402,192,27692,1,0,0:0:0:0:
475,192,27692,1,0,0:0:0:0:
329,192,27692,1,0,0:0:0:0:
256,192,27807,1,0,0:0:0:0:
329,192,27807,1,0,0:0:0:0:
402,192,27807,1,0,0:0:0:0:
329,192,27923,1,0,0:0:0:0:
256,192,27923,1,0,0:0:0:0:
182,192,27923,1,0,0:0:0:0:
109,192,28038,1,0,0:0:0:0:
182,192,28038,1,0,0:0:0:0:
256,192,28038,1,0,0:0:0:0:
402,192,28153,1,0,0:0:0:0:
329,192,28153,1,0,0:0:0:0:
475,192,28153,1,0,0:0:0:0:
256,192,28269,1,0,0:0:0:0:
329,192,28269,1,0,0:0:0:0:
402,192,28269,1,0,0:0:0:0:
182,192,28384,1,0,0:0:0:0:
256,192,28384,1,0,0:0:0:0:
329,192,28384,1,0,0:0:0:0:
256,192,28500,1,0,0:0:0:0:
182,192,28500,1,0,0:0:0:0:
109,192,28500,1,0,0:0:0:0:
36,192,28615,1,0,0:0:0:0:
182,192,28615,1,0,0:0:0:0:
109,192,28615,1,0,0:0:0:0:
109,192,28730,1,0,0:0:0:0:
182,192,28730,1,0,0:0:0:0:
256,192,28730,1,0,0:0:0:0:
182,192,28846,1,0,0:0:0:0:
256,192,28846,1,0,0:0:0:0:
329,192,28846,1,0,0:0:0:0:
256,192,28961,1,0,0:0:0:0:
329,192,28961,1,0,0:0:0:0:
402,192,28961,1,0,0:0:0:0:
36,192,29076,1,0,0:0:0:0:
109,192,29076,1,0,0:0:0:0:
182,192,29076,1,0,0:0:0:0:
109,192,29192,1,0,0:0:0:0:
182,192,29192,1,0,0:0:0:0:
256,192,29192,1,0,0:0:0:0:
182,192,29307,1,0,0:0:0:0:
256,192,29307,1,0,0:0:0:0:
329,192,29307,1,0,0:0:0:0:
256,192,29423,1,0,0:0:0:0:
329,192,29423,1,0,0:0:0:0:
402,192,29423,1,0,0:0:0:0:
329,192,29538,1,0,0:0:0:0:
402,192,29538,1,0,0:0:0:0:
475,192,29538,1,0,0:0:0:0:
36,192,30461,1,0,0:0:0:0:
109,192,30461,1,0,0:0:0:0:
182,192,30461,1,0,0:0:0:0:
256,192,30461,1,0,0:0:0:0:
329,192,30461,1,0,0:0:0:0:
402,192,30461,1,0,0:0:0:0:
475,192,30461,1,0,0:0:0:0:
109,192,30576,1,0,0:0:0:0:
182,192,30576,1,0,0:0:0:0:
329,192,30576,1,0,0:0:0:0:
182,192,30692,1,0,0:0:0:0:
109,192,30692,1,0,0:0:0:0:
402,192,30692,1,0,0:0:0:0:
109,192,30807,1,0,0:0:0:0:
182,192,30807,1,0,0:0:0:0:
475,192,30807,1,0,0:0:0:0:
36,192,30923,1,0,0:0:0:0:
109,192,30923,1,0,0:0:0:0:
182,192,30923,1,0,0:0:0:0:
256,192,30923,1,0,0:0:0:0:
329,192,30923,1,0,0:0:0:0:
402,192,30923,1,0,0:0:0:0:
475,192,30923,1,0,0:0:0:0:
329,192,31038,1,0,0:0:0:0:
402,192,31038,1,0,0:0:0:0:
36,192,31038,1,0,0:0:0:0:
402,192,31153,1,0,0:0:0:0:
329,192,31153,1,0,0:0:0:0:
109,192,31153,1,0,0:0:0:0:
329,192,31269,1,0,0:0:0:0:
402,192,31269,1,0,0:0:0:0:
182,192,31269,1,0,0:0:0:0:
109,192,31384,1,0,0:0:0:0:
182,192,31384,1,0,0:0:0:0:
256,192,31384,1,0,0:0:0:0:
36,192,31384,1,0,0:0:0:0:
329,192,31384,1,0,0:0:0:0:
402,192,31384,1,0,0:0:0:0:
475,192,31384,1,0,0:0:0:0:
36,192,31500,1,0,0:0:0:0:
109,192,31500,1,0,0:0:0:0:
182,192,31500,1,0,0:0:0:0:
36,192,31615,1,0,0:0:0:0:
109,192,31615,1,0,0:0:0:0:
182,192,31615,1,0,0:0:0:0:
329,192,31615,1,0,0:0:0:0:
402,192,31615,1,0,0:0:0:0:
182,192,31730,1,0,0:0:0:0:
109,192,31730,1,0,0:0:0:0:
36,192,31730,1,0,0:0:0:0:
36,192,31846,1,0,0:0:0:0:
109,192,31846,1,0,0:0:0:0:
182,192,31846,1,0,0:0:0:0:
256,192,31846,1,0,0:0:0:0:
329,192,31846,1,0,0:0:0:0:
402,192,31846,1,0,0:0:0:0:
475,192,31846,1,0,0:0:0:0:
329,192,31961,1,0,0:0:0:0:
402,192,31961,1,0,0:0:0:0:
475,192,31961,1,0,0:0:0:0:
329,192,32076,1,0,0:0:0:0:
402,192,32076,1,0,0:0:0:0:
475,192,32076,1,0,0:0:0:0:
109,192,32076,1,0,0:0:0:0:
182,192,32076,1,0,0:0:0:0:
329,192,32192,1,0,0:0:0:0:
402,192,32192,1,0,0:0:0:0:
475,192,32192,1,0,0:0:0:0:
36,192,32307,1,0,0:0:0:0:
109,192,32307,1,0,0:0:0:0:
182,192,32307,1,0,0:0:0:0:
256,192,32307,1,0,0:0:0:0:
329,192,32307,1,0,0:0:0:0:
402,192,32307,1,0,0:0:0:0:
475,192,32307,1,0,0:0:0:0:
36,192,32423,1,0,0:0:0:0:
182,192,32423,1,0,0:0:0:0:
36,192,32538,1,0,0:0:0:0:
182,192,32538,1,0,0:0:0:0:
329,192,32538,1,0,0:0:0:0:
402,192,32538,1,0,0:0:0:0:
36,192,32653,1,0,0:0:0:0:
182,192,32653,1,0,0:0:0:0:
36,192,32769,1,0,0:0:0:0:
109,192,32769,1,0,0:0:0:0:
182,192,32769,1,0,0:0:0:0:
256,192,32769,1,0,0:0:0:0:
329,192,32769,1,0,0:0:0:0:
402,192,32769,1,0,0:0:0:0:
475,192,32769,1,0,0:0:0:0:
329,192,32884,1,0,0:0:0:0:
475,192,32884,1,0,0:0:0:0:
329,192,33000,1,0,0:0:0:0:
475,192,33000,1,0,0:0:0:0:
109,192,33000,1,0,0:0:0:0:
182,192,33000,1,0,0:0:0:0:
329,192,33115,1,0,0:0:0:0:
475,192,33115,1,0,0:0:0:0:
475,192,33230,1,0,0:0:0:0:
329,192,33230,1,0,0:0:0:0:
256,192,33230,1,0,0:0:0:0:
182,192,33230,1,0,0:0:0:0:
109,192,33230,1,0,0:0:0:0:
36,192,33230,1,0,0:0:0:0:
402,192,33230,1,0,0:0:0:0:
109,192,33346,1,0,0:0:0:0:
256,192,33346,1,0,0:0:0:0:
182,192,33461,1,0,0:0:0:0:
329,192,33461,1,0,0:0:0:0:
182,192,33576,1,0,0:0:0:0:
329,192,33576,1,0,0:0:0:0:
36,192,33692,1,0,0:0:0:0:
109,192,33692,1,0,0:0:0:0:
182,192,33692,1,0,0:0:0:0:
256,192,33692,1,0,0:0:0:0:
329,192,33692,1,0,0:0:0:0:
402,192,33692,1,0,0:0:0:0:
475,192,33692,1,0,0:0:0:0:
256,192,33807,1,0,0:0:0:0:
402,192,33807,1,0,0:0:0:0:
182,192,33923,1,0,0:0:0:0:
329,192,33923,1,0,0:0:0:0:
182,192,34038,1,0,0:0:0:0:
329,192,34038,1,0,0:0:0:0:
36,192,34153,1,0,0:0:0:0:
109,192,34153,1,0,0:0:0:0:
182,192,34153,1,0,0:0:0:0:
256,192,34153,1,0,0:0:0:0:
329,192,34153,1,0,0:0:0:0:
402,192,34153,1,0,0:0:0:0:
475,192,34153,1,0,0:0:0:0:
109,192,34269,1,0,0:0:0:0:
256,192,34269,1,0,0:0:0:0:
402,192,34269,1,0,0:0:0:0:
182,192,34384,1,0,0:0:0:0:
329,192,34384,1,0,0:0:0:0:
109,192,34500,1,0,0:0:0:0:
256,192,34500,1,0,0:0:0:0:
402,192,34500,1,0,0:0:0:0:
329,192,34615,1,0,0:0:0:0:
256,192,34615,1,0,0:0:0:0:
182,192,34615,1,0,0:0:0:0:
109,192,34615,1,0,0:0:0:0:
36,192,34615,1,0,0:0:0:0:
402,192,34615,1,0,0:0:0:0:
475,192,34615,1,0,0:0:0:0:
182,192,34730,1,0,0:0:0:0:
36,192,34730,1,0,0:0:0:0:
329,192,34730,1,0,0:0:0:0:
402,192,34730,1,0,0:0:0:0:
402,192,34846,1,0,0:0:0:0:
329,192,34846,1,0,0:0:0:0:
182,192,34846,1,0,0:0:0:0:
109,192,34846,1,0,0:0:0:0:
36,192,34961,1,0,0:0:0:0:
182,192,34961,1,0,0:0:0:0:
329,192,34961,1,0,0:0:0:0:
475,192,34961,1,0,0:0:0:0:
256,192,35076,1,0,0:0:0:0:
182,192,35076,1,0,0:0:0:0:
109,192,35076,1,0,0:0:0:0:
36,192,35076,1,0,0:0:0:0:
402,192,35076,1,0,0:0:0:0:
329,192,35076,1,0,0:0:0:0:
475,192,35076,1,0,0:0:0:0:
256,192,35192,1,0,0:0:0:0:
109,192,35192,1,0,0:0:0:0:
402,192,35192,1,0,0:0:0:0:
402,192,35307,1,0,0:0:0:0:
256,192,35307,1,0,0:0:0:0:
109,192,35307,1,0,0:0:0:0:
329,192,35307,1,0,0:0:0:0:
109,192,35423,1,0,0:0:0:0:
256,192,35423,1,0,0:0:0:0:
402,192,35423,1,0,0:0:0:0:
402,192,35538,1,0,0:0:0:0:
256,192,35538,1,0,0:0:0:0:
182,192,35538,1,0,0:0:0:0:
109,192,35538,1,0,0:0:0:0:
36,192,35538,1,0,0:0:0:0:
329,192,35538,1,0,0:0:0:0:
475,192,35538,1,0,0:0:0:0:
182,192,35653,1,0,0:0:0:0:
329,192,35653,1,0,0:0:0:0:
475,192,35653,1,0,0:0:0:0:
475,192,35769,1,0,0:0:0:0:
182,192,35769,1,0,0:0:0:0:
329,192,35769,1,0,0:0:0:0:
36,192,35769,1,0,0:0:0:0:
109,192,35769,1,0,0:0:0:0:
182,192,35884,1,0,0:0:0:0:
329,192,35884,1,0,0:0:0:0:
475,192,35884,1,0,0:0:0:0:
36,192,36000,1,0,0:0:0:0:
109,192,36000,1,0,0:0:0:0:
182,192,36000,1,0,0:0:0:0:
256,192,36000,1,0,0:0:0:0:
329,192,36000,1,0,0:0:0:0:
402,192,36000,1,0,0:0:0:0:
475,192,36000,1,0,0:0:0:0:
36,192,36115,1,0,0:0:0:0:
109,192,36115,1,0,0:0:0:0:
256,192,36115,1,0,0:0:0:0:
402,192,36115,1,0,0:0:0:0:
402,192,36230,1,0,0:0:0:0:
256,192,36230,1,0,0:0:0:0:
109,192,36230,1,0,0:0:0:0:
36,192,36230,1,0,0:0:0:0:
329,192,36230,1,0,0:0:0:0:
475,192,36230,1,0,0:0:0:0:
256,192,36346,1,0,0:0:0:0:
402,192,36346,1,0,0:0:0:0:
109,192,36346,1,0,0:0:0:0:
36,192,36346,1,0,0:0:0:0:
36,192,36461,1,0,0:0:0:0:
109,192,36461,1,0,0:0:0:0:
182,192,36461,1,0,0:0:0:0:
256,192,36461,1,0,0:0:0:0:
329,192,36461,1,0,0:0:0:0:
402,192,36461,1,0,0:0:0:0:
475,192,36461,1,0,0:0:0:0:
182,192,36923,128,0,37846:0:0:0:0:
329,192,36923,128,0,37846:0:0:0:0:
36,192,36923,1,0,0:0:0:0:
475,192,36923,1,0,0:0:0:0:
36,192,37038,1,0,0:0:0:0:
475,192,37038,1,0,0:0:0:0:
36,192,37153,1,0,0:0:0:0:
475,192,37153,1,0,0:0:0:0:
36,192,37269,1,0,0:0:0:0:
475,192,37269,1,0,0:0:0:0:
36,192,37384,1,0,0:0:0:0:
109,192,37384,1,0,0:0:0:0:
402,192,37384,1,0,0:0:0:0:
475,192,37384,1,0,0:0:0:0:
109,192,37500,1,0,0:0:0:0:
36,192,37500,1,0,0:0:0:0:
475,192,37500,1,0,0:0:0:0:
402,192,37500,1,0,0:0:0:0:
36,192,37615,1,0,0:0:0:0:
109,192,37615,1,0,0:0:0:0:
402,192,37615,1,0,0:0:0:0:
475,192,37615,1,0,0:0:0:0:
109,192,37730,1,0,0:0:0:0:
36,192,37730,1,0,0:0:0:0:
475,192,37730,1,0,0:0:0:0:
402,192,37730,1,0,0:0:0:0:
36,192,37846,1,0,0:0:0:0:
109,192,37846,1,0,0:0:0:0:
402,192,37846,1,0,0:0:0:0:
475,192,37846,1,0,0:0:0:0:
256,192,37846,1,0,0:0:0:0:
109,192,38769,128,0,39692:0:0:0:0:
402,192,38769,128,0,39692:0:0:0:0:
182,192,38769,1,0,0:0:0:0:
329,192,38769,1,0,0:0:0:0:
182,192,38884,1,0,0:0:0:0:
329,192,38884,1,0,0:0:0:0:
182,192,39000,1,0,0:0:0:0:
329,192,39000,1,0,0:0:0:0:
182,192,39115,1,0,0:0:0:0:
329,192,39115,1,0,0:0:0:0:
182,192,39230,1,0,0:0:0:0:
36,192,39230,1,0,0:0:0:0:
329,192,39230,1,0,0:0:0:0:
475,192,39230,1,0,0:0:0:0:
182,192,39346,1,0,0:0:0:0:
36,192,39346,1,0,0:0:0:0:
329,192,39346,1,0,0:0:0:0:
475,192,39346,1,0,0:0:0:0:
182,192,39461,1,0,0:0:0:0:
36,192,39461,1,0,0:0:0:0:
329,192,39461,1,0,0:0:0:0:
475,192,39461,1,0,0:0:0:0:
182,192,39576,1,0,0:0:0:0:
36,192,39576,1,0,0:0:0:0:
329,192,39576,1,0,0:0:0:0:
475,192,39576,1,0,0:0:0:0:
182,192,39692,1,0,0:0:0:0:
36,192,39692,1,0,0:0:0:0:
256,192,39692,1,0,0:0:0:0:
329,192,39692,1,0,0:0:0:0:
475,192,39692,1,0,0:0:0:0:
36,192,40615,1,0,0:0:0:0:
109,192,40615,1,0,0:0:0:0:
182,192,40615,1,0,0:0:0:0:
256,192,40615,1,0,0:0:0:0:
109,192,40730,1,0,0:0:0:0:
182,192,40730,1,0,0:0:0:0:
256,192,40730,1,0,0:0:0:0:
329,192,40730,1,0,0:0:0:0:
182,192,40846,1,0,0:0:0:0:
256,192,40846,1,0,0:0:0:0:
329,192,40846,1,0,0:0:0:0:
402,192,40846,1,0,0:0:0:0:
256,192,40961,1,0,0:0:0:0:
329,192,40961,1,0,0:0:0:0:
402,192,40961,1,0,0:0:0:0:
475,192,40961,1,0,0:0:0:0:
256,192,41076,1,0,0:0:0:0:
329,192,41076,1,0,0:0:0:0:
475,192,41076,1,0,0:0:0:0:
402,192,41076,1,0,0:0:0:0:
256,192,41192,1,0,0:0:0:0:
329,192,41192,1,0,0:0:0:0:
402,192,41192,1,0,0:0:0:0:
475,192,41192,1,0,0:0:0:0:
256,192,41307,1,0,0:0:0:0:
329,192,41307,1,0,0:0:0:0:
402,192,41307,1,0,0:0:0:0:
475,192,41307,1,0,0:0:0:0:
182,192,41307,1,0,0:0:0:0:
256,192,41423,1,0,0:0:0:0:
329,192,41423,1,0,0:0:0:0:
402,192,41423,1,0,0:0:0:0:
475,192,41423,1,0,0:0:0:0:
109,192,41423,1,0,0:0:0:0:
182,192,41423,1,0,0:0:0:0:
36,192,41538,1,0,0:0:0:0:
109,192,41538,1,0,0:0:0:0:
182,192,41538,1,0,0:0:0:0:
256,192,41538,1,0,0:0:0:0:
329,192,41538,1,0,0:0:0:0:
475,192,41538,1,0,0:0:0:0:
402,192,41538,1,0,0:0:0:0:
256,192,42461,1,0,0:0:0:0:
329,192,42461,1,0,0:0:0:0:
402,192,42461,1,0,0:0:0:0:
475,192,42461,1,0,0:0:0:0:
329,192,42576,1,0,0:0:0:0:
402,192,42576,1,0,0:0:0:0:
182,192,42576,1,0,0:0:0:0:
256,192,42576,1,0,0:0:0:0:
329,192,42692,1,0,0:0:0:0:
256,192,42692,1,0,0:0:0:0:
182,192,42692,1,0,0:0:0:0:
109,192,42692,1,0,0:0:0:0:
36,192,42807,1,0,0:0:0:0:
109,192,42807,1,0,0:0:0:0:
182,192,42807,1,0,0:0:0:0:
256,192,42807,1,0,0:0:0:0:
36,192,42923,1,0,0:0:0:0:
109,192,42923,1,0,0:0:0:0:
182,192,42923,1,0,0:0:0:0:
256,192,42923,1,0,0:0:0:0:
36,192,43038,1,0,0:0:0:0:
109,192,43038,1,0,0:0:0:0:
256,192,43038,1,0,0:0:0:0:
182,192,43038,1,0,0:0:0:0:
109,192,43153,1,0,0:0:0:0:
36,192,43153,1,0,0:0:0:0:
256,192,43153,1,0,0:0:0:0:
182,192,43153,1,0,0:0:0:0:
329,192,43153,1,0,0:0:0:0:
36,192,43269,1,0,0:0:0:0:
109,192,43269,1,0,0:0:0:0:
256,192,43269,1,0,0:0:0:0:
182,192,43269,1,0,0:0:0:0:
402,192,43269,1,0,0:0:0:0:
329,192,43269,1,0,0:0:0:0:
109,192,43384,1,0,0:0:0:0:
36,192,43384,1,0,0:0:0:0:
182,192,43384,1,0,0:0:0:0:
256,192,43384,1,0,0:0:0:0:
329,192,43384,1,0,0:0:0:0:
402,192,43384,1,0,0:0:0:0:
475,192,43384,1,0,0:0:0:0:
36,192,44307,1,0,0:0:0:0:
36,192,44423,1,0,0:0:0:0:
109,192,44423,1,0,0:0:0:0:
36,192,44538,1,0,0:0:0:0:
182,192,44538,1,0,0:0:0:0:
109,192,44538,1,0,0:0:0:0:
36,192,44653,1,0,0:0:0:0:
109,192,44653,1,0,0:0:0:0:
182,192,44653,1,0,0:0:0:0:
256,192,44653,1,0,0:0:0:0:
36,192,44769,1,0,0:0:0:0:
256,192,44769,1,0,0:0:0:0:
182,192,44769,1,0,0:0:0:0:
109,192,44769,1,0,0:0:0:0:
329,192,44769,1,0,0:0:0:0:
36,192,44884,1,0,0:0:0:0:
402,192,44884,1,0,0:0:0:0:
329,192,44884,1,0,0:0:0:0:
256,192,44884,1,0,0:0:0:0:
182,192,44884,1,0,0:0:0:0:
109,192,44884,1,0,0:0:0:0:
36,192,45000,1,0,0:0:0:0:
109,192,45000,1,0,0:0:0:0:
182,192,45000,1,0,0:0:0:0:
256,192,45000,1,0,0:0:0:0:
329,192,45000,1,0,0:0:0:0:
402,192,45000,1,0,0:0:0:0:
475,192,45000,1,0,0:0:0:0:
109,192,45115,1,0,0:0:0:0:
182,192,45115,1,0,0:0:0:0:
256,192,45115,1,0,0:0:0:0:
329,192,45115,1,0,0:0:0:0:
402,192,45115,1,0,0:0:0:0:
475,192,45115,1,0,0:0:0:0:
182,192,45230,1,0,0:0:0:0:
256,192,45230,1,0,0:0:0:0:
402,192,45230,1,0,0:0:0:0:
475,192,45230,1,0,0:0:0:0:
329,192,45230,1,0,0:0:0:0:
256,192,45346,1,0,0:0:0:0:
329,192,45346,1,0,0:0:0:0:
402,192,45346,1,0,0:0:0:0:
475,192,45346,1,0,0:0:0:0:
475,192,45461,1,0,0:0:0:0:
402,192,45461,1,0,0:0:0:0:
329,192,45461,1,0,0:0:0:0:
402,192,45576,1,0,0:0:0:0:
475,192,45576,1,0,0:0:0:0:
475,192,45692,1,0,0:0:0:0:
36,192,46153,1,0,0:0:0:0:
182,192,46153,1,0,0:0:0:0:
329,192,46153,1,0,0:0:0:0:
475,192,46153,1,0,0:0:0:0:
182,192,47076,1,0,0:0:0:0:
182,192,47192,1,0,0:0:0:0:
329,192,47307,1,0,0:0:0:0:
329,192,47423,1,0,0:0:0:0:
256,192,47538,1,0,0:0:0:0:
256,192,47653,1,0,0:0:0:0:
109,192,47769,1,0,0:0:0:0:
109,192,47884,1,0,0:0:0:0:
402,192,48000,1,0,0:0:0:0:
402,192,48115,1,0,0:0:0:0:
475,192,48230,1,0,0:0:0:0:
475,192,48346,1,0,0:0:0:0:
182,192,48461,1,0,0:0:0:0:
182,192,48576,1,0,0:0:0:0:
36,192,48692,1,0,0:0:0:0:
36,192,48807,1,0,0:0:0:0:
329,192,48923,1,0,0:0:0:0:
329,192,49038,1,0,0:0:0:0:
256,192,49153,1,0,0:0:0:0:
256,192,49269,1,0,0:0:0:0:
182,192,49384,1,0,0:0:0:0:
182,192,49500,1,0,0:0:0:0:
109,192,49615,1,0,0:0:0:0:
109,192,49730,1,0,0:0:0:0:
402,192,49846,1,0,0:0:0:0:
402,192,49961,1,0,0:0:0:0:
329,192,50076,1,0,0:0:0:0:
329,192,50192,1,0,0:0:0:0:
256,192,50307,1,0,0:0:0:0:
256,192,50423,1,0,0:0:0:0:
182,192,50538,1,0,0:0:0:0:
182,192,50653,1,0,0:0:0:0:
36,192,50769,1,0,0:0:0:0:
36,192,50884,1,0,0:0:0:0:
256,192,51000,1,0,0:0:0:0:
256,192,51115,1,0,0:0:0:0:
109,192,51230,1,0,0:0:0:0:
109,192,51346,1,0,0:0:0:0:
329,192,51461,1,0,0:0:0:0:
329,192,51576,1,0,0:0:0:0:
475,192,51692,1,0,0:0:0:0:
475,192,51807,1,0,0:0:0:0:
256,192,51923,1,0,0:0:0:0:
256,192,52038,1,0,0:0:0:0:
402,192,52153,1,0,0:0:0:0:
402,192,52269,1,0,0:0:0:0:
182,192,52384,1,0,0:0:0:0:
182,192,52500,1,0,0:0:0:0:
36,192,52615,1,0,0:0:0:0:
329,192,52615,1,0,0:0:0:0:
329,192,52730,1,0,0:0:0:0:
36,192,52730,1,0,0:0:0:0:
182,192,52846,1,0,0:0:0:0:
402,192,52846,1,0,0:0:0:0:
182,192,52961,1,0,0:0:0:0:
402,192,52961,1,0,0:0:0:0:
109,192,53076,1,0,0:0:0:0:
475,192,53076,1,0,0:0:0:0:
475,192,53192,1,0,0:0:0:0:
109,192,53192,1,0,0:0:0:0:
36,192,53307,1,0,0:0:0:0:
329,192,53307,1,0,0:0:0:0:
329,192,53423,1,0,0:0:0:0:
36,192,53423,1,0,0:0:0:0:
256,192,53538,1,0,0:0:0:0:
109,192,53538,1,0,0:0:0:0:
109,192,53653,1,0,0:0:0:0:
256,192,53653,1,0,0:0:0:0:
402,192,53769,1,0,0:0:0:0:
475,192,53769,1,0,0:0:0:0:
402,192,53884,1,0,0:0:0:0:
475,192,53884,1,0,0:0:0:0:
182,192,54000,1,0,0:0:0:0:
329,192,54000,1,0,0:0:0:0:
329,192,54115,1,0,0:0:0:0:
182,192,54115,1,0,0:0:0:0:
36,192,54230,1,0,0:0:0:0:
109,192,54230,1,0,0:0:0:0:
109,192,54346,1,0,0:0:0:0:
36,192,54346,1,0,0:0:0:0:
256,192,54461,1,0,0:0:0:0:
475,192,54461,1,0,0:0:0:0:
475,192,54576,1,0,0:0:0:0:
256,192,54576,1,0,0:0:0:0:
182,192,54692,1,0,0:0:0:0:
402,192,54692,1,0,0:0:0:0:
402,192,54807,1,0,0:0:0:0:
182,192,54807,1,0,0:0:0:0:
109,192,54923,1,0,0:0:0:0:
329,192,54923,1,0,0:0:0:0:
109,192,55038,1,0,0:0:0:0:
329,192,55038,1,0,0:0:0:0:
36,192,55153,1,0,0:0:0:0:
256,192,55153,1,0,0:0:0:0:
36,192,55269,1,0,0:0:0:0:
256,192,55269,1,0,0:0:0:0:
182,192,55384,1,0,0:0:0:0:
402,192,55384,1,0,0:0:0:0:
475,192,55384,1,0,0:0:0:0:
182,192,55500,1,0,0:0:0:0:
402,192,55500,1,0,0:0:0:0:
475,192,55500,1,0,0:0:0:0:
109,192,55615,1,0,0:0:0:0:
256,192,55615,1,0,0:0:0:0:
329,192,55615,1,0,0:0:0:0:
329,192,55730,1,0,0:0:0:0:
256,192,55730,1,0,0:0:0:0:
109,192,55730,1,0,0:0:0:0:
36,192,55846,1,0,0:0:0:0:
182,192,55846,1,0,0:0:0:0:
402,192,55846,1,0,0:0:0:0:
402,192,55961,1,0,0:0:0:0:
182,192,55961,1,0,0:0:0:0:
36,192,55961,1,0,0:0:0:0:
109,192,56076,1,0,0:0:0:0:
329,192,56076,1,0,0:0:0:0:
475,192,56076,1,0,0:0:0:0:
475,192,56192,1,0,0:0:0:0:
329,192,56192,1,0,0:0:0:0:
109,192,56192,1,0,0:0:0:0:
182,192,56307,1,0,0:0:0:0:
256,192,56307,1,0,0:0:0:0:
402,192,56307,1,0,0:0:0:0:
402,192,56423,1,0,0:0:0:0:
256,192,56423,1,0,0:0:0:0:
182,192,56423,1,0,0:0:0:0:
109,192,56538,1,0,0:0:0:0:
36,192,56538,1,0,0:0:0:0:
329,192,56538,1,0,0:0:0:0:
329,192,56653,1,0,0:0:0:0:
109,192,56653,1,0,0:0:0:0:
36,192,56653,1,0,0:0:0:0:
402,192,56769,1,0,0:0:0:0:
475,192,56769,1,0,0:0:0:0:
182,192,56769,1,0,0:0:0:0:
182,192,56884,1,0,0:0:0:0:
402,192,56884,1,0,0:0:0:0:
475,192,56884,1,0,0:0:0:0:
329,192,57000,1,0,0:0:0:0:
256,192,57000,1,0,0:0:0:0:
109,192,57000,1,0,0:0:0:0:
109,192,57115,1,0,0:0:0:0:
256,192,57115,1,0,0:0:0:0:
329,192,57115,1,0,0:0:0:0:
36,192,57230,1,0,0:0:0:0:
182,192,57230,1,0,0:0:0:0:
402,192,57230,1,0,0:0:0:0:
475,192,57230,1,0,0:0:0:0:
109,192,57230,1,0,0:0:0:0:
256,192,57230,1,0,0:0:0:0:
329,192,57230,1,0,0:0:0:0:
36,192,58153,1,0,0:0:0:0:
36,192,58211,1,0,0:0:0:0:
182,192,58269,1,0,0:0:0:0:
182,192,58326,1,0,0:0:0:0:
402,192,58384,1,0,0:0:0:0:
402,192,58442,1,0,0:0:0:0:
256,192,58500,1,0,0:0:0:0:
256,192,58557,1,0,0:0:0:0:
109,192,58615,1,0,0:0:0:0:
109,192,58673,1,0,0:0:0:0:
475,192,58730,1,0,0:0:0:0:
475,192,58788,1,0,0:0:0:0:
329,192,58846,1,0,0:0:0:0:
329,192,58903,1,0,0:0:0:0:
182,192,58961,1,0,0:0:0:0:
182,192,59019,1,0,0:0:0:0:
36,192,59076,1,0,0:0:0:0:
475,192,59076,1,0,0:0:0:0:
475,192,59134,1,0,0:0:0:0:
36,192,59134,1,0,0:0:0:0:
402,192,59192,1,0,0:0:0:0:
109,192,59192,1,0,0:0:0:0:
402,192,59250,1,0,0:0:0:0:
109,192,59250,1,0,0:0:0:0:
329,192,59307,1,0,0:0:0:0:
182,192,59307,1,0,0:0:0:0:
329,192,59365,1,0,0:0:0:0:
182,192,59365,1,0,0:0:0:0:
329,192,59423,1,0,0:0:0:0:
182,192,59423,1,0,0:0:0:0:
329,192,59480,1,0,0:0:0:0:
182,192,59480,1,0,0:0:0:0:
475,192,59538,1,0,0:0:0:0:
402,192,59538,1,0,0:0:0:0:
329,192,59538,1,0,0:0:0:0:
256,192,59538,1,0,0:0:0:0:
109,192,59538,1,0,0:0:0:0:
182,192,59538,1,0,0:0:0:0:
36,192,59538,1,0,0:0:0:0:
