osu file format v14

[General]
AudioFilename: 5min.mp3
AudioLeadIn: 0
PreviewTime: -1
Countdown: 0
SampleSet: None
StackLeniency: 0.7
Mode: 3
LetterboxInBreaks: 0
SpecialStyle: 0
WidescreenStoryboard: 1

[Editor]
DistanceSpacing: 0.8
BeatDivisor: 4
GridSize: 16
TimelineZoom: 1.3

[Metadata]
Title:VSRG Pattern Training
TitleUnicode:VSRG Pattern Training
Artist:
ArtistUnicode:
Creator:iJinjin
Version:Jackhammer 1.20x
Source:
Tags:
BeatmapID:754632
BeatmapSetID:341207

[Difficulty]
HPDrainRate:7
CircleSize:7
OverallDifficulty:0
ApproachRate:5
SliderMultiplier:1.4
SliderTickRate:1

[Events]
//Background and Video events
0,0,"vsrg practice wallpaper.jpg",0,0
//Break Periods
//Storyboard Layer 0 (Background)
//Storyboard Layer 1 (Fail)
//Storyboard Layer 2 (Pass)
//Storyboard Layer 3 (Foreground)
//Storyboard Sound Samples

[TimingPoints]
0,250,4,2,0,5,1,0

[HitObjects]
36,192,0,5,0,0:0:0:0:
36,192,125,1,0,0:0:0:0:
36,192,250,1,0,0:0:0:0:
36,192,375,1,0,0:0:0:0:
36,192,500,1,0,0:0:0:0:
109,192,1000,1,0,0:0:0:0:
109,192,1125,1,0,0:0:0:0:
109,192,1250,1,0,0:0:0:0:
109,192,1375,1,0,0:0:0:0:
109,192,1500,1,0,0:0:0:0:
182,192,2000,1,0,0:0:0:0:
182,192,2125,1,0,0:0:0:0:
182,192,2250,1,0,0:0:0:0:
182,192,2375,1,0,0:0:0:0:
182,192,2500,1,0,0:0:0:0:
256,192,3000,1,0,0:0:0:0:
256,192,3125,1,0,0:0:0:0:
256,192,3250,1,0,0:0:0:0:
256,192,3375,1,0,0:0:0:0:
256,192,3500,1,0,0:0:0:0:
329,192,4000,1,0,0:0:0:0:
329,192,4125,1,0,0:0:0:0:
329,192,4250,1,0,0:0:0:0:
329,192,4375,1,0,0:0:0:0:
329,192,4500,1,0,0:0:0:0:
402,192,5000,1,0,0:0:0:0:
402,192,5125,1,0,0:0:0:0:
402,192,5250,1,0,0:0:0:0:
402,192,5375,1,0,0:0:0:0:
402,192,5500,1,0,0:0:0:0:
475,192,6000,1,0,0:0:0:0:
475,192,6125,1,0,0:0:0:0:
475,192,6250,1,0,0:0:0:0:
475,192,6375,1,0,0:0:0:0:
475,192,6500,1,0,0:0:0:0:
182,192,7000,1,0,0:0:0:0:
329,192,7000,1,0,0:0:0:0:
182,192,7125,1,0,0:0:0:0:
329,192,7125,1,0,0:0:0:0:
182,192,7250,1,0,0:0:0:0:
329,192,7250,1,0,0:0:0:0:
182,192,7375,1,0,0:0:0:0:
329,192,7375,1,0,0:0:0:0:
182,192,7500,1,0,0:0:0:0:
329,192,7500,1,0,0:0:0:0:
109,192,8000,1,0,0:0:0:0:
402,192,8000,1,0,0:0:0:0:
109,192,8125,1,0,0:0:0:0:
402,192,8125,1,0,0:0:0:0:
109,192,8250,1,0,0:0:0:0:
402,192,8250,1,0,0:0:0:0:
109,192,8375,1,0,0:0:0:0:
402,192,8375,1,0,0:0:0:0:
109,192,8500,1,0,0:0:0:0:
402,192,8500,1,0,0:0:0:0:
36,192,9000,1,0,0:0:0:0:
475,192,9000,1,0,0:0:0:0:
36,192,9125,1,0,0:0:0:0:
475,192,9125,1,0,0:0:0:0:
36,192,9250,1,0,0:0:0:0:
475,192,9250,1,0,0:0:0:0:
36,192,9375,1,0,0:0:0:0:
475,192,9375,1,0,0:0:0:0:
475,192,9500,1,0,0:0:0:0:
36,192,9500,1,0,0:0:0:0:
182,192,10000,128,0,10500:0:0:0:0:
475,192,10000,1,0,0:0:0:0:
475,192,10125,1,0,0:0:0:0:
475,192,10250,1,0,0:0:0:0:
475,192,10375,1,0,0:0:0:0:
109,192,10500,128,0,11000:0:0:0:0:
402,192,10500,1,0,0:0:0:0:
402,192,10625,1,0,0:0:0:0:
402,192,10750,1,0,0:0:0:0:
402,192,10875,1,0,0:0:0:0:
36,192,11000,128,0,11500:0:0:0:0:
329,192,11000,1,0,0:0:0:0:
329,192,11125,1,0,0:0:0:0:
329,192,11250,1,0,0:0:0:0:
329,192,11375,1,0,0:0:0:0:
329,192,11500,1,0,0:0:0:0:
329,192,12000,128,0,12500:0:0:0:0:
36,192,12000,1,0,0:0:0:0:
36,192,12125,1,0,0:0:0:0:
36,192,12250,1,0,0:0:0:0:
36,192,12375,1,0,0:0:0:0:
402,192,12500,128,0,13000:0:0:0:0:
109,192,12500,1,0,0:0:0:0:
109,192,12625,1,0,0:0:0:0:
109,192,12750,1,0,0:0:0:0:
109,192,12875,1,0,0:0:0:0:
475,192,13000,128,0,13500:0:0:0:0:
182,192,13000,1,0,0:0:0:0:
182,192,13125,1,0,0:0:0:0:
182,192,13250,1,0,0:0:0:0:
182,192,13375,1,0,0:0:0:0:
182,192,13500,1,0,0:0:0:0:
36,192,14000,128,0,14500:0:0:0:0:
109,192,14000,1,0,0:0:0:0:
109,192,14125,1,0,0:0:0:0:
182,192,14250,1,0,0:0:0:0:
182,192,14375,1,0,0:0:0:0:
182,192,14500,128,0,15000:0:0:0:0:
109,192,14500,1,0,0:0:0:0:
109,192,14625,1,0,0:0:0:0:
36,192,14750,1,0,0:0:0:0:
36,192,14875,1,0,0:0:0:0:
36,192,15000,128,0,15500:0:0:0:0:
109,192,15000,1,0,0:0:0:0:
109,192,15125,1,0,0:0:0:0:
182,192,15250,1,0,0:0:0:0:
182,192,15375,1,0,0:0:0:0:
182,192,15500,128,0,16000:0:0:0:0:
109,192,15500,1,0,0:0:0:0:
109,192,15625,1,0,0:0:0:0:
36,192,15750,1,0,0:0:0:0:
36,192,15875,1,0,0:0:0:0:
402,192,16000,1,0,0:0:0:0:
475,192,16000,128,0,16500:0:0:0:0:
402,192,16125,1,0,0:0:0:0:
329,192,16250,1,0,0:0:0:0:
329,192,16375,1,0,0:0:0:0:
329,192,16500,128,0,17000:0:0:0:0:
402,192,16500,1,0,0:0:0:0:
402,192,16625,1,0,0:0:0:0:
475,192,16750,1,0,0:0:0:0:
475,192,16875,1,0,0:0:0:0:
402,192,17000,1,0,0:0:0:0:
475,192,17000,128,0,17500:0:0:0:0:
402,192,17125,1,0,0:0:0:0:
329,192,17250,1,0,0:0:0:0:
329,192,17375,1,0,0:0:0:0:
329,192,17500,128,0,18000:0:0:0:0:
402,192,17500,1,0,0:0:0:0:
402,192,17625,1,0,0:0:0:0:
475,192,17750,1,0,0:0:0:0:
475,192,17875,1,0,0:0:0:0:
36,192,18000,1,0,0:0:0:0:
182,192,18000,1,0,0:0:0:0:
182,192,18125,1,0,0:0:0:0:
36,192,18125,1,0,0:0:0:0:
36,192,18250,1,0,0:0:0:0:
182,192,18250,1,0,0:0:0:0:
182,192,18375,1,0,0:0:0:0:
36,192,18375,1,0,0:0:0:0:
329,192,18500,1,0,0:0:0:0:
475,192,18500,1,0,0:0:0:0:
475,192,18625,1,0,0:0:0:0:
329,192,18625,1,0,0:0:0:0:
329,192,18750,1,0,0:0:0:0:
475,192,18750,1,0,0:0:0:0:
475,192,18875,1,0,0:0:0:0:
329,192,18875,1,0,0:0:0:0:
109,192,19000,1,0,0:0:0:0:
182,192,19000,1,0,0:0:0:0:
109,192,19125,1,0,0:0:0:0:
182,192,19125,1,0,0:0:0:0:
182,192,19250,1,0,0:0:0:0:
109,192,19250,1,0,0:0:0:0:
109,192,19375,1,0,0:0:0:0:
182,192,19375,1,0,0:0:0:0:
329,192,19500,1,0,0:0:0:0:
402,192,19500,1,0,0:0:0:0:
402,192,19625,1,0,0:0:0:0:
329,192,19625,1,0,0:0:0:0:
402,192,19750,1,0,0:0:0:0:
329,192,19750,1,0,0:0:0:0:
402,192,19875,1,0,0:0:0:0:
329,192,19875,1,0,0:0:0:0:
36,192,20000,1,0,0:0:0:0:
109,192,20000,1,0,0:0:0:0:
109,192,20125,1,0,0:0:0:0:
36,192,20125,1,0,0:0:0:0:
36,192,20250,1,0,0:0:0:0:
109,192,20250,1,0,0:0:0:0:
109,192,20375,1,0,0:0:0:0:
36,192,20375,1,0,0:0:0:0:
402,192,20500,1,0,0:0:0:0:
475,192,20500,1,0,0:0:0:0:
402,192,20625,1,0,0:0:0:0:
475,192,20625,1,0,0:0:0:0:
402,192,20750,1,0,0:0:0:0:
475,192,20750,1,0,0:0:0:0:
402,192,20875,1,0,0:0:0:0:
475,192,20875,1,0,0:0:0:0:
36,192,21000,1,0,0:0:0:0:
109,192,21000,1,0,0:0:0:0:
182,192,21000,1,0,0:0:0:0:
329,192,21000,1,0,0:0:0:0:
402,192,21000,1,0,0:0:0:0:
475,192,21000,1,0,0:0:0:0:
36,192,21125,1,0,0:0:0:0:
109,192,21125,1,0,0:0:0:0:
182,192,21125,1,0,0:0:0:0:
475,192,21125,1,0,0:0:0:0:
402,192,21125,1,0,0:0:0:0:
329,192,21125,1,0,0:0:0:0:
36,192,21250,1,0,0:0:0:0:
109,192,21250,1,0,0:0:0:0:
182,192,21250,1,0,0:0:0:0:
402,192,21250,1,0,0:0:0:0:
475,192,21250,1,0,0:0:0:0:
329,192,21250,1,0,0:0:0:0:
36,192,21375,1,0,0:0:0:0:
109,192,21375,1,0,0:0:0:0:
182,192,21375,1,0,0:0:0:0:
329,192,21375,1,0,0:0:0:0:
402,192,21375,1,0,0:0:0:0:
475,192,21375,1,0,0:0:0:0:
36,192,21500,1,0,0:0:0:0:
109,192,21500,1,0,0:0:0:0:
182,192,21500,1,0,0:0:0:0:
329,192,21500,1,0,0:0:0:0:
402,192,21500,1,0,0:0:0:0:
475,192,21500,1,0,0:0:0:0:
36,192,22000,1,0,0:0:0:0:
109,192,22000,1,0,0:0:0:0:
109,192,22125,1,0,0:0:0:0:
182,192,22125,1,0,0:0:0:0:
182,192,22250,1,0,0:0:0:0:
256,192,22250,1,0,0:0:0:0:
109,192,22500,1,0,0:0:0:0:
182,192,22500,1,0,0:0:0:0:
182,192,22625,1,0,0:0:0:0:
256,192,22625,1,0,0:0:0:0:
256,192,22750,1,0,0:0:0:0:
329,192,22750,1,0,0:0:0:0:
182,192,23000,1,0,0:0:0:0:
256,192,23000,1,0,0:0:0:0:
256,192,23125,1,0,0:0:0:0:
329,192,23125,1,0,0:0:0:0:
329,192,23250,1,0,0:0:0:0:
402,192,23250,1,0,0:0:0:0:
256,192,23500,1,0,0:0:0:0:
329,192,23500,1,0,0:0:0:0:
329,192,23625,1,0,0:0:0:0:
402,192,23625,1,0,0:0:0:0:
402,192,23750,1,0,0:0:0:0:
475,192,23750,1,0,0:0:0:0:
402,192,24000,1,0,0:0:0:0:
475,192,24000,1,0,0:0:0:0:
402,192,24125,1,0,0:0:0:0:
329,192,24125,1,0,0:0:0:0:
256,192,24250,1,0,0:0:0:0:
329,192,24250,1,0,0:0:0:0:
402,192,24500,1,0,0:0:0:0:
329,192,24500,1,0,0:0:0:0:
329,192,24625,1,0,0:0:0:0:
256,192,24625,1,0,0:0:0:0:
256,192,24750,1,0,0:0:0:0:
182,192,24750,1,0,0:0:0:0:
329,192,25000,1,0,0:0:0:0:
256,192,25000,1,0,0:0:0:0:
256,192,25125,1,0,0:0:0:0:
182,192,25125,1,0,0:0:0:0:
182,192,25250,1,0,0:0:0:0:
109,192,25250,1,0,0:0:0:0:
256,192,25500,1,0,0:0:0:0:
182,192,25500,1,0,0:0:0:0:
182,192,25625,1,0,0:0:0:0:
109,192,25625,1,0,0:0:0:0:
109,192,25750,1,0,0:0:0:0:
36,192,25750,1,0,0:0:0:0:
36,192,26000,1,0,0:0:0:0:
109,192,26000,1,0,0:0:0:0:
182,192,26000,1,0,0:0:0:0:
109,192,26125,1,0,0:0:0:0:
182,192,26125,1,0,0:0:0:0:
256,192,26125,1,0,0:0:0:0:
182,192,26250,1,0,0:0:0:0:
256,192,26250,1,0,0:0:0:0:
329,192,26250,1,0,0:0:0:0:
109,192,26375,1,0,0:0:0:0:
256,192,26375,1,0,0:0:0:0:
182,192,26375,1,0,0:0:0:0:
182,192,26500,1,0,0:0:0:0:
109,192,26500,1,0,0:0:0:0:
36,192,26500,1,0,0:0:0:0:
329,192,27000,1,0,0:0:0:0:
402,192,27000,1,0,0:0:0:0:
475,192,27000,1,0,0:0:0:0:
402,192,27125,1,0,0:0:0:0:
329,192,27125,1,0,0:0:0:0:
256,192,27125,1,0,0:0:0:0:
182,192,27250,1,0,0:0:0:0:
329,192,27250,1,0,0:0:0:0:
256,192,27250,1,0,0:0:0:0:
256,192,27375,1,0,0:0:0:0:
329,192,27375,1,0,0:0:0:0:
402,192,27375,1,0,0:0:0:0:
329,192,27500,1,0,0:0:0:0:
402,192,27500,1,0,0:0:0:0:
475,192,27500,1,0,0:0:0:0:
36,192,28000,1,0,0:0:0:0:
109,192,28000,1,0,0:0:0:0:
109,192,28125,1,0,0:0:0:0:
182,192,28125,1,0,0:0:0:0:
182,192,28250,1,0,0:0:0:0:
256,192,28250,1,0,0:0:0:0:
256,192,28375,1,0,0:0:0:0:
329,192,28375,1,0,0:0:0:0:
329,192,28500,1,0,0:0:0:0:
402,192,28500,1,0,0:0:0:0:
109,192,28500,1,0,0:0:0:0:
182,192,28500,1,0,0:0:0:0:
182,192,28625,1,0,0:0:0:0:
256,192,28625,1,0,0:0:0:0:
256,192,28750,1,0,0:0:0:0:
329,192,28750,1,0,0:0:0:0:
329,192,28875,1,0,0:0:0:0:
402,192,28875,1,0,0:0:0:0:
402,192,29000,1,0,0:0:0:0:
475,192,29000,1,0,0:0:0:0:
402,192,30000,1,0,0:0:0:0:
475,192,30000,1,0,0:0:0:0:
329,192,30000,1,0,0:0:0:0:
256,192,30125,1,0,0:0:0:0:
329,192,30125,1,0,0:0:0:0:
402,192,30125,1,0,0:0:0:0:
329,192,30250,1,0,0:0:0:0:
256,192,30250,1,0,0:0:0:0:
182,192,30250,1,0,0:0:0:0:
109,192,30375,1,0,0:0:0:0:
182,192,30375,1,0,0:0:0:0:
256,192,30375,1,0,0:0:0:0:
402,192,30500,1,0,0:0:0:0:
329,192,30500,1,0,0:0:0:0:
475,192,30500,1,0,0:0:0:0:
256,192,30625,1,0,0:0:0:0:
329,192,30625,1,0,0:0:0:0:
402,192,30625,1,0,0:0:0:0:
182,192,30750,1,0,0:0:0:0:
256,192,30750,1,0,0:0:0:0:
329,192,30750,1,0,0:0:0:0:
256,192,30875,1,0,0:0:0:0:
182,192,30875,1,0,0:0:0:0:
109,192,30875,1,0,0:0:0:0:
36,192,31000,1,0,0:0:0:0:
182,192,31000,1,0,0:0:0:0:
109,192,31000,1,0,0:0:0:0:
109,192,31125,1,0,0:0:0:0:
182,192,31125,1,0,0:0:0:0:
256,192,31125,1,0,0:0:0:0:
182,192,31250,1,0,0:0:0:0:
256,192,31250,1,0,0:0:0:0:
329,192,31250,1,0,0:0:0:0:
256,192,31375,1,0,0:0:0:0:
329,192,31375,1,0,0:0:0:0:
402,192,31375,1,0,0:0:0:0:
36,192,31500,1,0,0:0:0:0:
109,192,31500,1,0,0:0:0:0:
182,192,31500,1,0,0:0:0:0:
109,192,31625,1,0,0:0:0:0:
182,192,31625,1,0,0:0:0:0:
256,192,31625,1,0,0:0:0:0:
182,192,31750,1,0,0:0:0:0:
256,192,31750,1,0,0:0:0:0:
329,192,31750,1,0,0:0:0:0:
256,192,31875,1,0,0:0:0:0:
329,192,31875,1,0,0:0:0:0:
402,192,31875,1,0,0:0:0:0:
329,192,32000,1,0,0:0:0:0:
402,192,32000,1,0,0:0:0:0:
475,192,32000,1,0,0:0:0:0:
36,192,33000,1,0,0:0:0:0:
109,192,33000,1,0,0:0:0:0:
182,192,33000,1,0,0:0:0:0:
256,192,33000,1,0,0:0:0:0:
329,192,33000,1,0,0:0:0:0:
402,192,33000,1,0,0:0:0:0:
475,192,33000,1,0,0:0:0:0:
109,192,33125,1,0,0:0:0:0:
182,192,33125,1,0,0:0:0:0:
329,192,33125,1,0,0:0:0:0:
182,192,33250,1,0,0:0:0:0:
109,192,33250,1,0,0:0:0:0:
402,192,33250,1,0,0:0:0:0:
109,192,33375,1,0,0:0:0:0:
182,192,33375,1,0,0:0:0:0:
475,192,33375,1,0,0:0:0:0:
36,192,33500,1,0,0:0:0:0:
109,192,33500,1,0,0:0:0:0:
182,192,33500,1,0,0:0:0:0:
256,192,33500,1,0,0:0:0:0:
329,192,33500,1,0,0:0:0:0:
402,192,33500,1,0,0:0:0:0:
475,192,33500,1,0,0:0:0:0:
329,192,33625,1,0,0:0:0:0:
402,192,33625,1,0,0:0:0:0:
36,192,33625,1,0,0:0:0:0:
402,192,33750,1,0,0:0:0:0:
329,192,33750,1,0,0:0:0:0:
109,192,33750,1,0,0:0:0:0:
329,192,33875,1,0,0:0:0:0:
402,192,33875,1,0,0:0:0:0:
182,192,33875,1,0,0:0:0:0:
109,192,34000,1,0,0:0:0:0:
182,192,34000,1,0,0:0:0:0:
256,192,34000,1,0,0:0:0:0:
36,192,34000,1,0,0:0:0:0:
329,192,34000,1,0,0:0:0:0:
402,192,34000,1,0,0:0:0:0:
475,192,34000,1,0,0:0:0:0:
36,192,34125,1,0,0:0:0:0:
109,192,34125,1,0,0:0:0:0:
182,192,34125,1,0,0:0:0:0:
36,192,34250,1,0,0:0:0:0:
109,192,34250,1,0,0:0:0:0:
182,192,34250,1,0,0:0:0:0:
329,192,34250,1,0,0:0:0:0:
402,192,34250,1,0,0:0:0:0:
182,192,34375,1,0,0:0:0:0:
109,192,34375,1,0,0:0:0:0:
36,192,34375,1,0,0:0:0:0:
36,192,34500,1,0,0:0:0:0:
109,192,34500,1,0,0:0:0:0:
182,192,34500,1,0,0:0:0:0:
256,192,34500,1,0,0:0:0:0:
329,192,34500,1,0,0:0:0:0:
402,192,34500,1,0,0:0:0:0:
475,192,34500,1,0,0:0:0:0:
329,192,34625,1,0,0:0:0:0:
402,192,34625,1,0,0:0:0:0:
475,192,34625,1,0,0:0:0:0:
329,192,34750,1,0,0:0:0:0:
402,192,34750,1,0,0:0:0:0:
475,192,34750,1,0,0:0:0:0:
109,192,34750,1,0,0:0:0:0:
182,192,34750,1,0,0:0:0:0:
329,192,34875,1,0,0:0:0:0:
402,192,34875,1,0,0:0:0:0:
475,192,34875,1,0,0:0:0:0:
36,192,35000,1,0,0:0:0:0:
109,192,35000,1,0,0:0:0:0:
182,192,35000,1,0,0:0:0:0:
256,192,35000,1,0,0:0:0:0:
329,192,35000,1,0,0:0:0:0:
402,192,35000,1,0,0:0:0:0:
475,192,35000,1,0,0:0:0:0:
36,192,35125,1,0,0:0:0:0:
182,192,35125,1,0,0:0:0:0:
36,192,35250,1,0,0:0:0:0:
182,192,35250,1,0,0:0:0:0:
329,192,35250,1,0,0:0:0:0:
402,192,35250,1,0,0:0:0:0:
36,192,35375,1,0,0:0:0:0:
182,192,35375,1,0,0:0:0:0:
36,192,35500,1,0,0:0:0:0:
109,192,35500,1,0,0:0:0:0:
182,192,35500,1,0,0:0:0:0:
256,192,35500,1,0,0:0:0:0:
329,192,35500,1,0,0:0:0:0:
402,192,35500,1,0,0:0:0:0:
475,192,35500,1,0,0:0:0:0:
329,192,35625,1,0,0:0:0:0:
475,192,35625,1,0,0:0:0:0:
329,192,35750,1,0,0:0:0:0:
475,192,35750,1,0,0:0:0:0:
109,192,35750,1,0,0:0:0:0:
182,192,35750,1,0,0:0:0:0:
329,192,35875,1,0,0:0:0:0:
475,192,35875,1,0,0:0:0:0:
475,192,36000,1,0,0:0:0:0:
329,192,36000,1,0,0:0:0:0:
256,192,36000,1,0,0:0:0:0:
182,192,36000,1,0,0:0:0:0:
109,192,36000,1,0,0:0:0:0:
36,192,36000,1,0,0:0:0:0:
402,192,36000,1,0,0:0:0:0:
109,192,36125,1,0,0:0:0:0:
256,192,36125,1,0,0:0:0:0:
182,192,36250,1,0,0:0:0:0:
329,192,36250,1,0,0:0:0:0:
182,192,36375,1,0,0:0:0:0:
329,192,36375,1,0,0:0:0:0:
36,192,36500,1,0,0:0:0:0:
109,192,36500,1,0,0:0:0:0:
182,192,36500,1,0,0:0:0:0:
256,192,36500,1,0,0:0:0:0:
329,192,36500,1,0,0:0:0:0:
402,192,36500,1,0,0:0:0:0:
475,192,36500,1,0,0:0:0:0:
256,192,36625,1,0,0:0:0:0:
402,192,36625,1,0,0:0:0:0:
182,192,36750,1,0,0:0:0:0:
329,192,36750,1,0,0:0:0:0:
182,192,36875,1,0,0:0:0:0:
329,192,36875,1,0,0:0:0:0:
36,192,37000,1,0,0:0:0:0:
109,192,37000,1,0,0:0:0:0:
182,192,37000,1,0,0:0:0:0:
256,192,37000,1,0,0:0:0:0:
329,192,37000,1,0,0:0:0:0:
402,192,37000,1,0,0:0:0:0:
475,192,37000,1,0,0:0:0:0:
109,192,37125,1,0,0:0:0:0:
256,192,37125,1,0,0:0:0:0:
402,192,37125,1,0,0:0:0:0:
182,192,37250,1,0,0:0:0:0:
329,192,37250,1,0,0:0:0:0:
109,192,37375,1,0,0:0:0:0:
256,192,37375,1,0,0:0:0:0:
402,192,37375,1,0,0:0:0:0:
329,192,37500,1,0,0:0:0:0:
256,192,37500,1,0,0:0:0:0:
182,192,37500,1,0,0:0:0:0:
109,192,37500,1,0,0:0:0:0:
36,192,37500,1,0,0:0:0:0:
402,192,37500,1,0,0:0:0:0:
475,192,37500,1,0,0:0:0:0:
182,192,37625,1,0,0:0:0:0:
36,192,37625,1,0,0:0:0:0:
329,192,37625,1,0,0:0:0:0:
402,192,37625,1,0,0:0:0:0:
402,192,37750,1,0,0:0:0:0:
329,192,37750,1,0,0:0:0:0:
182,192,37750,1,0,0:0:0:0:
109,192,37750,1,0,0:0:0:0:
36,192,37875,1,0,0:0:0:0:
182,192,37875,1,0,0:0:0:0:
329,192,37875,1,0,0:0:0:0:
475,192,37875,1,0,0:0:0:0:
256,192,38000,1,0,0:0:0:0:
182,192,38000,1,0,0:0:0:0:
109,192,38000,1,0,0:0:0:0:
36,192,38000,1,0,0:0:0:0:
402,192,38000,1,0,0:0:0:0:
329,192,38000,1,0,0:0:0:0:
475,192,38000,1,0,0:0:0:0:
256,192,38125,1,0,0:0:0:0:
109,192,38125,1,0,0:0:0:0:
402,192,38125,1,0,0:0:0:0:
402,192,38250,1,0,0:0:0:0:
256,192,38250,1,0,0:0:0:0:
109,192,38250,1,0,0:0:0:0:
329,192,38250,1,0,0:0:0:0:
109,192,38375,1,0,0:0:0:0:
256,192,38375,1,0,0:0:0:0:
402,192,38375,1,0,0:0:0:0:
402,192,38500,1,0,0:0:0:0:
256,192,38500,1,0,0:0:0:0:
182,192,38500,1,0,0:0:0:0:
109,192,38500,1,0,0:0:0:0:
36,192,38500,1,0,0:0:0:0:
329,192,38500,1,0,0:0:0:0:
475,192,38500,1,0,0:0:0:0:
182,192,38625,1,0,0:0:0:0:
329,192,38625,1,0,0:0:0:0:
475,192,38625,1,0,0:0:0:0:
475,192,38750,1,0,0:0:0:0:
182,192,38750,1,0,0:0:0:0:
329,192,38750,1,0,0:0:0:0:
36,192,38750,1,0,0:0:0:0:
109,192,38750,1,0,0:0:0:0:
182,192,38875,1,0,0:0:0:0:
329,192,38875,1,0,0:0:0:0:
475,192,38875,1,0,0:0:0:0:
36,192,39000,1,0,0:0:0:0:
109,192,39000,1,0,0:0:0:0:
182,192,39000,1,0,0:0:0:0:
256,192,39000,1,0,0:0:0:0:
329,192,39000,1,0,0:0:0:0:
402,192,39000,1,0,0:0:0:0:
475,192,39000,1,0,0:0:0:0:
36,192,39125,1,0,0:0:0:0:
109,192,39125,1,0,0:0:0:0:
256,192,39125,1,0,0:0:0:0:
402,192,39125,1,0,0:0:0:0:
402,192,39250,1,0,0:0:0:0:
256,192,39250,1,0,0:0:0:0:
109,192,39250,1,0,0:0:0:0:
36,192,39250,1,0,0:0:0:0:
329,192,39250,1,0,0:0:0:0:
475,192,39250,1,0,0:0:0:0:
256,192,39375,1,0,0:0:0:0:
402,192,39375,1,0,0:0:0:0:
109,192,39375,1,0,0:0:0:0:
36,192,39375,1,0,0:0:0:0:
36,192,39500,1,0,0:0:0:0:
109,192,39500,1,0,0:0:0:0:
182,192,39500,1,0,0:0:0:0:
256,192,39500,1,0,0:0:0:0:
329,192,39500,1,0,0:0:0:0:
402,192,39500,1,0,0:0:0:0:
475,192,39500,1,0,0:0:0:0:
182,192,40000,128,0,41000:0:0:0:0:
329,192,40000,128,0,41000:0:0:0:0:
36,192,40000,1,0,0:0:0:0:
475,192,40000,1,0,0:0:0:0:
36,192,40125,1,0,0:0:0:0:
475,192,40125,1,0,0:0:0:0:
36,192,40250,1,0,0:0:0:0:
475,192,40250,1,0,0:0:0:0:
36,192,40375,1,0,0:0:0:0:
475,192,40375,1,0,0:0:0:0:
36,192,40500,1,0,0:0:0:0:
109,192,40500,1,0,0:0:0:0:
402,192,40500,1,0,0:0:0:0:
475,192,40500,1,0,0:0:0:0:
109,192,40625,1,0,0:0:0:0:
36,192,40625,1,0,0:0:0:0:
475,192,40625,1,0,0:0:0:0:
402,192,40625,1,0,0:0:0:0:
36,192,40750,1,0,0:0:0:0:
109,192,40750,1,0,0:0:0:0:
402,192,40750,1,0,0:0:0:0:
475,192,40750,1,0,0:0:0:0:
109,192,40875,1,0,0:0:0:0:
36,192,40875,1,0,0:0:0:0:
475,192,40875,1,0,0:0:0:0:
402,192,40875,1,0,0:0:0:0:
36,192,41000,1,0,0:0:0:0:
109,192,41000,1,0,0:0:0:0:
402,192,41000,1,0,0:0:0:0:
475,192,41000,1,0,0:0:0:0:
256,192,41000,1,0,0:0:0:0:
109,192,42000,128,0,43000:0:0:0:0:
402,192,42000,128,0,43000:0:0:0:0:
182,192,42000,1,0,0:0:0:0:
329,192,42000,1,0,0:0:0:0:
182,192,42125,1,0,0:0:0:0:
329,192,42125,1,0,0:0:0:0:
182,192,42250,1,0,0:0:0:0:
329,192,42250,1,0,0:0:0:0:
182,192,42375,1,0,0:0:0:0:
329,192,42375,1,0,0:0:0:0:
182,192,42500,1,0,0:0:0:0:
36,192,42500,1,0,0:0:0:0:
329,192,42500,1,0,0:0:0:0:
475,192,42500,1,0,0:0:0:0:
182,192,42625,1,0,0:0:0:0:
36,192,42625,1,0,0:0:0:0:
329,192,42625,1,0,0:0:0:0:
475,192,42625,1,0,0:0:0:0:
182,192,42750,1,0,0:0:0:0:
36,192,42750,1,0,0:0:0:0:
329,192,42750,1,0,0:0:0:0:
475,192,42750,1,0,0:0:0:0:
182,192,42875,1,0,0:0:0:0:
36,192,42875,1,0,0:0:0:0:
329,192,42875,1,0,0:0:0:0:
475,192,42875,1,0,0:0:0:0:
182,192,43000,1,0,0:0:0:0:
36,192,43000,1,0,0:0:0:0:
256,192,43000,1,0,0:0:0:0:
329,192,43000,1,0,0:0:0:0:
475,192,43000,1,0,0:0:0:0:
36,192,44000,1,0,0:0:0:0:
109,192,44000,1,0,0:0:0:0:
182,192,44000,1,0,0:0:0:0:
256,192,44000,1,0,0:0:0:0:
109,192,44125,1,0,0:0:0:0:
182,192,44125,1,0,0:0:0:0:
256,192,44125,1,0,0:0:0:0:
329,192,44125,1,0,0:0:0:0:
182,192,44250,1,0,0:0:0:0:
256,192,44250,1,0,0:0:0:0:
329,192,44250,1,0,0:0:0:0:
402,192,44250,1,0,0:0:0:0:
256,192,44375,1,0,0:0:0:0:
329,192,44375,1,0,0:0:0:0:
402,192,44375,1,0,0:0:0:0:
475,192,44375,1,0,0:0:0:0:
256,192,44500,1,0,0:0:0:0:
329,192,44500,1,0,0:0:0:0:
475,192,44500,1,0,0:0:0:0:
402,192,44500,1,0,0:0:0:0:
256,192,44625,1,0,0:0:0:0:
329,192,44625,1,0,0:0:0:0:
402,192,44625,1,0,0:0:0:0:
475,192,44625,1,0,0:0:0:0:
256,192,44750,1,0,0:0:0:0:
329,192,44750,1,0,0:0:0:0:
402,192,44750,1,0,0:0:0:0:
475,192,44750,1,0,0:0:0:0:
182,192,44750,1,0,0:0:0:0:
256,192,44875,1,0,0:0:0:0:
329,192,44875,1,0,0:0:0:0:
402,192,44875,1,0,0:0:0:0:
475,192,44875,1,0,0:0:0:0:
109,192,44875,1,0,0:0:0:0:
182,192,44875,1,0,0:0:0:0:
36,192,45000,1,0,0:0:0:0:
109,192,45000,1,0,0:0:0:0:
182,192,45000,1,0,0:0:0:0:
256,192,45000,1,0,0:0:0:0:
329,192,45000,1,0,0:0:0:0:
475,192,45000,1,0,0:0:0:0:
402,192,45000,1,0,0:0:0:0:
256,192,46000,1,0,0:0:0:0:
329,192,46000,1,0,0:0:0:0:
402,192,46000,1,0,0:0:0:0:
475,192,46000,1,0,0:0:0:0:
329,192,46125,1,0,0:0:0:0:
402,192,46125,1,0,0:0:0:0:
182,192,46125,1,0,0:0:0:0:
256,192,46125,1,0,0:0:0:0:
329,192,46250,1,0,0:0:0:0:
256,192,46250,1,0,0:0:0:0:
182,192,46250,1,0,0:0:0:0:
109,192,46250,1,0,0:0:0:0:
36,192,46375,1,0,0:0:0:0:
109,192,46375,1,0,0:0:0:0:
182,192,46375,1,0,0:0:0:0:
256,192,46375,1,0,0:0:0:0:
36,192,46500,1,0,0:0:0:0:
109,192,46500,1,0,0:0:0:0:
182,192,46500,1,0,0:0:0:0:
256,192,46500,1,0,0:0:0:0:
36,192,46625,1,0,0:0:0:0:
109,192,46625,1,0,0:0:0:0:
256,192,46625,1,0,0:0:0:0:
182,192,46625,1,0,0:0:0:0:
109,192,46750,1,0,0:0:0:0:
36,192,46750,1,0,0:0:0:0:
256,192,46750,1,0,0:0:0:0:
182,192,46750,1,0,0:0:0:0:
329,192,46750,1,0,0:0:0:0:
36,192,46875,1,0,0:0:0:0:
109,192,46875,1,0,0:0:0:0:
256,192,46875,1,0,0:0:0:0:
182,192,46875,1,0,0:0:0:0:
402,192,46875,1,0,0:0:0:0:
329,192,46875,1,0,0:0:0:0:
109,192,47000,1,0,0:0:0:0:
36,192,47000,1,0,0:0:0:0:
182,192,47000,1,0,0:0:0:0:
256,192,47000,1,0,0:0:0:0:
329,192,47000,1,0,0:0:0:0:
402,192,47000,1,0,0:0:0:0:
475,192,47000,1,0,0:0:0:0:
36,192,48000,1,0,0:0:0:0:
36,192,48125,1,0,0:0:0:0:
109,192,48125,1,0,0:0:0:0:
36,192,48250,1,0,0:0:0:0:
182,192,48250,1,0,0:0:0:0:
109,192,48250,1,0,0:0:0:0:
36,192,48375,1,0,0:0:0:0:
109,192,48375,1,0,0:0:0:0:
182,192,48375,1,0,0:0:0:0:
256,192,48375,1,0,0:0:0:0:
36,192,48500,1,0,0:0:0:0:
256,192,48500,1,0,0:0:0:0:
182,192,48500,1,0,0:0:0:0:
109,192,48500,1,0,0:0:0:0:
329,192,48500,1,0,0:0:0:0:
36,192,48625,1,0,0:0:0:0:
402,192,48625,1,0,0:0:0:0:
329,192,48625,1,0,0:0:0:0:
256,192,48625,1,0,0:0:0:0:
182,192,48625,1,0,0:0:0:0:
109,192,48625,1,0,0:0:0:0:
36,192,48750,1,0,0:0:0:0:
109,192,48750,1,0,0:0:0:0:
182,192,48750,1,0,0:0:0:0:
256,192,48750,1,0,0:0:0:0:
329,192,48750,1,0,0:0:0:0:
402,192,48750,1,0,0:0:0:0:
475,192,48750,1,0,0:0:0:0:
109,192,48875,1,0,0:0:0:0:
182,192,48875,1,0,0:0:0:0:
256,192,48875,1,0,0:0:0:0:
329,192,48875,1,0,0:0:0:0:
402,192,48875,1,0,0:0:0:0:
475,192,48875,1,0,0:0:0:0:
182,192,49000,1,0,0:0:0:0:
256,192,49000,1,0,0:0:0:0:
402,192,49000,1,0,0:0:0:0:
475,192,49000,1,0,0:0:0:0:
329,192,49000,1,0,0:0:0:0:
256,192,49125,1,0,0:0:0:0:
329,192,49125,1,0,0:0:0:0:
402,192,49125,1,0,0:0:0:0:
475,192,49125,1,0,0:0:0:0:
475,192,49250,1,0,0:0:0:0:
402,192,49250,1,0,0:0:0:0:
329,192,49250,1,0,0:0:0:0:
402,192,49375,1,0,0:0:0:0:
475,192,49375,1,0,0:0:0:0:
475,192,49500,1,0,0:0:0:0:
36,192,50000,1,0,0:0:0:0:
182,192,50000,1,0,0:0:0:0:
329,192,50000,1,0,0:0:0:0:
475,192,50000,1,0,0:0:0:0:
182,192,51000,1,0,0:0:0:0:
182,192,51125,1,0,0:0:0:0:
329,192,51250,1,0,0:0:0:0:
329,192,51375,1,0,0:0:0:0:
256,192,51500,1,0,0:0:0:0:
256,192,51625,1,0,0:0:0:0:
109,192,51750,1,0,0:0:0:0:
109,192,51875,1,0,0:0:0:0:
402,192,52000,1,0,0:0:0:0:
402,192,52125,1,0,0:0:0:0:
475,192,52250,1,0,0:0:0:0:
475,192,52375,1,0,0:0:0:0:
182,192,52500,1,0,0:0:0:0:
182,192,52625,1,0,0:0:0:0:
36,192,52750,1,0,0:0:0:0:
36,192,52875,1,0,0:0:0:0:
329,192,53000,1,0,0:0:0:0:
329,192,53125,1,0,0:0:0:0:
256,192,53250,1,0,0:0:0:0:
256,192,53375,1,0,0:0:0:0:
182,192,53500,1,0,0:0:0:0:
182,192,53625,1,0,0:0:0:0:
109,192,53750,1,0,0:0:0:0:
109,192,53875,1,0,0:0:0:0:
402,192,54000,1,0,0:0:0:0:
402,192,54125,1,0,0:0:0:0:
329,192,54250,1,0,0:0:0:0:
329,192,54375,1,0,0:0:0:0:
256,192,54500,1,0,0:0:0:0:
256,192,54625,1,0,0:0:0:0:
182,192,54750,1,0,0:0:0:0:
182,192,54875,1,0,0:0:0:0:
36,192,55000,1,0,0:0:0:0:
36,192,55125,1,0,0:0:0:0:
256,192,55250,1,0,0:0:0:0:
256,192,55375,1,0,0:0:0:0:
109,192,55500,1,0,0:0:0:0:
109,192,55625,1,0,0:0:0:0:
329,192,55750,1,0,0:0:0:0:
329,192,55875,1,0,0:0:0:0:
475,192,56000,1,0,0:0:0:0:
475,192,56125,1,0,0:0:0:0:
256,192,56250,1,0,0:0:0:0:
256,192,56375,1,0,0:0:0:0:
402,192,56500,1,0,0:0:0:0:
402,192,56625,1,0,0:0:0:0:
182,192,56750,1,0,0:0:0:0:
182,192,56875,1,0,0:0:0:0:
36,192,57000,1,0,0:0:0:0:
329,192,57000,1,0,0:0:0:0:
329,192,57125,1,0,0:0:0:0:
36,192,57125,1,0,0:0:0:0:
182,192,57250,1,0,0:0:0:0:
402,192,57250,1,0,0:0:0:0:
182,192,57375,1,0,0:0:0:0:
402,192,57375,1,0,0:0:0:0:
109,192,57500,1,0,0:0:0:0:
475,192,57500,1,0,0:0:0:0:
475,192,57625,1,0,0:0:0:0:
109,192,57625,1,0,0:0:0:0:
36,192,57750,1,0,0:0:0:0:
329,192,57750,1,0,0:0:0:0:
329,192,57875,1,0,0:0:0:0:
36,192,57875,1,0,0:0:0:0:
256,192,58000,1,0,0:0:0:0:
109,192,58000,1,0,0:0:0:0:
109,192,58125,1,0,0:0:0:0:
256,192,58125,1,0,0:0:0:0:
402,192,58250,1,0,0:0:0:0:
475,192,58250,1,0,0:0:0:0:
402,192,58375,1,0,0:0:0:0:
475,192,58375,1,0,0:0:0:0:
182,192,58500,1,0,0:0:0:0:
329,192,58500,1,0,0:0:0:0:
329,192,58625,1,0,0:0:0:0:
182,192,58625,1,0,0:0:0:0:
36,192,58750,1,0,0:0:0:0:
109,192,58750,1,0,0:0:0:0:
109,192,58875,1,0,0:0:0:0:
36,192,58875,1,0,0:0:0:0:
256,192,59000,1,0,0:0:0:0:
475,192,59000,1,0,0:0:0:0:
475,192,59125,1,0,0:0:0:0:
256,192,59125,1,0,0:0:0:0:
182,192,59250,1,0,0:0:0:0:
402,192,59250,1,0,0:0:0:0:
402,192,59375,1,0,0:0:0:0:
182,192,59375,1,0,0:0:0:0:
109,192,59500,1,0,0:0:0:0:
329,192,59500,1,0,0:0:0:0:
109,192,59625,1,0,0:0:0:0:
329,192,59625,1,0,0:0:0:0:
36,192,59750,1,0,0:0:0:0:
256,192,59750,1,0,0:0:0:0:
36,192,59875,1,0,0:0:0:0:
256,192,59875,1,0,0:0:0:0:
182,192,60000,1,0,0:0:0:0:
402,192,60000,1,0,0:0:0:0:
475,192,60000,1,0,0:0:0:0:
182,192,60125,1,0,0:0:0:0:
402,192,60125,1,0,0:0:0:0:
475,192,60125,1,0,0:0:0:0:
109,192,60250,1,0,0:0:0:0:
256,192,60250,1,0,0:0:0:0:
329,192,60250,1,0,0:0:0:0:
329,192,60375,1,0,0:0:0:0:
256,192,60375,1,0,0:0:0:0:
109,192,60375,1,0,0:0:0:0:
36,192,60500,1,0,0:0:0:0:
182,192,60500,1,0,0:0:0:0:
402,192,60500,1,0,0:0:0:0:
402,192,60625,1,0,0:0:0:0:
182,192,60625,1,0,0:0:0:0:
36,192,60625,1,0,0:0:0:0:
109,192,60750,1,0,0:0:0:0:
329,192,60750,1,0,0:0:0:0:
475,192,60750,1,0,0:0:0:0:
475,192,60875,1,0,0:0:0:0:
329,192,60875,1,0,0:0:0:0:
109,192,60875,1,0,0:0:0:0:
182,192,61000,1,0,0:0:0:0:
256,192,61000,1,0,0:0:0:0:
402,192,61000,1,0,0:0:0:0:
402,192,61125,1,0,0:0:0:0:
256,192,61125,1,0,0:0:0:0:
182,192,61125,1,0,0:0:0:0:
109,192,61250,1,0,0:0:0:0:
36,192,61250,1,0,0:0:0:0:
329,192,61250,1,0,0:0:0:0:
329,192,61375,1,0,0:0:0:0:
109,192,61375,1,0,0:0:0:0:
36,192,61375,1,0,0:0:0:0:
402,192,61500,1,0,0:0:0:0:
475,192,61500,1,0,0:0:0:0:
182,192,61500,1,0,0:0:0:0:
182,192,61625,1,0,0:0:0:0:
402,192,61625,1,0,0:0:0:0:
475,192,61625,1,0,0:0:0:0:
329,192,61750,1,0,0:0:0:0:
256,192,61750,1,0,0:0:0:0:
109,192,61750,1,0,0:0:0:0:
109,192,61875,1,0,0:0:0:0:
256,192,61875,1,0,0:0:0:0:
329,192,61875,1,0,0:0:0:0:
36,192,62000,1,0,0:0:0:0:
182,192,62000,1,0,0:0:0:0:
402,192,62000,1,0,0:0:0:0:
475,192,62000,1,0,0:0:0:0:
109,192,62000,1,0,0:0:0:0:
256,192,62000,1,0,0:0:0:0:
329,192,62000,1,0,0:0:0:0:
36,192,63000,1,0,0:0:0:0:
36,192,63062,1,0,0:0:0:0:
182,192,63125,1,0,0:0:0:0:
182,192,63187,1,0,0:0:0:0:
402,192,63250,1,0,0:0:0:0:
402,192,63312,1,0,0:0:0:0:
256,192,63375,1,0,0:0:0:0:
256,192,63437,1,0,0:0:0:0:
109,192,63500,1,0,0:0:0:0:
109,192,63562,1,0,0:0:0:0:
475,192,63625,1,0,0:0:0:0:
475,192,63687,1,0,0:0:0:0:
329,192,63750,1,0,0:0:0:0:
329,192,63812,1,0,0:0:0:0:
182,192,63875,1,0,0:0:0:0:
182,192,63937,1,0,0:0:0:0:
36,192,64000,1,0,0:0:0:0:
475,192,64000,1,0,0:0:0:0:
475,192,64062,1,0,0:0:0:0:
36,192,64062,1,0,0:0:0:0:
402,192,64125,1,0,0:0:0:0:
109,192,64125,1,0,0:0:0:0:
402,192,64187,1,0,0:0:0:0:
109,192,64187,1,0,0:0:0:0:
329,192,64250,1,0,0:0:0:0:
182,192,64250,1,0,0:0:0:0:
329,192,64312,1,0,0:0:0:0:
182,192,64312,1,0,0:0:0:0:
329,192,64375,1,0,0:0:0:0:
182,192,64375,1,0,0:0:0:0:
329,192,64437,1,0,0:0:0:0:
182,192,64437,1,0,0:0:0:0:
475,192,64500,1,0,0:0:0:0:
402,192,64500,1,0,0:0:0:0:
329,192,64500,1,0,0:0:0:0:
256,192,64500,1,0,0:0:0:0:
109,192,64500,1,0,0:0:0:0:
182,192,64500,1,0,0:0:0:0:
36,192,64500,1,0,0:0:0:0:
