osu file format v9

[General]
AudioFilename: Tuk.mp3
AudioLeadIn: 0
PreviewTime: 43902
Countdown: 1
SampleSet: Soft
StackLeniency: 0.7
Mode: 0
LetterboxInBreaks: 0
EpilepsyWarning: 1

[Editor]
DistanceSpacing: 1
BeatDivisor: 2
GridSize: 8

[Metadata]
Title:Tuk Tuk
Artist:5ivesta Family
Creator:Ryu
Version:Normal
Source:
Tags:russian

[Difficulty]
HPDrainRate:3
CircleSize:4
OverallDifficulty:3
ApproachRate:4
SliderMultiplier:1
SliderTickRate:1

[Events]
//Background and Video events
0,0,"rainbow-heartbeat.png"
//Break Periods
2,110891,126068
//Storyboard Layer 0 (Background)
//Storyboard Layer 1 (Fail)
//Storyboard Layer 2 (Pass)
//Storyboard Layer 3 (Foreground)
//Storyboard Sound Samples
//Background Colour Transformations
3,100,163,162,255

[TimingPoints]
2160,521.784503000261,4,2,2,60,1,0
43902,-100,4,1,2,70,0,1
76775,-100,4,2,2,60,0,0
93994,-100,4,1,2,70,0,1
110691,-100,4,2,2,60,0,0
180610,-100,4,1,1,70,0,1
211917,-100,4,2,1,60,0,0

[Colours]
Combo1 : 255,255,0
Combo2 : 255,0,255
Combo3 : 0,128,255
Combo4 : 0,255,255
Combo5 : 128,255,128

[HitObjects]
120,144,10508,5,10
160,56,11030,2,0,B|216:80|216:136,1,100,2|0
288,184,12073,1,2
240,272,12595,2,0,B|288:304|336:272,2,100,0|2|0
160,208,14161,5,2
80,152,14682,1,0
80,152,15204,2,0,B|112:88|208:88|248:160,1,200,2|2
336,216,16769,6,0,B|400:200|388:145,1,100,0|2
368,48,17813,2,0,B|304:64|316:119,1,100,0|2
304,168,18596,5,0
304,168,18857,1,0
392,208,19378,1,2
312,264,19900,1,0
224,216,20422,1,2
136,192,20944,2,0,B|128:128|184:112,1,100,0|2
328,96,22248,5,0
368,128,22509,2,0,B|368:231,1,100,2|0
272,208,23553,1,2
176,208,24074,1,0
168,304,24596,1,2
72,320,25118,2,0,B|24:288|48:232,1,100,0|2
136,192,26162,1,0
232,192,26683,1,2
160,56,27205,6,0,B|144:120|94:120,1,100,0|2
96,224,28249,1,0
176,280,28771,2,0,B|216:232|270:259,1,100,2|0
360,256,29814,1,2
248,152,30597,5,0
240,104,30858,2,0,B|324:51,1,100,2|0
392,120,31901,1,2
392,216,32423,1,0
328,312,32945,2,0,B|228:313,3,100,2|0|2|0
128,288,35032,1,2
72,208,35554,6,0,B|104:168|136:184|136:136,1,100,0|2
216,72,36597,1,0
320,72,37119,1,2
392,144,37641,2,0,B|391:191|423:175|455:215,1,100,0|2
376,272,38684,1,0
288,312,39206,6,0,B|184:312|216:240|112:232,1,200,2|2
64,152,40772,1,0
64,152,41293,1,2
256,192,41815,12,0,43380
208,176,43902,6,0,B|176:128|120:128,1,100,4|8
216,80,44946,2,0,B|248:32|304:32,1,100,0|8
320,128,45989,1,0
320,224,46511,1,8
280,312,47033,6,0,B|240:344|184:328,1,100,0|8
96,280,48077,2,0,B|56:240|85:187,1,100,0|8
184,176,49120,1,0
280,160,49642,1,8
328,160,49903,2,0,B|408:128|393:38,1,150,0|8
296,56,51207,5,0
200,96,51729,1,8
136,168,52251,2,0,B|136:224|200:232,1,100,4|8
296,232,53294,2,0,B|360:232|368:176,1,100,0|8
360,128,54077,1,0
264,112,54599,1,0
264,160,54860,1,8
192,232,55382,6,0,B|128:248|118:184|118:184,1,100,0|8
96,88,56425,1,0
200,88,56947,1,8
296,88,57469,1,0
344,176,57990,1,8
352,224,58251,2,0,B|376:320|280:328,1,150,0|8
216,248,59556,6,0,B|185:205,1,50
152,168,60078,1,8
120,128,60338,1,0
152,96,60599,5,4
240,48,61121,1,8
328,8,61643,1,0
352,104,62165,1,8
352,152,62426,1,0
264,200,62947,1,0
216,200,63208,1,8
128,248,63730,6,0,B|162:282,2,50
128,144,64774,1,0
224,144,65295,1,8
304,200,65817,1,0
352,112,66339,2,0,B|310:84,1,50,8|0
264,80,66861,1,0
168,104,67383,1,8
168,152,67643,1,0
128,184,67904,5,0
96,88,68426,1,8
176,32,68948,2,0,B|216:-16|265:23,2,100,4|8|0
184,128,70513,2,0,B|163:173,1,50,8|0
232,248,71296,2,0,B|272:216,1,50,0|8
320,232,71818,5,0
352,192,72079,2,0,B|352:136|304:112,1,100,0|8
200,120,73122,1,0
128,184,73644,1,8
128,288,74166,1,0
232,336,74688,1,8
232,336,74948,2,0,B|288:368|316:314,2,100,0|0|0
232,288,76253,5,0
264,192,76775,1,8
256,144,77036,5,0
208,120,77296,2,0,B|160:96|112:128,1,100
168,216,78340,1,0
128,312,78862,2,0,B|176:336|224:304,1,100,0|2
272,216,79905,1,2
184,96,80688,5,0
136,96,80949,1,2
112,136,81210,2,0,B|128:192|178:206,1,100
224,224,81993,1,2
272,208,82253,2,0,B|320:192|336:136,1,100
304,104,83036,1,2
264,72,83297,1,0
160,96,83819,5,0
112,120,84080,2,0,B|61:120,1,50
88,168,84601,2,0,B|37:168,1,50
40,216,85123,1,0
144,216,85645,5,0
248,216,86167,1,2
184,288,86689,1,0
88,288,87210,1,2
64,192,87732,2,0,B|112:192,2,50,0|0|2
112,104,88776,6,0,B|216:104,1,100,0|2
264,104,89558,1,0
296,144,89819,2,8,B|296:248,1,100,0|2
208,200,90863,1,0
112,184,91385,2,0,B|120:128|184:120,2,100,2|0|0
64,272,92950,2,8,B|165:272,1,100,2|2
240,200,93994,5,4
160,152,94515,1,8
232,88,95037,1,0
280,112,95298,2,0,B|329:112,2,50,0|8|0
280,216,96342,2,0,B|280:267,1,50,0|8
232,256,96863,5,0
192,280,97124,2,0,B|136:296|114:236,1,100,0|8
136,128,98168,1,0
240,136,98690,1,8
336,128,99211,1,0
344,224,99733,2,0,B|344:280,1,50,8|0
160,208,101038,5,0
144,160,101299,2,0,B|168:112|232:120,1,100,0|8
296,208,102342,6,0,B|344:184,1,50,4|0
304,152,102864,2,0,B|352:120,1,50,8|0
304,104,103386,2,0,B|349:74,1,50
376,40,103907,5,8
424,48,104168,2,0,B|480:64|464:128,1,100
464,126,104951,1,8
408,208,105473,6,0,B|400:272|344:272,1,100,0|8
248,264,106516,1,0
160,256,107038,1,8
88,192,107560,2,0,B|80:128|144:128,1,100,0|8
144,128,108343,1,0
143,127,108604,1,0
296,128,109125,5,8
296,128,109647,2,0,B|396:128,1,100,0|8
396,128,110430,1,0
396,128,110691,1,0
72,176,127388,5,4
72,176,127910,1,2
144,248,128431,1,0
144,152,128953,2,0,B|144:104,1,50,2|0
288,120,129997,5,2
376,120,130518,1,0
384,224,131040,2,0,B|384:272,1,50,2|0
240,304,132084,5,2
168,232,132606,1,0
192,136,133127,1,2
288,136,133649,1,0
304,232,134171,1,2
200,232,134693,1,0
96,232,135215,2,0,B|88:168|128:144,1,100,2|0
224,112,136258,6,0,B|324:113,3,100,2|0|2|0
264,184,138345,1,2
208,264,138867,1,0
112,256,139389,2,0,B|80:208|104:162,1,100,2|0
192,120,140432,5,2
288,104,140954,2,0,B|296:160|248:192,1,100,0|2
264,288,141998,5,0
264,288,142259,1,0
264,288,142520,2,0,B|216:304|176:256,1,100,2|0
160,160,143563,1,2
240,104,144085,1,2
328,152,144607,6,0,B|384:176|371:234,1,100
272,248,145650,1,0
224,248,145911,2,0,B|184:288|220:339,1,100
336,296,147216,5,2
239,269,147737,2,0,B|273:231|273:231,3,50
344,160,149303,5,0
240,160,149825,2,0,B|232:112|232:112,3,50
152,240,151390,5,0
120,144,151912,1,0
192,72,152433,1,2
272,136,152955,5,0
376,136,153477,2,0,B|424:176|384:232,1,100
328,304,154521,2,0,B|280:336|232:304,1,100
280,224,155564,5,0
376,216,156086,2,0,B|408:168|376:120,1,100
328,120,156869,1,0
280,120,157129,1,2
200,64,157651,5,0
128,136,158173,1,0
80,136,158434,2,0,B|56:192|88:232,1,100
112,272,159217,1,2
208,280,159738,6,0,B|304:256,1,100
312,152,160782,2,0,B|224:96,1,100,0|2
128,96,161826,1,0
128,192,162347,1,0
224,192,162869,2,0,B|271:158|264:104,1,100,0|2
368,112,163913,5,0
368,160,164174,1,0
368,209,164434,2,0,B|416:232|464:216,1,100
464,120,165478,5,2
432,80,165739,1,0
335,69,166261,2,0,B|288:96|240:72,1,100
192,72,167043,1,0
337,213,168087,6,0,B|369:253,2,50
261,279,169131,2,0,B|288:336|341:319,1,100,0|2
418,257,170174,5,0
389,216,170435,1,0
363,173,170696,2,0,B|416:144|459:189,1,100
457,86,171739,1,2
357,97,172261,6,0,B|304:112|261:81,1,100
254,180,173305,2,0,B|216:144|158:148,1,100,0|2
117,172,174087,1,0
90,268,174609,1,0
184,299,175131,1,0
216,204,175653,1,0
306,246,176175,5,0
296,200,176436,2,0,B|320:152,1,50
272,160,176957,2,0,B|296:112,1,50
264,80,177479,1,2
160,80,178001,1,2
160,184,178523,1,2
64,288,180088,5,0
160,288,180610,2,0,B|200:336|248:288,1,100,4|8
240,192,181653,5,0
344,192,182175,1,8
320,288,182697,1,0
424,288,183219,1,8
448,192,183741,1,0
368,128,184262,2,0,B|472:128,1,100,8|0
440,32,185306,5,8
344,56,185828,1,0
296,144,186349,1,8
384,192,186871,2,0,B|320:272,1,100,4|8
224,264,187915,2,0,B|170:181,1,100,0|8
176,128,188697,1,0
88,168,189219,2,0,B|40:192,1,50,0|8
120,264,190002,5,0
216,288,190524,1,8
304,240,191045,2,0,B|360:216|347:159,1,100,0|8
344,64,192089,2,0,B|320:8|263:21,1,100,0|8
216,24,192872,1,0
176,168,193654,5,8
176,272,194176,1,0
280,272,194698,1,8
376,272,195220,2,0,B|432:256|440:200,1,100,4|8
344,176,196263,2,0,B|352:120|408:104,1,100,0|8
456,96,197046,1,0
456,200,197568,2,0,B|456:256,1,50,0|8
352,272,198350,5,0
352,272,198872,5,0
160,264,199394,1,0
192,168,199916,1,8
280,128,200438,1,0
344,200,200959,1,8
344,200,201220,2,0,B|360:296|264:296,1,150,0|8
200,224,202525,5,0
184,128,203047,1,8
272,88,203568,1,4
352,144,204090,1,8
336,240,204612,1,0
240,256,205134,6,0,B|232:320|168:304,1,100,8|0
170,304,205916,1,0
171,305,206177,1,8
200,184,206699,5,0
248,184,206960,1,0
296,184,207221,1,8
344,184,207482,1,0
392,184,207743,2,0,B|440:160|421:99,1,100,0|8
328,56,208786,5,0
288,80,209047,1,0
248,112,209308,1,8
216,152,209569,2,0,B|198:203|219:257,1,100
312,288,210612,5,0
360,272,210873,2,0,B|320:240|405:114|340:137|340:137,1,150
296,152,211917,1,0
