osu file format v9

[General]
AudioFilename: Tuk.mp3
AudioLeadIn: 0
PreviewTime: 43902
Countdown: 1
SampleSet: Soft
StackLeniency: 0.8
Mode: 0
LetterboxInBreaks: 0
EpilepsyWarning: 1

[Editor]
Bookmarks: 100777
DistanceSpacing: 1
BeatDivisor: 4
GridSize: 4

[Metadata]
Title:Tuk Tuk
Artist:5ivesta Family
Creator:Ryu
Version:Hard
Source:
Tags:russian

[Difficulty]
HPDrainRate:6
CircleSize:4
OverallDifficulty:6
ApproachRate:6
SliderMultiplier:1.9
SliderTickRate:2

[Events]
//Background and Video events
0,0,"rainbow-heartbeat.png"
//Break Periods
2,110891,124251
//Storyboard Layer 0 (Background)
//Storyboard Layer 1 (Fail)
//Storyboard Layer 2 (Pass)
//Storyboard Layer 3 (Foreground)
//Storyboard Sound Samples
//Background Colour Transformations
3,100,163,162,255

[TimingPoints]
2160,521.784503000261,4,2,0,60,1,0
43902,-100,4,1,0,70,0,1
76775,-100,4,2,0,60,0,0
93994,-100,4,1,0,70,0,1
110691,-100,4,2,0,60,0,0
180610,-100,4,1,0,70,0,1
211917,-100,4,2,0,60,0,0

[Colours]
Combo1 : 255,255,0
Combo2 : 255,0,255
Combo3 : 0,128,255
Combo4 : 0,255,255
Combo5 : 128,255,128

[HitObjects]
160,80,10247,1,0
160,80,10378,1,0
160,80,10508,2,0,B|106:54|106:54|112:112|112:112|50:153,2,190,10|2|0
256,88,11813,1,0
352,88,12073,1,2
352,136,12204,1,0
352,184,12334,1,0
424,244,12595,2,0,B|448:280|436:304|388:304,2,95,0|0|2
120,248,13900,6,0,B|120:352,2,95,0|0|0
80,164,14682,1,0
124,80,14943,1,0
220,72,15204,6,0,B|337:65|341:185,1,190,2|0
332,288,15987,1,0
236,288,16248,1,2
236,192,16509,2,0,B|129:210|76:116,1,190
168,92,17291,6,0,B|208:124|260:104,1,95,2|0
224,16,17813,2,0,B|273:-3|313:28,1,95,2|0
340,120,18335,1,0
308,208,18596,1,2
340,312,18857,6,0,B|427:261|413:150,1,190,0|2
376,64,19639,1,0
284,88,19900,2,0,B|197:139|208:251,1,190,0|2
116,240,20683,1,0
160,324,20944,2,0,B|201:361|250:332,2,95,0|0|2
164,132,21987,1,0
236,68,22248,5,0
284,76,22379,1,0
284,124,22509,1,2
284,220,22770,1,0
284,316,23031,2,0,B|340:308|340:308|360:276|360:276,1,95
380,180,23553,2,0,B|395:144|395:144|451:136,1,95,2|0
428,44,24074,1,0
392,76,24205,1,0
344,80,24335,1,0
252,76,24596,6,0,B|204:52|156:80,2,95
208,160,25379,2,0,B|207:258,1,95,0|2
396,292,26162,1,0
356,268,26292,1,0
348,220,26422,1,0
319,129,26683,6,0,B|302:61|212:40|164:93,1,190
232,160,27466,1,0
144,192,27727,2,0,B|161:260|251:281|299:228,1,190,0|0
368,164,28510,1,0
320,80,28771,2,0,B|364:52|412:80,2,95,2|0|0
368,164,29553,1,0
368,260,29814,1,2
196,336,30336,5,0
128,268,30597,2,0,B|64:196,1,95,0|2
64,100,31119,2,0,B|171:90|219:190,1,190
208,280,31901,2,0,B|248:320|296:304,2,95,2|0|0
276,212,32684,1,0
196,164,32945,1,2
276,116,33206,2,0,B|316:12|426:18,1,190
424,116,33988,1,2
424,212,34249,5,0
404,256,34380,1,0
364,280,34510,1,0
272,296,34771,1,0
176,292,35032,1,2
196,104,35293,5,0
196,104,35554,2,0,B|156:128|132:112|132:112|148:152|108:144|108:144|124:168|124:208,1,190,0|2
216,188,36336,1,0
276,260,36597,2,0,B|324:280|364:240,2,95
304,180,37380,1,0
268,92,37641,1,0
188,144,37902,2,0,B|117:207,1,95,0|2
264,300,38684,1,0
364,140,38945,6,0,B|460:140,1,95,0|2
408,220,39467,2,0,B|313:220,1,95,0|2
264,300,39989,1,0
264,300,40250,1,2
200,228,40511,2,0,B|160:156|184:96|256:80,1,190
336,76,41293,2,0,B|432:76,1,95,2|0
256,192,41815,12,0,43380
160,88,43902,6,0,B|76:104|80:204|208:224|172:128,2,190
256,92,45207,1,0
352,92,45468,2,0,B|436:108|432:208|304:228|340:132,2,190
472,224,47033,6,0,B|352:216|432:328|344:336,1,190,0|8
264,288,47816,1,0
176,328,48077,2,0,B|90:320|170:208|50:216,1,190,0|8
240,200,49120,2,0,B|204:132|264:52|324:68,1,190,0|8
404,132,49903,2,0,B|372:172|319:164,1,95
328,256,50425,1,0
264,328,50685,1,8
96,240,51207,6,0,B|120:184|168:164,3,95
200,40,52251,6,0,B|208:80|264:88|252:117,1,95,4|0
320,168,52773,2,0,B|328:208|384:216|376:244,1,95,8|0
284,248,53294,2,0,B|271:274|327:282|335:322,1,95
432,316,53816,6,0,B|480:300|478:242,2,95,8|0|0
336,320,54599,2,0,B|243:320,1,95,0|8
160,288,55121,5,0
160,200,55382,1,0
160,112,55642,1,0
160,24,55903,1,8
248,24,56164,1,0
304,88,56425,6,0,B|380:148|380:148,1,95
368,232,56947,2,0,B|308:308|308:308,1,95,8|0
224,264,57469,2,0,B|200:208|256:184,2,95,0|0|8
312,248,58251,5,0
344,224,58382,1,0
376,200,58512,1,8
376,112,58773,1,0
336,96,58904,1,0
296,80,59034,1,8
216,80,59295,6,0,B|136:128,1,95
216,176,59817,2,0,B|134:224,1,95,0|8
52,268,60338,1,0
52,172,60599,6,0,B|84:148|92:116|92:116|124:116,1,95,4|0
212,116,61121,2,0,B|232:116|232:116|240:148|276:180,1,95,8|0
344,244,61643,2,0,B|364:244|364:244|372:212|416:188,1,95
413,189,62165,1,8
468,112,62426,6,0,B|468:40|468:40|424:12|424:12|360:40,1,190,0|0
252,52,63208,1,8
91,153,63730,6,0,B|91:249|91:249|40:257|40:318,1,190
128,336,64513,1,0
220,320,64774,2,0,B|268:240,1,95
332,312,65295,2,0,B|380:232,1,95,8|0
312,164,65817,2,0,B|240:72,1,95
204,172,66339,2,0,B|132:80,1,95
192,16,66861,5,0
224,48,66991,1,0
256,84,67122,1,0
352,72,67383,1,8
355,166,67643,1,0
428,128,67904,2,0,B|508:92|536:228|448:228,1,190,0|8
440,324,68687,1,0
352,280,68948,6,0,B|256:320,1,95,4|0
196,252,69470,2,0,B|292:212,1,95,4|0
212,152,69991,2,0,B|116:192,1,95,4|0
196,252,70513,6,0,B|308:316|352:192,1,190,8|0
336,100,71296,1,0
264,36,71557,1,8
168,40,71818,1,0
96,92,72079,6,0,B|20:180|104:260,1,190,0|8
103,259,72861,1,0
191,295,73122,1,0
381,295,73644,1,8
328,192,74166,1,0
328,152,74296,1,0
328,112,74427,1,0
252,172,74688,1,8
400,88,74948,2,0,B|376:40|328:16|272:40|256:96,1,190,0|0
288,248,75731,6,0,B|210:304,1,95,8|0
144,264,76253,2,0,B|166:171,1,95
88,168,76775,1,8
80,88,77036,5,0
120,96,77166,1,0
160,104,77296,1,10
240,120,77557,2,0,B|288:136|288:136|287:184|287:184,1,95
192,192,78079,2,0,B|144:208|144:208|142:254|142:254,2,95
256,248,78862,1,0
272,344,79123,2,0,B|273:344|273:344|217:344|217:344|208:304,1,95,0|4
160,224,79644,1,0
168,129,79905,2,0,B|208:84|277:82,1,95,2|0
408,64,80688,5,0
408,64,80949,1,2
432,144,81210,2,0,B|472:240|400:320,1,190
344,240,81993,1,2
264,292,82253,2,0,B|224:196|296:116,1,190
200,100,83036,5,2
108,124,83297,2,0,B|179:203|139:299,1,190
72,232,84080,1,2
72,232,84341,2,0,B|35:232|35:232|19:288,1,95
92,348,84862,1,0
184,332,85123,1,2
276,308,85384,1,0
356,260,85645,6,0,B|412:204|372:124|292:140,1,190,0|2
148,260,86689,2,0,B|92:204|132:124|212:140,1,190,0|2
376,44,87732,2,0,B|348:104|252:108|220:44,1,190,0|2
140,100,88515,2,0,B|156:152|220:160,1,95
300,180,89037,5,0
348,176,89167,1,0
392,160,89298,1,2
404,68,89558,2,0,B|476:52|528:140|480:200,1,190
452,280,90341,1,2
404,364,90602,2,0,B|332:380|280:292|328:232,1,190
324,144,91385,2,0,B|317:107|317:107|261:91,2,95,2|0|0
193,269,92689,6,0,B|201:221|201:221|161:189,1,95
94,257,93211,2,0,B|86:305|86:305|126:337,1,95
217,339,93733,1,0
344,240,93994,5,4
176,160,94515,1,8
304,24,95037,1,0
176,160,95559,2,0,B|224:136|224:136|248:104|248:104|272:136|272:136|328:160,2,190,8|0|8
120,240,96863,5,0
144,280,96994,1,0
168,320,97124,1,8
256,288,97385,1,0
208,208,97646,1,8
208,208,97907,1,0
200,16,98168,6,0,B|96:60|112:170,1,190,0|8
256,304,99211,2,0,B|360:260|344:150,1,190,0|8
256,184,99994,2,0,B|263:123|203:106,1,95
156,188,100516,1,0
104,268,100777,1,8
64,356,101038,5,0
36,316,101168,1,0
28,268,101299,1,8
44,176,101559,1,0
132,140,101820,1,8
216,180,102081,1,0
296,128,102342,6,0,B|330:96|386:102|386:102,1,95,4|0
460,160,102864,2,0,B|492:194|490:247|490:247,1,95,8|0
420,312,103386,2,0,B|386:344|328:333|328:333,1,95
236,320,103907,1,8
208,228,104168,1,0
192,136,104429,6,0,B|202:82|264:80,2,95,0|0|8
276,184,105212,1,0
296,228,105342,1,0
316,272,105473,1,0
372,196,105734,1,0
372,100,105995,1,8
304,36,106256,1,0
216,72,106516,6,0,B|160:76|160:136,1,95
160,232,107038,2,0,B|164:288|224:288,1,95,0|0
232,192,107560,2,0,B|264:92|385:117,1,190,0|8
336,200,108343,2,0,B|457:225|489:125,1,190,0|0
488,32,109125,1,8
296,32,109647,6,0,B|199:32,2,95,0|0|8
296,128,110430,1,0
296,224,110691,1,0
256,192,125301,12,0,126866
112,32,127388,5,4
264,152,127910,2,0,B|245:229|128:242|46:111|212:141|211:273|128:304|128:304,1,285,2|0
223,305,128953,2,0,B|231:337|231:337|287:361,2,95,2|0|0
384,208,129997,6,0,B|307:189|294:72|425:-10|395:156|263:155|232:64|232:64,1,285,2|0
192,152,131040,2,0,B|184:184|184:184|128:208,2,95,2|0|0
288,152,131823,5,0
320,120,131953,1,0
352,88,132084,1,2
416,16,132345,2,0,B|442:28|463:63|456:97,1,95
392,168,132867,2,0,B|404:194|439:215|473:208,1,95,0|2
416,288,133388,2,0,B|404:314|369:335|335:328,1,95
320,232,133910,2,0,B|308:206|273:185|239:192,1,95,0|2
208,104,134432,5,0
184,144,134562,1,0
160,184,134693,1,0
104,264,134954,2,0,B|44:260|56:200,2,95,0|2|0
264,160,135997,5,0
336,104,136258,2,0,B|288:0|376:-16|419:58,1,190,2|0
336,216,137302,2,0,B|288:320|376:336|418:262,1,190,2|0
208,232,138345,2,0,B|256:128|168:112|123:179,1,190,2|0
304,232,139389,2,2,B|256:128|344:112|388:178,1,190,2|0
200,128,140432,5,2
390,130,140954,1,0
296,288,141476,1,2
200,285,141737,1,0
168,248,141867,1,0
138,210,141998,1,0
192,136,142259,2,0,B|241:117|247:64,2,95,0|2|0
98,151,143041,2,0,B|48:145|11:189|30:273|97:267,1,190,0|2
276,320,144085,5,2
336,140,144607,1,0
148,136,145128,2,0,B|84:126|93:197,2,95
184,220,145911,1,0
184,220,146172,2,0,B|224:272|296:264|296:264,2,95
96,52,147216,5,0
280,100,147737,2,0,B|344:116|346:54,3,95
347,57,148781,1,0
164,108,149303,5,0
68,272,149825,2,0,B|52:336|117:336,3,95
113,336,150868,1,0
424,320,151390,6,0,B|368:360|288:336|276:260,1,190
432,168,152433,2,0,B|487:161|496:104,2,95,2|0|0
340,196,153216,1,0
294,211,153347,1,0
250,229,153477,1,0
159,257,153738,6,0,B|115:282|127:345,3,95
126,340,154781,1,0
45,289,155042,1,2
72,104,155564,5,0
164,76,155825,1,0
256,60,156086,1,0
352,68,156347,1,0
432,116,156608,2,0,B|456:160|456:212,1,95
455,206,157129,1,2
72,272,157651,5,0
160,308,157912,1,0
252,324,158173,1,0
344,304,158434,1,0
432,272,158695,2,0,B|456:228|456:176,1,95
456,180,159217,1,2
360,172,159478,5,0
360,172,159738,2,0,B|336:52|216:92,1,190
360,220,160782,2,0,B|344:340|224:308,1,190,0|2
176,124,161826,2,0,B|168:4|43:37,1,190
72,144,162608,1,0
68,191,162739,1,0
72,238,162869,1,0
160,256,163130,2,0,B|133:289|141:324|176:336,1,95,0|2
344,232,163913,5,0
340,42,164434,1,0
136,56,164956,2,0,B|176:24|228:44,1,95
200,136,165478,1,2
216,184,165608,1,0
232,232,165739,1,0
232,232,166000,1,0
328,232,166261,5,0
328,232,166522,2,0,B|336:280|288:314,2,95
104,168,168087,6,0,B|88:64|152:-16|344:40|336:152|272:208|160:160|168:56|296:-16|400:32|440:112|420:178,1,570,0|2
420,234,170174,6,0,B|436:338|372:418|180:362|188:250|252:194|364:242|356:346|228:418|124:370|84:290|104:228,1,570,0|2
248,116,172261,6,0,B|208:-12|64:28|8:52|8:140|24:204|56:252|112:284|216:324|216:324,1,570,0|2
244,232,174087,1,0
248,116,174348,2,0,B|288:-12|432:28|488:52|488:140|472:204|440:252|384:284|280:316|280:316,1,570
160,184,176436,6,0,B|136:237|80:232,3,95
72,140,177479,1,0
256,96,178001,1,0
440,140,178523,1,0
224,320,180610,6,0,B|272:320|298:266,1,95,4|0
224,208,181132,2,0,B|236:156|295:151,1,95,8|0
376,200,181653,1,0
459,145,181914,2,0,B|500:112|495:59,2,95,0|8|0
460,146,182697,1,0
400,64,182958,5,0
360,88,183088,1,0
320,112,183219,1,8
232,160,183480,1,0
232,208,183610,1,0
232,256,183741,1,0
324,277,184001,6,0,B|308:328|252:325,1,95,0|8
172,280,184523,2,0,B|112:280|100:336,1,95
192,344,185045,2,0,B|288:344,1,95,0|8
432,224,185828,6,0,B|416:128|416:128|360:112|336:155,1,190,0|8
144,128,186871,1,4
168,168,187002,1,0
192,208,187132,1,0
278,246,187393,1,8
312,216,187523,1,0
346,182,187654,1,0
448,184,187915,1,0
448,232,188045,1,0
448,279,188176,1,0
392,360,188437,6,0,B|338:359|338:359|321:322|321:322,2,95,8|0|0
321,322,189219,1,0
321,322,189480,1,8
360,232,189741,5,0
376,136,190002,2,0,B|344:96|292:104,2,95,0|0|8
376,136,190785,1,0
296,192,191045,5,0
272,233,191176,1,0
248,272,191306,1,0
200,192,191567,1,8
200,144,191698,1,0
200,96,191828,1,0
288,72,192089,5,0
328,96,192220,1,0
368,120,192350,1,0
376,216,192611,1,8
348,254,192741,1,0
319,292,192872,1,0
224,312,193133,6,0,B|176:344|176:344|137:328|137:328,3,95,0|0|8|0
176,240,194176,2,0,B|200:200|200:200|248:224|248:224,3,95,0|0|8|0
308,291,195220,5,4
300,244,195350,1,0
295,196,195481,1,0
375,246,195742,1,8
370,198,195872,1,0
366,150,196002,1,0
446,98,196263,1,0
400,83,196394,1,0
355,67,196524,1,0
248,56,196785,6,0,B|200:32|128:80|61:59,1,190,8|0
80,152,197568,2,0,B|82:250,1,95,0|8
254,326,198350,6,0,B|174:326|174:326|118:318|164:234|164:234,1,190,0|8
200,144,199133,1,0
236,56,199394,2,0,B|316:56|316:56|372:64|333:147|333:147,1,190,0|8
416,328,200438,2,0,B|456:296|456:296|464:240|416:208|381:192,2,190,0|8|0
336,280,201742,2,0,B|267:214,1,95,8|8
80,208,202525,6,0,B|48:152|82:91|144:80|176:96,1,190,0|8
368,96,203568,1,4
376,144,203699,1,0
384,192,203829,1,0
296,224,204090,5,8
284,272,204221,1,0
272,320,204351,1,0
208,256,204612,1,0
176,224,204742,1,0
144,192,204873,1,0
216,128,205134,6,0,B|109:70|40:152|40:152,1,190,8|0
104,224,205916,2,0,B|76:315,1,95,0|8
264,288,206699,6,0,B|232:208|232:208|272:152|268:112,1,190,0|8
360,96,207482,1,0
448,120,207743,2,0,B|441:160|481:216|481:216|447:298,1,190,0|8
280,208,208786,5,0
280,160,208917,1,0
280,112,209047,1,0
280,64,209178,1,0
280,16,209308,1,8
184,32,209569,2,0,B|144:23|144:80|110:80,1,95
106,175,210091,2,0,B|146:166|146:223|182:223,1,95,8|0
258,278,210612,5,0
352,268,210873,2,0,B|361:228|304:228|304:192,1,95,0|0
256,112,211395,1,0
200,192,211656,2,0,B|209:232|152:232|152:268,1,95,0|0
