osu file format v9

[General]
AudioFilename: Tuk.mp3
AudioLeadIn: 0
PreviewTime: 43831
Countdown: 1
SampleSet: Soft
StackLeniency: 0.7
Mode: 0
LetterboxInBreaks: 0
EpilepsyWarning: 1

[Editor]
DistanceSpacing: 1
BeatDivisor: 2
GridSize: 8

[Metadata]
Title:Tuk Tuk
Artist:5ivesta Family
Creator:Ryu
Version:Easy
Source:
Tags:russian

[Difficulty]
HPDrainRate:2
CircleSize:3
OverallDifficulty:2
ApproachRate:3
SliderMultiplier:0.9
SliderTickRate:1

[Events]
//Background and Video events
0,0,"rainbow-heartbeat.png"
//Break Periods
2,110891,125948
//Storyboard Layer 0 (Background)
//Storyboard Layer 1 (Fail)
//Storyboard Layer 2 (Pass)
//Storyboard Layer 3 (Foreground)
//Storyboard Sound Samples
//Background Colour Transformations
3,100,163,162,255

[TimingPoints]
2160,521.784503000261,4,2,2,60,1,0
43902,-100,4,1,2,70,0,1
76775,-100,4,2,2,60,0,0
93994,-100,4,1,2,70,0,1
110691,-100,4,2,2,60,0,0
180610,-100,4,1,1,70,0,1
211917,-100,4,2,1,60,0,0

[Colours]
Combo1 : 128,255,255
Combo2 : 167,79,255
Combo3 : 0,84,168
Combo4 : 118,253,72
Combo5 : 255,255,117

[HitObjects]
64,176,10508,5,10
200,64,11552,1,0
344,176,12595,1,0
344,176,13117,1,2
192,272,14161,6,0,B|216:320|272:304,1,90,2|0
360,304,15204,1,2
360,304,15726,1,0
432,248,16248,6,0,B|480:224|464:168,1,90,2|0
408,104,17291,2,0,B|360:128|376:184,1,90,2|0
376,272,18335,1,2
288,272,18857,5,0
112,272,19900,1,0
248,152,20944,2,0,B|152:152,2,90,0|2|0
408,64,23031,5,0
360,240,24074,1,0
176,240,25118,1,0
177,61,26162,1,0
176,240,27205,6,0,B|128:256|80:232,1,90,0|2
128,152,28249,2,0,B|112:104|136:56,1,90,0|2
208,112,29292,2,0,B|256:96|304:120,1,90,0|2
248,192,30336,2,0,B|264:240|240:288,1,90,0|2
328,280,31379,5,0
144,280,32423,1,0
144,96,33467,2,0,B|244:80|304:156,1,180
352,328,35554,5,0
288,264,36075,2,0,B|288:168,2,90
200,264,37641,1,0
200,176,38163,1,2
48,80,39206,6,0,B|24:120|48:168,1,90,2|0
96,240,40250,2,0,B|136:264|184:240,1,90,2|0
232,168,41293,2,0,B|256:128|232:80,1,90,2|0
56,56,42859,5,0
120,120,43380,1,0
120,208,43902,5,4
200,240,44424,2,0,B|200:184|256:176,1,90,8|0
344,184,45468,1,8
344,96,45989,1,0
264,56,46511,1,8
264,144,47033,5,0
224,220,47555,1,8
136,192,48077,2,0,B|154:145|200:129,1,90,0|8
248,56,49120,5,0
336,64,49642,1,8
408,120,50164,1,0
424,208,50685,1,8
368,280,51207,2,0,B|280:280,1,90,0|8
216,216,52251,6,0,B|168:176|216:144,2,90,0|8|0
216,304,53816,1,8
304,312,54338,1,0
360,248,54860,1,8
360,160,55382,6,0,B|336:112|288:104,1,90,0|8
208,128,56425,2,0,B|232:176|280:184,1,90,0|8
344,240,57469,2,0,B|320:288|272:296,1,90,0|8
256,208,58512,1,0
160,56,59556,5,0
160,144,60078,1,8
112,216,60599,2,0,B|152:248|200:224,2,90,4|8|0
24,200,62165,6,0,B|16:256|56:280,1,90,8|0
144,280,63208,1,8
232,272,63730,6,0,B|272:248|272:192,2,90
192,192,65295,1,0
144,120,65817,2,0,B|104:144|104:200,1,90,0|8
152,272,66861,2,0,B|128:312|72:312,1,90,0|8
72,224,67904,6,0,B|72:136,1,90,0|8
144,80,68948,1,4
208,144,69470,1,8
280,200,69991,1,0
368,184,70513,6,0,B|408:160|400:104,2,90,8|0|8
320,112,72079,1,0
240,72,72600,1,8
152,72,73122,5,0
72,112,73644,1,8
32,192,74166,2,0,B|8:216|8:216|8:336|8:336|8:336|8:336|32:352,1,180
104,296,75731,1,8
104,112,76775,1,8
184,72,77296,6,0,B|232:64|272:96,1,90,0|2
328,160,78340,2,0,B|336:208|304:248,1,90,0|2
216,248,79384,1,4
128,248,79905,1,2
256,120,80949,6,0,B|296:80|296:80|328:80,1,90,2|0
384,152,81993,2,0,B|344:192|344:192|312:192,1,90,2|0
224,192,83036,2,0,B|191:192|191:192|151:232,1,90,2|0
232,272,84080,1,2
320,272,84601,1,0
408,272,85123,1,2
368,192,85645,5,0
280,192,86167,2,0,B|280:104,1,90,2|0
192,104,87210,1,2
192,192,87732,2,0,B|192:288,1,90,0|2
256,344,88776,1,0
312,280,89298,6,0,B|360:240|360:240|360:96|360:96|304:64,1,270,2|0
216,96,91385,2,0,B|136:144,1,90
384,112,93994,5,4
368,200,94515,1,8
304,264,95037,1,0
232,320,95559,2,0,B|264:360|312:352,1,90,8|0
392,304,96602,1,8
456,240,97124,6,0,B|480:192|456:144,2,90
384,192,98690,1,0
344,112,99211,1,0
256,112,99733,1,8
176,160,100255,1,0
176,248,100777,1,8
352,248,101820,1,8
264,248,102342,5,4
264,160,102864,1,8
304,80,103386,1,0
232,24,103907,2,0,B|184:32|160:80,1,90,8|0
160,168,104951,1,8
88,216,105473,6,0,B|88:312,1,90,0|8
176,280,106516,2,0,B|264:280,1,90,0|8
244,192,107560,2,0,B|244:104,1,90,0|8
244,56,108343,1,0
256,192,110169,5,8
256,192,110691,1,0
136,144,127388,5,4
320,144,128431,1,0
296,320,129475,5,0
112,320,130518,1,0
208,160,131562,5,0
384,160,132606,1,0
400,336,133649,5,0
264,216,134693,1,0
408,104,135736,6,0,B|384:56|336:56,1,90,0|2
248,64,136780,2,0,B|200:88|200:136,1,90,0|2
288,144,137823,6,0,B|336:136|366:185,1,90,0|2
360,272,138867,2,0,B|336:328|288:320,1,90,0|2
208,296,139911,6,0,B|160:208|160:208|176:128|176:128|248:72,1,270,0|2
336,72,141998,6,0,B|405:125|405:125|421:205|421:205|373:293,1,270,0|2
280,304,144085,5,0
328,128,145128,5,0
384,56,145650,1,0
296,48,146172,2,0,B|232:112,1,90,0|2
152,72,147216,6,0,B|120:112|72:112,1,90
120,184,148259,2,0,B|80:216|80:264,1,90,0|2
168,264,149303,5,0
248,232,149825,1,0
304,160,150346,1,0
304,72,150868,1,2
392,72,151390,6,0,B|448:80|448:136,1,90
448,224,152433,2,0,B|456:280|400:288,1,90,2|0
312,288,153477,2,0,B|256:296|248:240,1,90,2|0
248,152,154521,2,0,B|240:96|296:88,1,90,0|2
344,160,155564,5,0
296,232,156086,1,0
248,304,156608,1,2
104,192,157651,5,0
256,96,158695,1,2
104,192,159738,6,0,B|40:152|-16:160|-32:288|40:304|96:312,1,270
184,312,161826,2,0,B|235:304|307:288|291:160|235:152|171:192,1,270
136,112,163913,5,0
176,32,164434,1,0
240,96,164956,1,0
304,160,165478,1,2
304,248,166000,1,0
384,288,166522,6,0,B|416:240|384:192,2,90,0|0|2
304,320,168087,5,0
240,256,168609,1,0
184,184,169131,1,2
344,96,170174,5,0
344,184,170696,1,0
344,272,171218,1,0
168,304,172261,6,0,B|128:272|136:224,1,90
224,224,173305,2,0,B|256:184|304:192,1,90,0|2
376,248,174348,2,0,B|416:216|408:168,1,90
352,96,175392,2,0,B|384:56|432:64,1,90
424,152,176436,5,0
424,240,176957,1,0
424,328,177479,1,2
344,288,178001,1,2
272,232,178523,1,2
224,88,180610,5,4
312,88,181132,1,8
400,120,181653,2,0,B|440:176|440:176|424:232|424:232|376:256,1,180
288,272,183219,1,8
200,272,183741,1,0
120,232,184262,2,0,B|93:277|125:317,1,90,8|0
304,320,185828,5,0
344,240,186349,1,8
360,160,186871,2,0,B|368:112|368:112|312:48|312:48|264:48,1,180,4|0
224,144,188437,5,8
224,232,188958,1,0
224,320,189480,1,8
312,320,190002,6,0,B|360:304|360:248,1,90,0|8
328,168,191045,2,0,B|280:184|280:240,1,90,0|8
248,320,192089,2,0,B|200:304|200:248,1,90,0|8
200,208,192872,1,0
416,152,194176,5,0
328,152,194698,1,8
240,152,195220,2,0,B|184:152|168:200,1,90,4|8
248,240,196263,2,0,B|258:288|296:312,1,90,0|8
336,232,197307,1,0
304,152,197829,1,8
248,80,198350,6,0,B|192:40|88:80|72:200|160:232|160:232,1,270
240,256,200438,1,0
328,256,200959,1,8
416,256,201481,1,0
280,328,202525,6,0,B|192:328,1,90,0|8
216,240,203568,1,4
296,200,204090,1,8
272,112,204612,1,0
352,80,205134,6,0,B|392:160,1,90,8|0
424,240,206177,1,8
336,272,206699,6,0,B|296:336|176:328|120:272|120:208,1,270,0|8
240,200,208786,2,0,B|344:200|368:96,1,180
184,88,210873,1,0
184,176,211395,2,0,B|296:176,1,90
